#TITLE:Fucked With an Anchor;
#SUBTITLE:;
#ARTIST:Unknown artist;
#TITLETRANSLIT:;
#SUBTITLETRANSLIT:;
#ARTISTTRANSLIT:;
#GENRE:;
#CREDIT:;
#BANNER:banner.png;
#BACKGROUND:maxresdefault-6.jpg;
#LYRICSPATH:;
#CDTITLE:;
#MUSIC:Fucked With An Anchor - ALESTORM (lyrics).mp3;
#OFFSET:0.000000;
#SAMPLESTART:99.971581;
#SAMPLELENGTH:12.000000;
#SELECTABLE:YES;
#BPMS:0.000000=78.000000
;
#STOPS:
;
#BGCHANGES:;
#KEYSOUNDS:;
#ATTACKS:;

//---------------dance-single - ----------------
#NOTES:
     dance-single:
     :
     Hard:
     6:
     0.491422,0.519868,0.532147,0.289830,0.684189,724.000000,612.000000,112.000000,61.000000,0.000000,0.000000,0.491422,0.519868,0.532147,0.289830,0.684189,724.000000,612.000000,112.000000,61.000000,0.000000,0.000000:
// measure 0
0000
0001
1000
0001
0000
1001
0000
1000
0001
1000
0000
1001
0000
1000
0001
1000
,  // measure 1
0000
1100
0000
0000
0000
0011
0000
0000
0000
0101
0000
0100
1000
0010
0001
0010
,  // measure 2
0000
0000
0100
0000
1000
0100
0010
0000
0001
0000
0010
0000
0100
1000
0100
0000
,  // measure 3
0000
0011
0000
1100
0000
1000
0110
0011
,  // measure 4
0100
0001
1000
0001
0010
0100
0010
1001
,  // measure 5
0000
0000
1100
0000
0000
0000
0101
0000
0000
0000
0001
0001
0010
0100
1000
0100
,  // measure 6
0000
0010
0000
0001
0000
0010
0100
1000
0000
0100
0000
0010
0000
0001
0010
0001
,  // measure 7
0000
0000
0000
0110
0000
0000
0000
1001
0000
0000
0000
1000
0100
0010
0001
0010
,  // measure 8
0000
0100
0000
0010
0000
1000
0000
0001
0000
1000
0000
1010
0000
0101
0000
0011
,  // measure 9
0000
1000
0100
0001
0001
0010
0100
1000
0100
0010
0000
0002
0000
0020
0003
0230
,  // measure 10
0000
0000
0300
2000
0000
3200
0000
0310
0000
0001
0000
0010
0100
0010
0100
0100
,  // measure 11
0020
0000
0030
0000
0001
0010
0100
1000
0100
0000
0010
0000
0002
0000
0023
0000
,  // measure 12
0230
0000
0300
0000
2000
0000
3200
0000
0320
0000
0000
0031
0020
0000
0230
0000
,  // measure 13
2300
0000
3000
1000
0100
0000
0010
0001
0010
0000
0000
0100
1000
0100
0010
0001
,  // measure 14
0010
0000
0000
0010
0001
0010
0100
1000
0100
0010
0100
1000
0100
0100
0010
0001
,  // measure 15
0010
0000
0000
0000
0001
0010
0100
1000
0100
1000
0010
0100
0010
1000
0100
0010
,  // measure 16
0001
0000
0000
0000
0010
0000
0100
0010
0001
0000
0010
0001
0000
1000
0100
0010
,  // measure 17
0000
0002
0000
0003
0000
0100
0000
0010
0001
0010
0000
0000
0100
0010
0100
1000
,  // measure 18
0001
1000
0000
0000
1000
0100
0010
0000
0001
0010
0000
0000
0100
0010
0100
1000
,  // measure 19
0100
0010
0000
0000
0010
0001
0000
0100
1000
0100
0100
0010
0001
0010
1000
0100
,  // measure 20
0010
0001
0000
0000
0000
0001
0001
0010
0100
1000
0100
0010
0100
1000
0000
0100
,  // measure 21
0010
0001
0010
0000
0000
0000
2000
0000
3200
0000
0320
0000
0032
0000
0023
0000
,  // measure 22
0230
0000
2300
0000
3000
0000
1001
0000
0000
0000
1010
0000
0000
0000
0101
0100
,  // measure 23
1000
0100
0010
0000
0001
0000
0010
0000
0100
1000
0100
0000
0010
0000
0001
0000
,  // measure 24
0010
0000
0101
0000
0000
0000
1100
0000
0000
0000
0011
0000
0000
0000
0100
1000
,  // measure 25
0100
0010
0001
0010
0001
0000
0110
0000
1010
0000
0101
0000
0110
0000
1100
0000
,  // measure 26
0101
0000
1100
0000
0000
0000
0110
0000
0000
0000
1001
0000
0000
0000
0000
0001
,  // measure 27
0010
0001
0010
0100
0000
1000
0000
0100
0000
1000
0010
0001
0000
0010
0000
0100
,  // measure 28
0000
0001
0000
1001
0000
0000
0000
1001
0000
0000
0000
1001
0000
0000
0000
1010
,  // measure 29
0000
1100
0000
0011
0000
0010
0000
0001
0000
0100
0000
1000
0000
0010
0000
1001
,  // measure 30
0000
0110
0000
1010
0000
0000
0010
0100
1000
0100
0010
0001
0010
0000
0001
0000
,  // measure 31
0020
0230
2300
3000
0002
0023
0230
1300
,  // measure 32
0100
0000
0010
0001
0020
0000
0030
0000
0020
0030
0100
1000
0100
0010
0002
0000
,  // measure 33
0023
0000
0032
0000
0200
0003
0000
0300
2000
0000
3200
0000
0320
0000
0000
0031
,  // measure 34
2000
0000
3200
0000
0320
0000
0000
0030
1000
0001
1000
0000
1000
0001
1000
0001
,  // measure 35
1001
0000
1100
0000
0011
0000
0000
0000
0100
1000
0100
0000
0010
0001
0010
0000
,  // measure 36
0100
1000
0100
0010
0000
0001
0000
0000
0100
0010
0100
1000
0010
0100
1000
0001
,  // measure 37
0000
1000
0100
0100
0010
0001
0000
0000
0001
1000
0100
0010
0001
0010
0010
0100
,  // measure 38
0000
0001
0001
0010
0100
1000
0000
0000
1000
0100
1000
0010
0001
0100
0000
1000
,  // measure 39
0100
0001
0010
0100
0010
0001
0000
0000
1000
0001
1000
0010
0001
0100
1100
0000
,  // measure 40
0010
0001
0100
0000
0010
0001
0010
0000
0000
1000
0100
0010
0001
0001
0010
0100
,  // measure 41
1000
0000
0100
0010
0100
0010
0000
0000
0000
1000
0001
1000
0001
0100
1000
0010
,  // measure 42
1000
0100
1000
0100
0000
0101
0000
0000
0000
0001
0010
0100
1000
1000
0010
0000
,  // measure 43
1000
0000
1001
1001
1001
1001
2002
0000
0000
3003
1010
0000
0201
0000
2000
0300
,  // measure 44
0000
0000
3200
0000
0320
0000
0032
0000
0000
0003
1001
0000
0000
0000
1010
0000
,  // measure 45
0000
0000
0001
0010
0001
0001
0010
0100
1000
0000
0100
0000
0100
1000
0010
1000
,  // measure 46
0000
0001
0000
1000
0000
0001
0010
0001
0000
0000
0000
0101
0000
0000
0000
1010
,  // measure 47
0000
0000
0000
1100
1000
0100
0010
0001
0000
0010
0000
0001
0000
0100
0000
1000
,  // measure 48
0000
0010
0000
1001
0000
1010
0000
0101
0000
0000
0000
1100
0000
0000
0000
0110
,  // measure 49
0000
0000
0000
1000
0100
1001
0000
1001
0000
1010
0000
1000
0000
0100
0100
0010
,  // measure 50
0001
0000
0010
0000
0001
0000
0100
1000
0100
0000
0000
1001
0000
0000
0000
1010
,  // measure 51
0000
0000
0000
0100
1000
0100
0010
0001
0010
0000
0001
0000
0100
0000
1000
0000
,  // measure 52
0100
0000
0010
0000
1001
0000
1001
0000
1001
0000
1000
0000
0100
0010
0001
0000
,  // measure 53
0020
0000
0230
0000
2300
0000
0200
3000
0000
0000
0000
0320
0032
0000
0000
0000
,  // measure 54
0000
0003
0000
0200
2000
0300
0000
0000
0000
3200
0000
0000
0320
0000
0000
0001
,  // measure 55
0000
0032
0000
0000
0020
0003
0130
1000
0000
0200
0000
0000
0000
0301
0010
0100
,  // measure 56
1000
0100
0010
0001
0010
0100
0010
0001
0010
0100
0010
0001
0000
1001
0000
1001
,  // measure 57
0000
1001
0000
1001
0000
1010
0000
1010
0000
0101
0000
0101
0000
1100
0000
0100
,  // measure 58
0010
0001
0000
0100
0000
0010
0000
1000
0000
1001
0000
0010
0000
1000
0000
0100
,  // measure 59
0000
0011
0000
0000
0000
0101
0000
0101
0000
1010
0000
1010
0000
1000
0000
0100
,  // measure 60
0010
0001
0010
0000
0100
0000
0010
0000
0100
0000
1001
0000
0011
0000
1100
0000
,  // measure 61
0011
0000
0101
0000
0000
0000
0101
0000
0101
0000
1010
0000
1010
0000
1000
0100
,  // measure 62
1000
0100
1000
0000
0001
0000
0100
0000
0001
0100
0001
0000
0010
0000
0001
0000
,  // measure 63
0010
1010
0000
1100
1100
0011
0011
1000
,  // measure 64
0100
0010
0001
0010
0100
0000
1001
0000
1001
0000
1010
0000
0101
0000
1100
0000
,  // measure 65
0011
0000
1010
0000
1000
0100
0010
0001
0000
0011
0000
1100
0000
1100
0000
1100
,  // measure 66
0010
0001
0010
0100
0000
1001
0000
0000
0000
0000
0000
0000
0000
0000
0000
0000
;
