#TITLE:Flower Dance;
#SUBTITLE:- 2010;
#ARTIST:Unknown artist;
#TITLETRANSLIT:;
#SUBTITLETRANSLIT:;
#ARTISTTRANSLIT:;
#GENRE:;
#CREDIT:;
#BANNER:banner.png;
#BACKGROUND:VmRrFMh.jpg;
#LYRICSPATH:;
#CDTITLE:;
#MUSIC:DJ Okawari - Flower Dance - 2010.mp3;
#OFFSET:0.000000;
#SAMPLESTART:99.971581;
#SAMPLELENGTH:12.000000;
#SELECTABLE:YES;
#BPMS:0.000000=100.000000
;
#STOPS:
;
#BGCHANGES:;
#KEYSOUNDS:;
#ATTACKS:;

//---------------dance-single - ----------------
#NOTES:
     dance-single:
     :
     Hard:
     7:
     0.441701,0.679516,0.106095,0.924540,0.344808,816.000000,788.000000,28.000000,244.000000,0.000000,2.000000,0.441701,0.679516,0.106095,0.924540,0.344808,816.000000,788.000000,28.000000,244.000000,0.000000,2.000000:
// measure 0
0000
2000
0000
0000
0000
0000
0000
0000
,  // measure 1
0000
0000
0000
0000
0000
0010
0000
3100
0000
0000
1000
0000
0100
0000
0000
0010
,  // measure 2
0000
0001
0000
0000
0010
0000
0100
0000
0000
1000
0000
0100
0000
0000
0010
0000
,  // measure 3
0001
0000
0000
0010
0000
0100
0000
0000
1000
0000
0100
0000
0000
0010
0000
0001
,  // measure 4
0000
0000
0010
0000
0100
0000
0000
1000
0000
0001
0000
0000
1000
0000
0100
0000
,  // measure 5
0000
0010
0000
0100
0000
0000
0010
0000
0100
0000
0000
1000
0000
0001
0000
0000
,  // measure 6
1000
0000
0001
0000
0000
0010
0000
0001
0000
0000
0010
0000
0100
0000
0000
1000
,  // measure 7
0000
0100
0000
0000
1000
0000
0100
0000
0000
0010
0000
0100
0000
0000
0001
0000
,  // measure 8
1000
0000
0000
0001
0000
0010
0000
0000
0001
0000
0100
0000
0000
0001
0000
0100
,  // measure 9
0000
0000
1000
0000
0100
0000
0000
1000
0000
0010
0000
0000
1000
0000
0010
0000
,  // measure 10
0000
0001
0000
0020
0000
0000
0000
0000
0000
0000
0000
0000
0030
0000
0000
0000
,  // measure 11
0000
0000
1001
0000
0000
0000
1000
0100
0000
0010
0001
0010
0000
0000
0001
0000
,  // measure 12
0000
0000
0010
0000
0000
0100
1000
0000
0000
0010
0001
0000
0000
0000
0110
0000
,  // measure 13
0000
0000
0100
0000
0000
0000
1000
0000
0000
0000
0001
0000
1000
0001
1000
0000
,  // measure 14
1000
0000
0200
0000
0000
0000
0000
0000
0000
0000
0000
0000
0000
0300
0000
0000
,  // measure 15
1000
0000
0001
0000
0000
0000
0000
0001
0010
0000
1000
0100
0000
0000
0020
0000
,  // measure 16
0000
0000
0031
0000
1000
0000
0100
0000
0010
0000
0001
0010
0100
1000
1000
0100
,  // measure 17
0100
0010
0001
1000
0010
0100
0010
0001
0010
0100
1000
0100
0010
0100
1000
0100
,  // measure 18
1000
0010
0001
0010
0100
0010
0001
0010
0100
0000
0220
0000
0000
0000
0000
0330
,  // measure 19
0000
1001
1000
0100
0010
0001
0010
0100
,  // measure 20
1000
0100
0010
0001
0010
0001
0100
1000
,  // measure 21
0100
0010
0001
0100
0010
0100
1000
0100
,  // measure 22
0010
0000
0100
0000
1000
0000
0100
0000
0000
0010
0100
0000
1000
0000
0001
0000
,  // measure 23
0010
0100
0010
0001
0010
0100
1000
0100
,  // measure 24
0010
0100
0010
0001
0010
0100
1000
0100
,  // measure 25
0010
0001
0010
0100
0001
0100
1000
0100
,  // measure 26
0010
0000
0110
0000
0000
0000
1001
0000
0000
1001
1001
0000
0000
0000
0000
0000
,  // measure 27
0000
1000
0200
0000
0000
0000
0300
0001
0010
0100
0000
2000
0000
0000
3200
0000
,  // measure 28
0000
0300
0002
0000
0000
0103
0010
0000
0000
0010
0001
0000
0000
0000
0002
0000
,  // measure 29
0000
0000
0003
0200
0000
0000
0000
2300
0000
0000
0010
3000
0100
0010
0001
1000
,  // measure 30
0100
0020
0000
0000
0030
0002
0203
2300
,  // measure 31
3010
0000
0002
0000
0000
0000
0000
0100
1003
0010
0000
0002
0000
0000
0023
0000
,  // measure 32
0000
0030
0200
0300
2000
0000
3100
0000
0010
0000
0001
0010
0001
0010
0001
0100
,  // measure 33
0001
0100
0000
1000
0100
0010
0001
0010
0100
1000
0100
0010
0001
0001
0010
0100
,  // measure 34
1000
0100
0010
0001
0010
0100
1000
0100
0010
0001
0020
0000
0000
0000
0000
0000
,  // measure 35
0030
0000
2000
0000
0000
0000
0000
3100
0010
0001
0000
0200
0000
0000
2300
0000
,  // measure 36
0000
3000
0200
0000
0000
0301
0010
0000
0000
0001
0020
0000
0000
0030
0002
0000
,  // measure 37
0000
0000
0203
0000
0000
0000
2300
0000
0000
0000
3100
0000
0001
0010
1000
0000
,  // measure 38
0010
0000
0200
0000
0000
0000
2300
0000
0200
3000
0320
0000
0032
0000
0003
0000
,  // measure 39
0200
0000
2300
0000
0000
0000
3000
0100
0010
0001
0200
0000
0000
0000
0320
0000
,  // measure 40
0000
0030
0002
0000
0023
0000
0230
0000
0000
0301
1000
0001
1000
0001
1000
0001
,  // measure 41
1000
0001
1000
0100
0010
0001
0010
0100
1000
0100
0010
0001
0001
0010
0100
1000
,  // measure 42
0100
0010
0001
0010
0100
1000
0100
0010
0001
0010
0100
1000
0200
0000
0000
0300
,  // measure 43
0000
0002
0023
2030
3200
0302
0203
2300
,  // measure 44
3010
0000
0001
0010
1000
0000
0100
0000
0010
0000
0100
0000
0000
0010
0200
0000
,  // measure 45
0000
0300
1001
0000
2000
0000
3001
0000
2000
0000
3200
0000
2300
0000
3020
0000
,  // measure 46
1030
0000
0001
0000
0010
0000
0002
0000
0000
0013
0100
1000
0200
0000
0310
0000
,  // measure 47
0002
0000
0010
0003
0100
0000
0020
0000
0130
0000
1000
0000
0002
0000
1000
0003
,  // measure 48
0002
0000
0013
0000
0002
0000
0200
0003
0302
0000
0203
0000
2300
0000
3100
0000
,  // measure 49
2000
0000
0020
3000
0000
1030
0010
0000
0002
0000
0013
0000
0002
0000
0103
0000
,  // measure 50
0001
0000
2002
0000
0000
3003
2002
0000
0000
3003
1001
2002
0000
0000
0000
0000
,  // measure 51
3003
0000
2200
0000
0000
0300
0020
0000
0030
0000
3002
0000
0000
0000
0200
0000
,  // measure 52
0000
0003
2300
0000
0000
0000
3002
0000
0000
0000
0203
0000
2000
0000
0300
0000
,  // measure 53
3200
0320
0000
0032
0000
0203
0000
2300
,  // measure 54
0000
0000
0100
3000
0010
0000
0001
0000
0010
0000
0100
0000
1000
0000
0100
0000
,  // measure 55
0010
0200
0000
2300
0000
3020
0000
0200
,  // measure 56
2000
0330
0000
0000
3100
0000
0010
0000
0002
0000
0200
0003
0000
0302
0000
0000
,  // measure 57
0023
0230
0000
0320
0000
0032
0000
2003
,  // measure 58
0000
0000
3001
0000
0020
0000
2030
0000
3200
0000
0320
0000
0032
0000
0003
0010
,  // measure 59
0100
0002
0000
0023
0000
2030
0000
3200
,  // measure 60
0000
0000
0301
0000
0020
0000
0032
0000
0203
0000
2300
0000
0000
3100
0010
0000
,  // measure 61
0200
2300
0000
3002
0000
0023
0000
0230
,  // measure 62
0000
2300
3010
0002
0203
0302
0203
2300
,  // measure 63
3100
0000
0002
0000
0000
0000
0023
0000
0000
0030
0002
0000
0000
0000
0200
0003
,  // measure 64
0000
0300
2000
0000
3100
0000
0020
0000
0032
0000
0013
0000
0200
0000
2300
0000
,  // measure 65
3200
0320
0000
0230
0000
2300
0000
3002
,  // measure 66
0000
0000
0010
0003
0200
0000
2300
0000
3200
0000
0320
0000
0031
0000
0020
0000
,  // measure 67
0230
0000
2300
0000
0000
0000
0002
3000
0020
0003
0230
0000
0000
0000
2300
0000
,  // measure 68
0020
3000
0032
0000
0000
0000
0013
0000
0002
0000
0000
0203
0000
0000
2300
0000
,  // measure 69
3100
0000
0020
0000
0000
0000
0230
0000
2000
0300
3200
0000
0000
0000
0002
0300
,  // measure 70
0020
0000
0200
0033
0000
0000
0310
0000
0100
0000
0010
0000
0200
0000
0310
0000
,  // measure 71
0200
2300
0000
3002
2003
3002
0000
0013
,  // measure 72
0100
0020
0000
2030
3100
0020
0000
0032
,  // measure 73
0023
0130
2000
3200
0320
0032
0000
0023
,  // measure 74
0032
0023
0000
0230
0000
2300
0000
0000
,  // measure 75
3000
0000
1001
0000
0000
1000
0100
0000
0010
0000
0001
0000
0010
0001
0010
0001
,  // measure 76
0100
0000
1000
0100
1000
0100
1000
0100
0010
0001
0000
0010
0100
0000
0010
0001
,  // measure 77
0010
0100
1000
0000
0100
1000
0100
1000
0010
1000
0010
0000
0001
0010
0001
0010
,  // measure 78
0001
0100
0001
0100
1000
0100
1000
0010
0001
0010
0100
0000
0100
1000
0100
0000
,  // measure 79
0010
0001
0000
0020
0000
0000
0032
0000
0000
0000
0023
0000
0000
0000
0230
0000
,  // measure 80
0000
0000
2300
0000
3200
0000
0310
0000
0002
0000
0023
0000
0200
0030
2300
0000
,  // measure 81
0200
3000
0020
0300
0000
0000
0230
0000
0000
0000
2300
0000
0000
0000
3002
0000
,  // measure 82
0000
1003
0100
0020
0032
0023
0000
0000
,  // measure 83
0030
0000
2002
0000
0000
0000
0000
0000
0000
0000
3000
0003
1000
0100
0010
0001
,  // measure 84
0010
0100
0010
0100
1000
0001
1000
0100
,  // measure 85
0000
0011
0100
0000
1000
0000
0100
0000
0010
0000
0100
0000
0001
0000
0010
0000
,  // measure 86
0001
0010
0100
0000
1000
0000
0100
0000
0010
0000
0100
0000
1000
0000
0100
0000
,  // measure 87
0010
0000
0001
0000
0010
0000
0001
0000
0000
0100
1000
0000
0010
0000
0001
0000
,  // measure 88
0010
0100
0010
0100
1000
1001
1000
0100
,  // measure 89
0010
0011
1000
0100
0010
0001
0010
0100
,  // measure 90
0010
0100
1000
0001
1000
0010
1000
0010
,  // measure 91
1000
0000
1010
0000
0000
0000
1001
0000
0000
0101
0101
0000
0000
0000
0000
0000
,  // measure 92
0000
1000
1000
0100
0010
0001
0010
0100
,  // measure 93
1000
0100
0010
0100
0010
1000
0001
1000
,  // measure 94
0001
1000
0100
1000
0100
1000
0010
1000
,  // measure 95
0010
0000
0001
0000
0100
0010
0001
0010
0100
1000
0100
0010
0001
0001
0010
0100
,  // measure 96
1000
0100
0010
0000
0010
0000
0100
0000
0010
0000
0100
0000
0100
0000
1000
0000
,  // measure 97
0100
1000
0010
1000
0001
0010
0001
0010
,  // measure 98
0001
0100
0001
0100
1000
0100
0010
0100
,  // measure 99
0010
0000
1001
0000
0000
0000
1001
0000
0000
1001
2002
0000
0000
0000
0000
0000
,  // measure 100
3003
0000
2020
0000
0000
0030
0200
3000
0020
0300
0031
0000
0010
0000
0100
0000
,  // measure 101
1000
0100
0010
0001
0010
0100
1000
0100
,  // measure 102
0000
0010
0000
0001
0000
0010
0000
0100
0000
1000
0000
0100
0000
0010
0000
0001
,  // measure 103
0000
0010
0000
0100
0000
0000
1000
0000
0100
0000
0020
0000
0032
0000
0023
0000
,  // measure 104
0000
0230
0000
2300
0000
3200
0000
0020
0300
0000
0032
0000
0023
0000
0130
0000
,  // measure 105
2000
0000
0200
3000
0020
0300
0000
0032
0000
0023
0000
0000
0230
0000
0000
2300
,  // measure 106
0000
0000
3200
0000
0320
0000
0030
0002
0000
0023
0000
0000
0230
0000
2300
0000
,  // measure 107
0000
3200
0000
0320
0000
0000
0032
0000
0000
0023
0000
0000
0230
0000
2300
0000
,  // measure 108
0000
3200
0000
0320
0000
0000
0032
0000
0023
0000
0000
0130
0000
0000
0000
0000
;
