#VERSION:0.83;
#TITLE:Fairy Tail;
#SUBTITLE:( Dubstep Mix );
#ARTIST:Unknown artist;
#TITLETRANSLIT:;
#SUBTITLETRANSLIT:;
#ARTISTTRANSLIT:;
#GENRE:;
#ORIGIN:;
#CREDIT:;
#BANNER:banner.png;
#BACKGROUND:4487576-fairy-tail-wallpapers.jpg;
#PREVIEWVID:;
#JACKET:;
#CDIMAGE:;
#DISCIMAGE:;
#LYRICSPATH:;
#CDTITLE:;
#MUSIC:Fairy Tail Main Theme - Glitch Hop_Dubstep [ dj-Jo Remix ].mp3;
#OFFSET:0.000000;
#SAMPLESTART:99.971581;
#SAMPLELENGTH:12.000000;
#SELECTABLE:YES;
#BPMS:0.000=166.000;
#STOPS:;
#DELAYS:;
#WARPS:;
#TIMESIGNATURES:0.000=4=4;
#TICKCOUNTS:0.000=4;
#COMBOS:0.000=1;
#SPEEDS:0.000=1.000=0.000=0;
#SCROLLS:0.000=1.000;
#FAKES:;
#LABELS:0.000=Song Start;
#BGCHANGES:;
#KEYSOUNDS:;
#ATTACKS:
;

//---------------dance-single - ----------------
#NOTEDATA:;
#CHARTNAME:;
#STEPSTYPE:dance-single;
#DESCRIPTION:;
#CHARTSTYLE:;
#DIFFICULTY:Hard;
#METER:8;
#RADARVALUES:0.610643,0.680767,0.139736,0.308137,0.000000,1193.000000,1154.000000,39.000000,86.000000,0.000000,5.000000,0.000000,0.000000,0.000000,0.610643,0.680767,0.139736,0.308137,0.000000,1193.000000,1154.000000,39.000000,86.000000,0.000000,5.000000,0.000000,0.000000,0.000000;
#CREDIT:;
#NOTES:
// measure 0
0000
1001
0100
1000
0100
0010
0001
0000
,  // measure 1
0010
0100
1000
0100
0010
0000
1001
0010
,  // measure 2
0100
1000
1000
0100
0010
0001
0001
0010
,  // measure 3
0100
1000
1001
0100
1000
0100
0010
0001
,  // measure 4
0010
0100
1000
0100
0010
0000
0001
0010
,  // measure 5
0100
1000
1000
0010
0001
0010
0100
0001
,  // measure 6
1001
0010
1000
0100
0010
0001
0001
0010
,  // measure 7
0100
1000
0100
0010
0001
0000
1001
1000
,  // measure 8
0001
1000
0100
0010
1000
0010
0001
0100
,  // measure 9
0010
1000
0100
0010
0001
0010
0100
1000
,  // measure 10
0010
0001
0010
0100
1000
1000
0100
0100
,  // measure 11
0010
0001
0010
0010
0100
1000
0010
0001
,  // measure 12
0010
0100
1000
1100
1000
0010
0100
1000
,  // measure 13
0010
0100
1000
0010
1000
0100
0010
0001
,  // measure 14
1000
0001
1000
0001
0010
0100
0001
0010
,  // measure 15
0001
0010
0000
0001
0100
0001
0100
1000
,  // measure 16
0010
0100
1000
0100
1000
1000
0010
0100
,  // measure 17
1000
0100
0010
0001
0010
0100
1000
0010
,  // measure 18
0001
0010
0000
0100
1000
0100
0010
0001
,  // measure 19
0100
0010
0001
0010
0100
1000
0000
0100
,  // measure 20
0010
0001
0010
0100
1000
0100
0010
0001
,  // measure 21
1000
0100
0010
1001
0010
0100
1000
1000
,  // measure 22
0100
0010
0001
0010
0100
1000
0000
1000
,  // measure 23
0100
0010
0001
0010
0000
0100
0010
0001
,  // measure 24
0010
0100
0000
2000
0000
0000
0000
0000
,  // measure 25
3000
0020
0000
0000
0000
0000
0000
0000
,  // measure 26
0000
0000
0000
0000
0000
0000
0000
0032
,  // measure 27
0000
0023
0000
0032
0000
0000
0000
0000
,  // measure 28
0000
0023
0000
0000
0000
0000
0000
2030
,  // measure 29
0000
0000
0000
0000
0000
3002
0000
0000
,  // measure 30
0000
0000
0000
0023
0000
0000
0000
0000
,  // measure 31
0000
2030
0000
0000
0000
0000
0000
3020
,  // measure 32
0000
0000
0000
0000
,  // measure 33
0032
0000
0100
2003
0000
0000
3020
0000
,  // measure 34
0000
2030
0000
0000
3002
0000
0000
2003
,  // measure 35
0000
0000
0000
0000
0000
3002
0000
0000
,  // measure 36
0000
0000
0003
0010
0100
1000
0100
0010
,  // measure 37
0001
0000
0010
0100
0001
0010
0100
0000
,  // measure 38
1000
0100
0010
0100
1000
0000
0100
0010
,  // measure 39
0001
0010
0100
0000
2000
0000
0000
0000
,  // measure 40
0000
3002
0000
0000
0000
0000
0000
0000
,  // measure 41
0000
0000
0000
0000
,  // measure 42
0000
0013
2000
0000
0020
3000
0000
0000
,  // measure 43
0000
0032
0000
0000
0000
0000
0000
2003
,  // measure 44
0000
0000
0000
0000
0000
0002
3000
0000
,  // measure 45
0000
0000
0023
0000
,  // measure 46
0000
0032
0000
0000
0000
0000
0000
0000
,  // measure 47
0020
0000
0000
0000
,  // measure 48
0033
2000
0020
3000
0032
0000
0003
0020
,  // measure 49
0000
0000
2030
0000
0000
3020
0000
0000
,  // measure 50
0032
0000
0000
2000
,  // measure 51
0000
0000
3003
0000
1000
0100
0010
0001
,  // measure 52
1000
0000
0100
0010
0001
0010
0100
0010
,  // measure 53
1001
0000
1000
0010
0001
0100
1000
1000
,  // measure 54
0100
0010
0001
0100
1001
0000
1000
0001
,  // measure 55
0010
0100
1000
1000
0100
0010
0001
0010
,  // measure 56
1010
0010
0001
0010
0100
1000
0100
0001
,  // measure 57
0010
0100
1000
0100
1001
1000
0001
1001
,  // measure 58
1000
0010
0001
1000
0010
0001
0100
1000
,  // measure 59
0000
0100
0001
0010
0100
1000
0010
0001
,  // measure 60
0010
0100
1000
0100
0000
0010
0100
1000
,  // measure 61
0100
0001
0000
0010
0100
0010
0001
0010
,  // measure 62
0000
0100
1000
0100
0010
0001
0010
1000
,  // measure 63
0100
0010
0001
0010
0100
2000
0000
0000
,  // measure 64
3001
0010
0001
0010
0001
0010
0001
0010
,  // measure 65
0001
0010
1000
0010
1000
0010
1000
0010
,  // measure 66
1000
0010
1000
1000
0001
1001
1001
0100
,  // measure 67
0010
0001
0100
0010
0001
0010
0100
1000
,  // measure 68
0000
0100
0010
0001
0010
0100
1000
0100
,  // measure 69
1000
0100
0010
0001
0010
0010
0100
0010
,  // measure 70
0001
0000
0010
0001
0010
0100
0010
1001
,  // measure 71
0001
0010
0100
1000
0001
0000
0100
1000
,  // measure 72
0100
1000
0100
0010
1000
0010
0100
1000
,  // measure 73
0100
0010
0001
1000
0100
0001
0001
0010
,  // measure 74
1000
0001
0010
0100
0010
0100
0001
0010
,  // measure 75
0100
0100
0010
0001
0010
0100
1000
1000
,  // measure 76
0100
0010
0010
1000
0100
0010
0001
0010
,  // measure 77
0001
0000
0100
1000
0010
0001
0100
0000
,  // measure 78
1000
0100
0001
0100
1000
0000
0100
1000
,  // measure 79
0010
0001
0010
0000
1000
1000
0100
0001
,  // measure 80
0010
0000
0001
0010
0001
0010
0001
0100
,  // measure 81
1000
0001
0100
1000
0100
0000
0001
0010
,  // measure 82
1000
0010
0001
0001
0010
1000
0010
0001
,  // measure 83
1000
0000
1000
0100
0001
0100
1000
0000
,  // measure 84
0100
0001
0100
1000
1000
0000
1000
0010
,  // measure 85
0001
0010
1000
0000
1000
0100
0001
0010
,  // measure 86
0100
1000
1000
0100
1000
0010
0000
1000
,  // measure 87
0100
0001
0010
0100
1000
0000
0100
0010
,  // measure 88
0001
0010
0001
0000
0010
0100
0000
1000
,  // measure 89
0100
0010
1000
0010
1000
0010
0000
0001
,  // measure 90
0010
0001
0100
0001
0100
0001
0100
1000
,  // measure 91
0100
0010
0010
0001
0010
0001
0100
1000
,  // measure 92
0001
1000
1000
0100
0001
0100
0010
1000
,  // measure 93
0100
0010
0001
0010
0100
1000
1001
0010
,  // measure 94
1000
0010
0000
0001
0010
0100
1000
0010
,  // measure 95
1001
0000
0010
0100
1000
0001
0000
0010
,  // measure 96
1000
0010
0100
0010
0100
1000
1000
0100
,  // measure 97
0010
0001
0000
0001
0010
0010
0100
1000
,  // measure 98
0100
1000
0010
0010
0001
0010
0100
1000
,  // measure 99
0100
0001
0010
0100
1000
0100
0001
1001
,  // measure 100
0010
0100
1000
0100
0000
1000
0100
1000
,  // measure 101
0100
1000
0000
0010
1000
0010
1000
0001
,  // measure 102
0010
0100
0001
0010
0001
0010
0000
0001
,  // measure 103
0100
0001
0100
0100
0000
1000
0100
1000
,  // measure 104
0100
1000
0000
0010
1000
0010
0001
0010
,  // measure 105
0100
1000
0100
0001
0010
1000
0100
0010
,  // measure 106
0001
0010
0100
1000
0010
0100
1000
0100
,  // measure 107
0010
1001
0000
1000
0001
1000
0001
0100
,  // measure 108
0001
0010
0001
0010
0100
0101
0000
1000
,  // measure 109
0100
0010
0001
0001
0010
0100
1000
1000
,  // measure 110
0100
0010
0000
0001
0010
0100
1000
0100
,  // measure 111
0000
0010
0001
0000
0010
0100
1000
2000
,  // measure 112
0000
0000
0000
0020
0000
3002
0030
0000
,  // measure 113
0013
0000
1000
0020
0000
0000
0032
0000
,  // measure 114
0000
0000
0000
0000
1003
0001
0000
2000
,  // measure 115
0000
0000
0000
0000
3010
0002
0000
0000
,  // measure 116
0010
0003
1000
0020
0000
0000
0000
0000
,  // measure 117
0000
2032
0000
0000
0000
0000
0000
3023
,  // measure 118
0000
0000
0000
0000
1030
0020
0000
0000
,  // measure 119
0031
0000
0020
2000
0030
0000
3020
0000
,  // measure 120
0000
0032
0000
0000
0023
0000
1030
0020
,  // measure 121
0000
0000
0000
0032
0000
2003
0000
0000
,  // measure 122
0000
3010
0002
0023
0000
0000
0000
0000
,  // measure 123
0000
1030
0002
0000
0000
0000
0000
2003
,  // measure 124
0000
3000
0000
0002
0000
0000
0023
0000
,  // measure 125
0000
0031
2000
0000
3002
0000
0000
2003
,  // measure 126
0000
0000
0000
0000
0000
3001
0010
0000
,  // measure 127
2000
0000
0000
0000
0000
3010
0002
0000
,  // measure 128
0000
0013
2000
0000
3020
0000
0000
0000
,  // measure 129
0000
2032
0000
0000
,  // measure 130
3023
0000
1030
0002
,  // measure 131
0000
0013
2000
0000
3020
0000
0000
0032
,  // measure 132
0000
0000
2003
0000
0000
3010
0002
0000
,  // measure 133
0023
0000
0000
0000
0030
0001
2000
0000
,  // measure 134
0000
3001
0010
0100
2002
0000
0000
3003
,  // measure 135
0000
1010
0020
0000
0000
0000
0032
0000
,  // measure 136
0013
0100
1000
0100
0010
0100
1000
0100
,  // measure 137
0001
0010
0100
0000
1001
0100
1000
0001
,  // measure 138
0000
0100
1000
0100
0001
0010
1000
1001
,  // measure 139
0001
1000
0010
0001
0100
1000
1000
0100
,  // measure 140
0010
0001
1000
1001
1000
0010
0001
0100
,  // measure 141
1000
0001
0010
1000
0010
0000
1001
0000
,  // measure 142
1100
0000
0011
0000
1000
0010
0001
0000
,  // measure 143
0010
0001
0010
0001
0100
0100
1000
1000
,  // measure 144
0100
1000
0010
1000
0010
1000
0001
1000
,  // measure 145
0001
1000
0001
0001
0010
0001
0100
1000
,  // measure 146
0001
0010
1000
0100
0010
0000
0001
1000
,  // measure 147
0001
1000
0001
0100
1000
0100
1000
0100
,  // measure 148
0001
0001
0001
0001
0001
0001
0001
0001
,  // measure 149
0100
0100
0100
0100
0100
0100
0100
0100
,  // measure 150
0100
0000
1000
1000
1000
1000
0010
0001
,  // measure 151
0100
1000
0100
0001
0010
1000
0010
0001
,  // measure 152
0100
1000
0100
0011
0000
0100
0010
0001
,  // measure 153
0100
0100
1000
0100
0001
0010
0000
0100
,  // measure 154
1000
0010
0100
1000
0100
0010
0001
0010
,  // measure 155
0100
0010
0001
0010
1000
0001
1000
1001
,  // measure 156
0001
0000
1000
0010
0001
0100
1000
0100
,  // measure 157
0001
1000
0010
0001
0100
1000
0100
0001
,  // measure 158
0010
0100
1000
0100
0010
0001
0010
0100
,  // measure 159
0010
0001
0010
0100
1000
0100
0010
0100
,  // measure 160
1000
0100
0010
1001
0001
1000
1001
0000
,  // measure 161
0010
0001
1000
0010
0100
0001
1000
0100
,  // measure 162
0000
1000
0010
0001
0100
1000
0100
0001
,  // measure 163
0010
0100
1000
0100
0010
0001
0010
0100
,  // measure 164
1000
0100
0010
0100
1000
0001
1000
0001
,  // measure 165
1000
0001
0010
0100
1000
0100
0010
0001
,  // measure 166
0000
0000
0000
0000
2001
0000
0010
3001
,  // measure 167
0010
1000
0100
0010
0001
0001
0010
1000
,  // measure 168
0100
0000
0010
0001
0010
0100
0010
0001
,  // measure 169
0000
0010
0100
1000
0100
0010
0000
0001
,  // measure 170
0010
0100
1000
1000
0000
0010
0001
1000
,  // measure 171
0010
0100
0001
1000
0100
0001
1000
0001
,  // measure 172
0000
0000
0010
0001
0100
1000
0000
0100
,  // measure 173
0001
0010
1000
0010
1000
0010
0100
0010
,  // measure 174
0100
0000
0010
0001
1000
0001
1000
0100
,  // measure 175
0001
1000
0100
1000
0010
0100
0001
0100
,  // measure 176
0010
0001
0001
0010
0100
1000
0100
1000
,  // measure 177
0100
0010
0001
1000
0100
0001
1000
0010
,  // measure 178
0100
1000
0010
0001
0100
0010
1000
0100
,  // measure 179
0001
0010
1000
1001
0000
1001
0010
1000
,  // measure 180
0001
0000
0100
1000
0100
0001
1000
0001
,  // measure 181
1000
0100
0010
0001
0100
1000
0100
0001
,  // measure 182
0010
0100
0010
1001
0001
0010
1000
0100
,  // measure 183
1000
0100
1000
0001
1000
0010
0001
1000
,  // measure 184
0001
0100
1000
0100
0010
0001
0010
1000
,  // measure 185
0100
0010
0001
0010
0100
0000
1001
0100
,  // measure 186
0010
0100
1000
0000
0100
0001
1000
0001
,  // measure 187
1000
0000
0010
0001
0100
1000
0100
0000
,  // measure 188
0001
0010
0100
0010
0001
0000
0010
0100
,  // measure 189
1000
0100
1000
0100
0010
0001
0010
1000
,  // measure 190
0010
0000
0000
0000
;
