#TITLE:Electronica of the Soul;
#SUBTITLE:;
#ARTIST:Unknown artist;
#TITLETRANSLIT:;
#SUBTITLETRANSLIT:;
#ARTISTTRANSLIT:;
#GENRE:;
#CREDIT:;
#BANNER:banner.png;
#BACKGROUND:88575aa308c39c89d4f4499371fecadea973e407_00.jpg;
#LYRICSPATH:;
#CDTITLE:;
#MUSIC:Persona 4 Arena BGM_ Electronica of the Soul (P4 Arena ver.).mp3;
#OFFSET:0.000000;
#SAMPLESTART:-0.028420;
#SAMPLELENGTH:12.000000;
#SELECTABLE:YES;
#BPMS:0.000000=144.000000
;
#STOPS:
;
#BGCHANGES:;
#KEYSOUNDS:;
#ATTACKS:;

//---------------dance-single - ----------------
#NOTES:
     dance-single:
     :
     Hard:
     5:
     0.292634,0.383462,0.090240,0.694845,0.036096,227.000000,217.000000,10.000000,77.000000,0.000000,2.000000,0.292634,0.383462,0.090240,0.694845,0.036096,227.000000,217.000000,10.000000,77.000000,0.000000,2.000000:
// measure 0
0000
0000
0010
0100
0010
0001
0010
1000
,  // measure 1
0100
1000
0010
0001
0020
0000
0000
0000
,  // measure 2
2030
0000
3200
0000
0300
0020
0000
0000
,  // measure 3
0000
0000
0000
0000
0000
0000
0000
0000
0030
0000
0001
0010
0200
0000
0000
0000
,  // measure 4
0000
0300
2000
0000
3020
0000
0032
0000
,  // measure 5
0000
0000
0000
0003
,  // measure 6
2002
0000
0000
0000
0000
0000
3003
0000
2020
0000
0000
0000
0000
0000
3030
0100
,  // measure 7
0001
0020
0000
0000
0000
0000
0000
0000
0000
0000
0000
0000
0000
0000
0000
0000
,  // measure 8
0000
0030
0000
0002
,  // measure 9
0003
0000
0000
0000
1000
0100
0020
0000
0000
0000
0000
0000
0000
0000
0032
0000
,  // measure 10
0000
0023
0000
0230
0000
2300
0000
0000
,  // measure 11
3200
0000
0320
0000
0002
0030
0000
0000
,  // measure 12
0000
0023
0000
0230
0000
2300
0000
0000
,  // measure 13
0000
0000
0000
0000
0000
0000
0000
0000
0000
0000
3000
0000
0100
0010
0002
0000
,  // measure 14
0000
0000
0000
0023
0000
0230
0000
2300
,  // measure 15
0000
0000
0000
0000
,  // measure 16
3010
0100
0002
0000
0000
0000
0000
0000
0000
0000
0023
0000
0000
0000
0230
0000
,  // measure 17
0000
0300
2000
0000
0000
0000
3100
0100
,  // measure 18
0020
0000
0130
0000
0020
0000
0000
0032
,  // measure 19
0000
0023
0000
2030
0000
0000
0000
0000
,  // measure 20
3002
0000
0023
0000
,  // measure 21
0000
0000
0000
0000
,  // measure 22
0000
1030
0100
0010
0002
0013
0200
0000
,  // measure 23
0000
0000
0000
0000
,  // measure 24
0000
0000
1300
0100
0010
0100
0002
0013
,  // measure 25
0100
2000
0000
0000
0000
0000
0000
0000
,  // measure 26
3100
0002
0000
0000
0000
0000
0000
0000
,  // measure 27
0000
0010
1003
0100
1000
0000
0010
0000
0001
0000
0010
0000
0100
0000
1000
0000
,  // measure 28
0100
0010
0001
0020
0000
0000
0000
0000
,  // measure 29
0000
0000
0000
0030
2002
0000
0000
0013
,  // measure 30
3001
0100
1000
0100
0010
0001
2002
0000
,  // measure 31
0000
0000
0000
0000
3003
1000
0200
0000
,  // measure 32
0000
0300
0001
0010
0100
1000
0100
0012
,  // measure 33
0000
0000
0000
0000
0000
0000
0000
0013
,  // measure 34
0200
0000
0000
0000
1300
0100
0010
0001
,  // measure 35
0000
0010
0200
0000
0000
0000
0000
0000
,  // measure 36
1300
0200
0000
0000
0000
0000
0000
0302
,  // measure 37
0000
0013
1000
0010
0001
0000
0020
0000
,  // measure 38
0000
0000
0000
0000
1030
0000
0100
0002
,  // measure 39
0000
0000
0000
0023
,  // measure 40
0000
0000
0000
0000
0000
0130
0020
0000
,  // measure 41
0000
0000
1030
0100
0010
0002
0010
0003
,  // measure 42
0200
0000
0000
0000
0000
0000
0000
1300
,  // measure 43
0100
0010
0001
0010
0100
1000
1000
0100
,  // measure 44
0010
0001
0020
0000
0000
0000
0000
0000
,  // measure 45
1030
0200
0000
0000
0000
0000
0000
0000
,  // measure 46
1300
0010
0002
0000
0203
0301
0020
0000
,  // measure 47
0000
0000
0000
0000
0030
1000
0100
0002
,  // measure 48
0000
0000
0000
2000
,  // measure 49
0000
0003
0000
0000
0000
3010
0200
0000
,  // measure 50
0000
0000
0301
0010
0100
1000
0100
0020
,  // measure 51
0000
0000
0000
0000
0000
0000
0000
0030
,  // measure 52
0001
0010
0100
1000
0100
0010
0001
0001
,  // measure 53
0010
0100
2000
0000
0000
0000
0000
0000
,  // measure 54
3100
0002
0000
0000
0000
0000
0000
0000
,  // measure 55
0013
0100
0010
0001
0000
0010
0200
0000
,  // measure 56
0000
0000
0000
0000
1300
0000
0100
0020
,  // measure 57
0000
0000
0000
2032
,  // measure 58
0000
0003
0010
3000
0010
0000
0100
0000
,  // measure 59
0000
1000
0000
0100
0000
0010
0001
0000
,  // measure 60
0000
0000
0010
0000
0100
0000
0010
0100
,  // measure 61
0000
0000
0000
1000
0000
0001
0000
1000
,  // measure 62
1001
0000
1000
0010
,  // measure 63
1000
1010
0000
0000
0000
0001
0000
0100
,  // measure 64
0000
0001
0101
0000
0000
0000
0001
0000
,  // measure 65
0010
0001
0000
0011
0000
0000
0000
0000
;
