#VERSION:0.83;
#TITLE:Dove;
#SUBTITLE:;
#ARTIST:Unknown artist;
#TITLETRANSLIT:;
#SUBTITLETRANSLIT:;
#ARTISTTRANSLIT:;
#GENRE:;
#ORIGIN:;
#CREDIT:;
#BANNER:banner.png;
#BACKGROUND:thumb-1920-311149.jpg;
#PREVIEWVID:;
#JACKET:;
#CDIMAGE:;
#DISCIMAGE:;
#LYRICSPATH:;
#CDTITLE:;
#MUSIC:Antihoney - Dove [lyrics].mp3;
#OFFSET:0.000000;
#SAMPLESTART:99.971581;
#SAMPLELENGTH:12.000000;
#SELECTABLE:YES;
#BPMS:0.000=136.000;
#STOPS:;
#DELAYS:;
#WARPS:;
#TIMESIGNATURES:0.000=4=4;
#TICKCOUNTS:0.000=4;
#COMBOS:0.000=1;
#SPEEDS:0.000=1.000=0.000=0;
#SCROLLS:0.000=1.000;
#FAKES:;
#LABELS:0.000=Song Start;
#BGCHANGES:;
#KEYSOUNDS:;
#ATTACKS:
;

//---------------dance-single - ----------------
#NOTEDATA:;
#CHARTNAME:;
#STEPSTYPE:dance-single;
#DESCRIPTION:;
#CHARTSTYLE:;
#DIFFICULTY:Hard;
#METER:4;
#RADARVALUES:0.236828,0.306335,0.000000,1.194484,0.412640,229.000000,229.000000,0.000000,165.000000,0.000000,0.000000,0.000000,0.000000,0.000000,0.236828,0.306335,0.000000,1.194484,0.412640,229.000000,229.000000,0.000000,165.000000,0.000000,0.000000,0.000000,0.000000,0.000000;
#CREDIT:;
#NOTES:
// measure 0
0000
0000
0000
1000
0000
0000
1000
0000
0000
0100
0000
0000
0100
0000
0000
0010
,  // measure 1
0000
0000
0010
0000
0000
0001
0000
0000
0001
0000
0000
0000
0010
0000
0000
0010
,  // measure 2
0000
0000
0000
0100
0000
0000
0100
0000
0000
0000
1000
0000
0000
1000
0000
0000
,  // measure 3
0100
0000
0000
0100
0000
0000
0010
0000
0000
0010
0000
0000
0000
0001
0000
0000
,  // measure 4
0001
0000
0000
0010
0000
0000
0010
0000
0000
0100
0000
0000
0100
0000
0000
0000
,  // measure 5
1000
0000
0000
1000
0000
0000
0000
0100
0000
0000
0100
0000
0000
0010
0000
0000
,  // measure 6
0010
0000
0000
0001
0000
0000
0001
0000
0000
0000
0010
0000
0000
0010
0000
0000
,  // measure 7
0100
0000
0000
0100
0000
0000
0000
1000
0000
0000
1000
0000
0000
0100
0000
0000
,  // measure 8
0100
0000
0000
0000
0010
0000
0000
0010
0000
0000
0001
0000
0000
0001
0000
0000
,  // measure 9
0000
0010
0000
0000
0010
0000
0000
0100
0000
0000
0100
0000
0000
0000
0010
0000
,  // measure 10
0000
0010
0000
0000
0001
0000
0000
0001
0000
0000
0010
0000
0000
0010
0000
0000
,  // measure 11
0000
0100
0000
0000
0100
0000
0000
1000
0000
0000
1000
0000
0000
0100
0000
0000
,  // measure 12
0100
0000
0000
0000
0010
0000
0000
0010
0000
0000
0001
0000
0000
0001
0000
0000
,  // measure 13
0020
0000
0000
0000
0000
0000
0000
0000
0000
0000
0000
0000
0000
2030
0000
0000
,  // measure 14
0000
0000
0000
0000
0000
3200
0000
0000
,  // measure 15
0320
0000
0000
0000
0032
0000
0000
0023
0000
0000
0000
0000
0000
0230
0000
0000
,  // measure 16
0320
0230
0000
0000
,  // measure 17
2000
0300
0000
0000
0000
0000
0000
0000
0000
0000
0000
0000
0000
3020
0000
0000
,  // measure 18
0000
0000
0000
0002
0030
0000
0000
0200
0003
0000
0000
2000
0300
0000
0000
0000
,  // measure 19
0200
3000
0000
0002
0300
0000
0000
0023
0000
0000
0000
0000
0000
0000
0230
0000
,  // measure 20
0000
0000
0000
2300
0000
0000
0000
0000
0000
3200
0000
0000
0000
0000
0000
0000
,  // measure 21
0320
0000
0000
0000
0000
0000
0032
0000
0000
0000
0023
0000
0000
0230
0000
0000
,  // measure 22
0000
0000
0000
0000
0302
0000
0000
0020
0003
0000
0000
2030
0000
0000
0000
3200
,  // measure 23
0000
0000
0000
0000
0000
0000
0320
0000
0000
0000
0000
0000
0002
0030
0000
0000
,  // measure 24
0000
0000
0000
0020
0003
0000
0000
0000
0000
0000
0230
0000
0000
0000
0000
0000
,  // measure 25
2000
0300
0000
0000
0000
0000
3200
0000
0000
0000
0320
0000
0000
0032
0000
0000
,  // measure 26
0000
0000
0023
0000
0000
0230
0000
0000
,  // measure 27
0000
2300
0000
0000
0000
0000
0000
3200
0000
0000
0000
0000
0302
0000
0000
0000
,  // measure 28
0000
0023
0000
0000
2030
0000
0000
0000
0000
0020
3000
0000
0000
0032
0000
0000
,  // measure 29
0200
0003
0000
0000
0000
0000
0000
0320
0000
0000
0000
0000
0000
0230
0000
0000
,  // measure 30
0000
0000
0000
0000
0320
0000
0000
0000
0000
0000
2030
0000
0000
0000
0000
3002
,  // measure 31
0000
0000
0000
0023
0000
0000
0000
0230
0000
0000
0000
0300
0020
0000
0000
0000
,  // measure 32
0032
0000
0023
0000
0000
2030
0000
0000
,  // measure 33
3200
0000
0000
0000
0000
0000
0000
0320
0000
0000
0000
0000
0000
0032
0000
0000
,  // measure 34
0000
0000
0000
0000
0000
2003
0000
0000
,  // measure 35
0000
3200
0000
0000
0320
0000
0000
0032
0000
0000
0000
0000
0000
0000
0000
0000
,  // measure 36
0000
0000
0000
0000
0020
0003
0000
0000
0000
0000
0230
0000
0000
0000
0000
0000
,  // measure 37
0320
0000
0000
0000
0000
0000
0000
0000
0000
0000
0000
0000
2000
0030
0000
0000
,  // measure 38
0000
0000
0000
3200
0000
0000
0000
0000
0000
0000
0320
0000
0000
0000
0000
0000
,  // measure 39
0000
0032
0000
0000
0000
0000
0000
0023
0000
0000
0000
0000
0000
0032
0000
0000
,  // measure 40
0000
0000
0000
0200
0003
0000
0000
0000
0000
0002
0300
0000
0000
0000
0000
0000
,  // measure 41
0203
0000
0000
0000
0000
0000
0000
2300
0000
0000
0000
0000
0000
3200
0000
0000
,  // measure 42
0000
0000
0000
2000
0300
0000
0000
0000
0000
0000
3020
0000
0000
0000
0000
0000
,  // measure 43
2030
0000
0000
0000
0000
0000
0020
3000
0000
0000
0000
0000
0000
0230
0000
0000
,  // measure 44
0000
0000
0000
0320
0000
0000
0000
0000
0000
0000
0230
0000
0000
0000
0000
0000
,  // measure 45
2300
0000
0000
0000
0000
0000
3002
0000
0000
0000
0000
0000
0003
2000
0000
0000
,  // measure 46
0000
0000
0000
0002
3000
0000
0000
0000
0000
0000
0023
0000
0000
0000
0000
0000
,  // measure 47
0002
0030
0000
0000
0000
0000
0000
0203
0000
0000
0000
0000
0000
0302
0000
0000
,  // measure 48
0000
0000
0000
0203
0000
0000
0000
0000
0000
2300
0000
0000
0000
0000
0000
0000
,  // measure 49
3200
0000
0000
0000
0000
0000
2000
0300
0000
0000
0000
0000
0000
3020
0000
0000
,  // measure 50
0000
0000
0000
2030
0000
0000
0000
0000
0000
0020
3000
0000
0000
0000
0000
0000
,  // measure 51
2030
0000
0000
0000
0000
0000
0000
3020
0000
0000
0000
0000
0000
0000
0000
0000
,  // measure 52
0000
0230
0000
0000
,  // measure 53
2300
0000
0000
0000
0000
0000
0200
3000
0000
0000
0302
0000
0000
0000
0023
0000
,  // measure 54
0000
0000
0000
0002
0030
0000
0000
0020
0003
0000
0230
0000
0000
0000
0000
0000
,  // measure 55
0000
0000
0000
0320
0000
0000
0000
0000
,  // measure 56
0000
0000
0000
2030
0000
0000
0000
0000
0000
3200
0000
0000
0000
0320
0000
0000
,  // measure 57
0032
0000
0000
0000
0000
0000
0000
0020
0003
0000
0000
0000
0000
0000
0230
0000
,  // measure 58
0000
0000
0000
0000
2300
0000
0000
0000
0000
0000
0000
3200
0000
0000
0000
0000
,  // measure 59
0000
0320
0000
0000
0000
0000
0000
0032
0000
0000
0000
0000
0000
0020
0003
0000
,  // measure 60
0000
0000
0230
0000
0000
2300
0000
0000
,  // measure 61
0000
3200
0000
0000
0000
0000
0000
2300
0000
0000
0000
0000
0000
3020
0000
0000
,  // measure 62
0000
0000
2030
0000
0000
3002
0000
0000
,  // measure 63
0000
0023
0000
0000
0000
0000
0000
0032
0000
0000
0000
0000
0000
0000
0203
0000
,  // measure 64
0000
0000
0302
0000
0000
2003
0000
0000
,  // measure 65
3002
0000
0000
0000
0000
0000
2003
0000
0000
0000
0000
0000
0000
3020
0000
0000
,  // measure 66
0000
0000
0230
0000
0000
0320
0000
0000
,  // measure 67
0230
0000
0000
0000
0000
0000
0000
2300
0000
0000
0000
0000
0000
3020
0000
0000
,  // measure 68
0000
0000
0000
0032
0000
0000
0000
0000
0000
0000
0203
0000
0000
0000
0000
0000
,  // measure 69
2300
0000
0000
0000
0000
0000
0200
3000
0000
0000
0000
0000
0000
0302
0000
0000
,  // measure 70
0000
0000
0023
0000
0000
2030
0000
0000
,  // measure 71
3200
0000
0000
0320
0000
0000
0000
0032
0000
0000
0000
0000
0000
0023
0000
0000
,  // measure 72
0000
0000
0000
0230
0000
0000
0000
0000
0000
2300
0000
0000
0000
0000
0000
0000
,  // measure 73
3200
0000
0000
0000
0000
0000
0320
0000
0000
0000
0000
0000
0000
0032
0000
0000
,  // measure 74
0000
0000
0000
0020
0003
0000
0000
0000
0000
0000
0230
0000
0000
0000
0000
0000
,  // measure 75
2300
0000
0000
0000
0000
0000
0200
3000
0000
0000
0000
0000
0000
0320
0000
0000
,  // measure 76
0000
0000
0000
0032
0000
0000
0000
0000
0000
0020
0003
0000
0000
0000
0000
0030
;
