#TITLE:Decisive Battle Ho-Oh!;
#SUBTITLE:;
#ARTIST:Unknown artist;
#TITLETRANSLIT:;
#SUBTITLETRANSLIT:;
#ARTISTTRANSLIT:;
#GENRE:;
#CREDIT:;
#BANNER:banner.png;
#BACKGROUND:2252918e-caff-4e9c-8a0b-b371a4717060.jpg;
#LYRICSPATH:;
#CDTITLE:;
#MUSIC:Hito Ookami - Decisive Battle! Ho-Oh! (Remix).mp3;
#OFFSET:0.000000;
#SAMPLESTART:99.971581;
#SAMPLELENGTH:12.000000;
#SELECTABLE:YES;
#BPMS:0.000000=60.000000
,13.000000=200.000000
,130.500000=155.000000
,185.500000=222.000000
,235.000000=200.000000
,350.500000=155.000000
,405.500000=222.000000
,460.000000=155.000000
,515.000000=222.000000
,604.500000=200.000000
;
#STOPS:
;
#BGCHANGES:;
#KEYSOUNDS:;
#ATTACKS:;

//---------------dance-single - ----------------
#NOTES:
     dance-single:
     :
     Hard:
     9:
     0.493710,0.952355,0.197484,0.763006,0.078545,770.000000,726.000000,44.000000,170.000000,0.000000,0.000000,0.493710,0.952355,0.197484,0.763006,0.078545,770.000000,726.000000,44.000000,170.000000,0.000000,0.000000:
// measure 0
0000
2002
0000
0000
0000
0000
0000
0000
0000
0000
0000
0000
0000
0000
3003
0000
,  // measure 1
0110
0000
0000
0000
0000
0110
0000
0000
0000
0000
0110
0000
0000
0110
0000
0000
,  // measure 2
0110
0000
0110
0000
0110
0000
0110
0010
0100
0010
0100
0010
0100
0010
0440
0000
,  // measure 3
0000
0000
0000
0000
0330
0000
1000
0100
0010
0001
0000
0000
2000
0000
0000
0000
,  // measure 4
0000
3100
0000
0000
0010
0001
0010
0200
,  // measure 5
0000
0000
0320
0000
0000
0230
0000
0300
,  // measure 6
2000
0000
0000
3002
0000
0000
1003
0100
,  // measure 7
0010
0002
0000
0000
0023
0000
2030
0000
,  // measure 8
0000
3000
0200
0000
0000
0320
0000
0030
,  // measure 9
0001
0010
0100
2000
0000
0000
3200
0000
,  // measure 10
0320
0000
0000
0030
0002
0000
0000
0023
,  // measure 11
0000
0030
0100
1000
0100
0020
0000
0000
,  // measure 12
0032
0000
0023
0000
0000
0230
0000
0000
,  // measure 13
0320
0000
0230
0000
,  // measure 14
0000
0000
0000
0000
0000
0300
0000
1001
,  // measure 15
0000
0000
1000
0100
0000
0000
0011
0000
,  // measure 16
1000
0000
0010
0100
0000
0000
0000
0011
,  // measure 17
0000
0000
0010
0000
0100
0010
0000
0000
,  // measure 18
1001
0000
1001
0000
0000
1010
0000
0000
,  // measure 19
0000
0011
0000
2000
0000
3000
0100
0000
,  // measure 20
0000
0010
0001
0000
0011
0000
0010
0100
,  // measure 21
0000
0000
1000
0000
0000
0110
0000
0010
,  // measure 22
0001
0000
0000
0000
0000
0000
0000
0010
,  // measure 23
0010
0010
0010
0010
0010
0010
0000
1001
,  // measure 24
0000
1000
0010
0000
0000
0001
0000
0200
,  // measure 25
0000
0000
0000
0000
0000
0320
0000
0000
,  // measure 26
2030
0000
0000
3100
0020
0000
0000
0032
,  // measure 27
0000
0023
0000
0000
0000
0000
0000
1030
,  // measure 28
0100
0010
0002
0000
0000
0000
0003
0000
,  // measure 29
0001
0010
0100
2000
0000
0000
0000
0000
,  // measure 30
3000
1000
0100
0010
0002
0000
0000
2003
,  // measure 31
0000
3002
0000
2003
,  // measure 32
0000
3001
0000
2000
0000
3002
0000
0000
,  // measure 33
0000
0000
0000
0013
0100
1000
0100
0010
,  // measure 34
0001
0010
1000
0100
0010
0002
0000
0000
,  // measure 35
0000
0000
0000
0000
0000
0000
0000
0000
0000
0000
0003
0000
0010
0100
1000
0100
,  // measure 36
0010
0002
0000
0000
0000
0100
1003
0010
,  // measure 37
0200
0000
0000
0310
0001
0010
1000
0100
,  // measure 38
0010
0001
0020
0000
0000
0000
0030
0001
,  // measure 39
0010
0100
0020
0000
0030
2000
0000
0000
,  // measure 40
0000
0000
3100
0010
0001
0010
0100
1000
,  // measure 41
0010
0001
0010
0100
2000
0000
0000
0000
,  // measure 42
0000
0000
0000
0000
0000
0000
0000
0000
3100
0010
0001
0010
0100
0000
2000
0000
,  // measure 43
0000
3200
0000
0000
0310
0001
0010
0200
,  // measure 44
0000
0000
0300
1000
0100
0010
0001
0100
,  // measure 45
0010
0002
0000
0000
,  // measure 46
0000
0000
0000
0003
1000
0000
0000
0100
,  // measure 47
0000
0010
0001
0010
0000
0000
0100
0010
,  // measure 48
0100
0000
0000
0000
0000
0000
1000
0000
0001
0000
1000
0000
0000
0000
0000
0001
,  // measure 49
1000
0001
0000
0000
0000
0000
0000
0000
1000
0000
0010
0000
0001
0000
0100
0000
,  // measure 50
1000
0100
0001
0000
0010
1000
0100
0010
,  // measure 51
0001
0000
0010
0000
0000
0000
0000
0000
0010
0100
0010
0000
0000
0000
0000
0000
,  // measure 52
1000
0100
0010
0001
0000
0000
0010
0100
,  // measure 53
0010
0000
0000
0000
1000
0000
0001
0000
1000
0000
0000
0000
0000
0000
1000
0010
,  // measure 54
1000
0000
0000
0001
0010
0100
1000
1000
,  // measure 55
0100
0010
0001
0010
0100
1000
0100
0010
,  // measure 56
0001
0010
0000
0220
0000
0000
0000
0000
,  // measure 57
0000
0000
0000
0330
0110
0000
0000
0110
,  // measure 58
0000
0000
0110
0000
0110
0000
0000
1001
,  // measure 59
0000
1000
0100
0000
0010
0000
0000
0001
,  // measure 60
0010
0000
0200
0000
0000
0320
0000
0030
,  // measure 61
1000
0000
0000
0001
1000
0000
1000
0010
,  // measure 62
0001
0000
0110
0000
0000
1000
0000
0100
,  // measure 63
0000
0000
0011
0000
0000
1100
0000
0000
,  // measure 64
0100
0010
0001
0020
0000
0000
0230
0000
,  // measure 65
0320
0000
0000
0030
1001
0000
0000
1100
,  // measure 66
0000
0100
0001
0010
0000
0011
0000
0000
,  // measure 67
0011
0000
0101
0000
0000
2200
0000
0300
,  // measure 68
3000
2020
0000
3030
0000
2020
0000
0000
,  // measure 69
0000
0000
0000
0000
0000
3030
0000
0000
,  // measure 70
1001
0000
1000
0100
0000
0000
0011
0000
,  // measure 71
0010
0000
0100
0010
0000
0000
0000
0011
,  // measure 72
0000
1100
0000
0000
1000
0200
0000
0000
,  // measure 73
0310
0000
0002
0000
0013
2000
0000
0000
,  // measure 74
3200
0000
0000
0320
0000
0000
0032
0000
,  // measure 75
0000
0103
1000
0000
0200
0000
0310
0002
,  // measure 76
0000
0000
0000
0023
0000
2030
0000
3100
,  // measure 77
0020
0000
0000
0000
0000
0030
0000
0100
,  // measure 78
0100
0100
0100
0100
0100
0000
0100
1001
,  // measure 79
0000
1000
0010
0000
0000
0002
0000
0020
,  // measure 80
0003
0000
0000
2030
,  // measure 81
3100
0000
0000
0010
0002
0000
0000
0023
,  // measure 82
0000
2030
0000
0000
0000
0000
0000
3100
,  // measure 83
0010
0001
0020
0000
0000
0000
0000
0030
,  // measure 84
0100
1000
0100
0020
0000
0000
0000
0000
,  // measure 85
0000
0031
0010
0100
0020
0000
0000
0230
,  // measure 86
0000
0000
0320
0000
0000
0230
0000
0000
,  // measure 87
0300
0020
0000
0230
0000
2300
0000
0000
,  // measure 88
0000
0000
0000
3100
0010
0001
0010
0100
,  // measure 89
1000
0010
0001
0010
0100
1200
0000
0000
,  // measure 90
0000
0000
0000
0000
0000
0000
0000
0000
0000
0000
0300
0010
0001
0010
0100
0000
,  // measure 91
0001
0010
2000
0000
0000
0010
3001
0100
,  // measure 92
2000
0000
0000
0010
3100
0001
1000
0100
,  // measure 93
0010
0002
0023
0000
0000
0000
0000
1030
,  // measure 94
0100
0020
0000
0000
0030
0200
0000
0000
,  // measure 95
0000
0300
1000
0100
0010
0001
0010
1000
,  // measure 96
0100
0010
0001
0010
0100
2000
0000
0000
,  // measure 97
0000
0000
0000
0000
0000
0000
0000
0000
3000
0000
0001
0100
1000
0100
0010
0000
,  // measure 98
0000
0020
0000
0000
1030
0100
0010
0001
,  // measure 99
0000
0000
0001
0010
0100
1000
0100
0010
,  // measure 100
0002
0020
0003
0000
0000
0000
0000
0000
,  // measure 101
0000
0000
0030
0000
2000
0000
0000
3001
,  // measure 102
0000
1000
0100
0010
0000
0000
0001
0010
,  // measure 103
0100
0000
0000
1000
0100
0010
0000
0000
,  // measure 104
1000
0100
1000
0000
0000
0000
0000
0000
1000
0000
0010
0000
0001
0000
0100
0000
,  // measure 105
1000
0100
0001
0010
0000
1000
0100
0010
,  // measure 106
0001
0000
0010
0000
0000
0000
0000
0000
0001
0010
0001
0000
0000
0000
0000
0000
,  // measure 107
0010
0100
0010
0100
0000
0000
1000
0100
,  // measure 108
0010
0000
0000
0000
0010
0000
0001
0000
0000
0000
0100
0000
0000
0000
1000
0100
,  // measure 109
1000
0000
0000
1000
0010
0001
0100
0000
,  // measure 110
1000
0100
0001
0010
1000
0100
0010
0000
,  // measure 111
0001
0010
0000
0200
0000
0000
0000
0000
,  // measure 112
0000
0000
0000
0300
0000
0020
0000
0230
,  // measure 113
0000
0000
0320
0000
0230
0000
0000
0320
,  // measure 114
0000
0030
0200
0000
0320
0000
0230
0000
,  // measure 115
0000
2300
0000
0000
0000
0000
3100
0010
,  // measure 116
0001
0010
1000
0100
0010
0001
0100
0010
,  // measure 117
0002
0000
0000
0000
,  // measure 118
0000
0000
1003
0100
0010
0001
1000
0000
0020
0000
0000
0000
0000
0000
0000
0000
,  // measure 119
1030
0100
0001
0020
0000
0000
1030
0010
,  // measure 120
0001
0100
1000
0100
0002
0023
0000
0000
,  // measure 121
0000
0000
0130
1000
0020
0000
0000
0032
,  // measure 122
0000
0000
0000
0000
0000
0013
0100
1000
,  // measure 123
0100
0001
0010
0100
1000
0100
0001
0020
,  // measure 124
0000
0000
0000
0000
0000
0000
0000
0030
,  // measure 125
1000
0100
0010
0001
2000
0000
0000
0000
3020
0000
0000
0000
0000
0000
0031
0000
,  // measure 126
0100
0010
0200
0000
0000
1300
0100
0010
,  // measure 127
0100
1000
0100
0020
0032
0000
0000
0000
,  // measure 128
0000
0000
0000
0000
0000
0000
0000
0003
,  // measure 129
1000
0000
0002
0000
1003
0100
0020
0000
,  // measure 130
0000
0031
0010
0200
0000
0000
0310
0100
,  // measure 131
0010
0000
0000
0000
0000
0000
1000
0001
1000
0000
0000
0000
0000
0000
1000
0000
,  // measure 132
0100
0010
0001
0010
0100
1000
0100
0010
,  // measure 133
0001
0000
0010
0000
0000
0000
0100
0000
0010
0000
0000
0000
0000
0000
1000
0001
,  // measure 134
1000
0000
0000
1000
0100
0000
0010
0000
,  // measure 135
0001
0010
0000
0100
0000
1000
0100
0010
,  // measure 136
0000
0000
0000
0000
1000
0001
1000
0000
0000
0000
0000
0000
1000
0000
0010
0000
,  // measure 137
0001
0100
0000
1000
0100
0001
0010
1000
,  // measure 138
0100
0010
0100
0010
0100
0000
0010
1000
,  // measure 139
0010
0000
0001
1000
0100
0010
0001
0000
,  // measure 140
0100
1000
0100
0000
0100
0010
0001
0010
,  // measure 141
0000
0000
1000
0001
1000
0000
0000
0000
0000
0000
1000
0000
0010
0000
0100
0000
,  // measure 142
0001
0000
1000
0100
0001
0010
1000
0100
,  // measure 143
0010
0000
0001
0000
0010
0000
0100
0000
0000
0000
0000
0010
0100
0010
0000
0000
,  // measure 144
0000
0000
1000
0001
1000
0001
0000
0010
,  // measure 145
1000
0010
1000
0000
1000
0100
0010
0001
,  // measure 146
0000
0000
0001
1000
0001
0000
0000
0000
0000
0000
1000
0000
0010
0000
0001
0000
,  // measure 147
0100
1000
0100
0010
0001
0000
1000
0010
,  // measure 148
0000
0010
1000
0010
1000
0200
0000
0000
,  // measure 149
0000
0000
0000
0000
0000
0300
0000
0010
,  // measure 150
0000
0200
0000
0300
0010
0000
0200
0000
,  // measure 151
0320
0000
0030
1000
0001
0000
1000
0000
,  // measure 152
0010
0002
0000
0000
0203
0000
0000
2300
,  // measure 153
0000
0000
3020
0000
0000
0031
0020
0000
,  // measure 154
0130
0010
0020
0230
,  // measure 155
0000
2300
0000
3000
0002
0000
0000
2003
,  // measure 156
0000
0000
3010
1000
0010
2000
0000
0000
,  // measure 157
3200
0000
0320
0000
0000
0032
0000
0000
,  // measure 158
0020
0003
0000
0130
1000
0100
0100
0020
,  // measure 159
0000
0000
0032
0000
0203
0000
0300
2000
,  // measure 160
0000
0000
3002
0000
0000
0013
1000
0010
,  // measure 161
0002
0000
0000
0003
0200
0000
2300
0000
,  // measure 162
0000
3020
0000
0000
0030
0100
0000
0010
,  // measure 163
0100
0010
0200
0000
0000
2300
0000
0000
,  // measure 164
3002
0000
0000
0023
0000
0000
2030
0000
,  // measure 165
0000
3100
0001
0010
2000
0000
0000
0000
,  // measure 166
3020
0000
0032
0000
0000
0203
0000
0000
,  // measure 167
0320
0000
0030
0001
0100
1000
0020
0000
,  // measure 168
0000
0032
0000
0203
0000
0300
2002
0000
,  // measure 169
0000
0000
0000
3003
;
