#TITLE:Corpse Attack!!;
#SUBTITLE:Bookiezz cover;
#ARTIST:Unknown artist;
#TITLETRANSLIT:;
#SUBTITLETRANSLIT:;
#ARTISTTRANSLIT:;
#GENRE:;
#CREDIT:;
#BANNER:Corpse Attack!!-banner.png;
#BACKGROUND:mukuro_attack_by_deino3330-d2z0va9.jpg;
#LYRICSPATH:;
#CDTITLE:;
#MUSIC:[Bookiezz] 骸Attack!!.mp3;
#OFFSET:0.000000;
#SAMPLESTART:100.000000;
#SAMPLELENGTH:12.000000;
#SELECTABLE:YES;
#BPMS:0.000000=186.000000
,36.000000=200.000000
,40.500000=555.000000
,91.000000=155.000000
,128.000000=255.000000
,136.000000=177.000000
,168.500000=555.000000
,176.000000=122.000000
,177.000000=555.000000
,181.000000=122.000000
,182.500000=555.000000
,199.000000=122.000000
,201.000000=555.000000
,210.000000=122.000000
,211.000000=555.000000
,218.000000=122.000000
,219.000000=555.000000
,234.000000=177.000000
,299.000000=155.000000
,326.000000=122.000000
,328.500000=555.000000
,345.500000=177.000000
,377.500000=555.000000
,386.500000=122.000000
,387.500000=555.000000
,395.500000=122.000000
,396.500000=555.000000
,411.500000=122.000000
,413.500000=555.000000
,421.500000=122.000000
,422.500000=555.000000
,429.500000=122.000000
,430.500000=555.000000
,446.500000=177.000000
,512.000000=166.000000
,543.500000=555.000000
,559.500000=122.000000
,561.500000=555.000000
,581.000000=122.000000
,582.500000=555.000000
,602.500000=122.000000
,603.500000=555.000000
,618.000000=777.000000
,636.500000=144.000000
,643.500000=155.000000
,650.500000=166.000000
,657.500000=177.000000
,661.500000=555.000000
,675.000000=177.000000
,737.000000=122.000000
,759.000000=555.000000
,768.000000=177.000000
;
#STOPS:
;
#BGCHANGES:;
#KEYSOUNDS:;
#ATTACKS:;

//---------------dance-single - ----------------
#NOTES:
     dance-single:
     :
     Hard:
     9:
     0.460829,0.824780,0.369756,0.726763,0.006375,759.000000,672.000000,87.000000,171.000000,0.000000,2.000000,0.460829,0.824780,0.369756,0.726763,0.006375,759.000000,672.000000,87.000000,171.000000,0.000000,2.000000:
// measure 0
0000
0000
0000
0110
,  // measure 1
1100
0000
0011
0000
1100
0001
0000
0010
,  // measure 2
0100
1000
0100
0010
0001
0010
0100
1000
,  // measure 3
0100
0010
0001
0010
0100
1000
0100
0010
,  // measure 4
0001
0010
0100
1000
0100
0010
0100
0001
,  // measure 5
0010
0100
0010
0001
0010
0100
1000
0100
,  // measure 6
0010
0100
1000
0100
0010
0001
0010
0100
,  // measure 7
0010
0001
0010
0100
1000
0100
0010
0100
,  // measure 8
1000
0100
1000
0010
0001
0010
0100
0010
,  // measure 9
4004
0000
0000
0000
,  // measure 10
3003
0220
0000
0000
0000
0000
0000
0000
,  // measure 11
0000
0000
0000
0000
,  // measure 12
0000
0000
0000
0000
,  // measure 13
0000
0000
0000
0000
,  // measure 14
0000
0000
0000
0000
,  // measure 15
0000
0000
0000
0000
,  // measure 16
0000
0000
0000
0000
,  // measure 17
0000
0000
0000
0000
,  // measure 18
0000
0000
0000
0000
,  // measure 19
0000
0000
0000
0000
,  // measure 20
0000
0000
0000
0000
,  // measure 21
0000
0000
0000
0000
,  // measure 22
0000
0000
0000
0000
0330
0000
0000
0100
,  // measure 23
0010
0001
0010
1000
0100
0010
0001
0010
,  // measure 24
0100
1000
0010
0001
0010
0100
0001
0010
,  // measure 25
0100
1000
0100
0010
0100
0010
0010
0100
,  // measure 26
0010
0000
0000
2000
3000
0001
0000
1000
,  // measure 27
0100
0010
0001
0010
0100
0001
0000
0000
,  // measure 28
0010
1000
0100
0010
0100
1000
0100
0001
,  // measure 29
0010
0100
0010
0001
0000
0000
0011
0000
,  // measure 30
0011
0000
0000
1000
0100
0010
1000
0100
,  // measure 31
0010
0001
0000
0010
0001
0010
0100
1000
,  // measure 32
0100
0000
1001
0000
1001
0000
0000
1001
,  // measure 33
1001
0000
0000
1010
0000
0000
0101
0000
,  // measure 34
0000
1000
0100
0010
0001
0010
0100
0010
,  // measure 35
0000
0000
1000
0100
0010
0100
1000
0100
,  // measure 36
0010
0001
0010
0100
0010
0001
0010
0100
,  // measure 37
0010
0100
0010
0100
1000
0001
1000
0000
,  // measure 38
0000
1000
0100
0010
0001
0010
0001
0000
,  // measure 39
0000
0100
1000
0100
1000
0100
1000
0010
,  // measure 40
0100
0010
0100
0010
0001
0010
0100
0010
,  // measure 41
0001
0010
0100
0010
0100
0010
0100
0000
,  // measure 42
0000
2002
0000
0000
0000
0000
0000
0000
,  // measure 43
0000
0000
0000
0000
0000
0000
0000
3003
,  // measure 44
0000
0220
0000
0000
,  // measure 45
0000
0330
0000
0000
0000
2002
0000
0000
,  // measure 46
0000
0000
0000
0000
,  // measure 47
0000
0000
0000
0000
,  // measure 48
0000
0000
0000
0000
,  // measure 49
0000
0000
0000
0000
0000
3003
0000
0000
,  // measure 50
0000
0220
0000
0000
,  // measure 51
0000
0000
0000
0000
,  // measure 52
0000
0000
0330
2002
,  // measure 53
0000
0000
0000
0000
,  // measure 54
0000
0000
3003
0220
,  // measure 55
0000
0000
0000
0000
,  // measure 56
0000
0000
0000
0000
,  // measure 57
0000
0000
0000
0000
,  // measure 58
0000
0000
0330
0000
0000
1001
0000
2002
,  // measure 59
0000
0000
0000
3003
0000
1010
0000
0002
,  // measure 60
0000
0000
2203
0000
0000
0000
3300
0022
,  // measure 61
0000
0033
1010
2200
,  // measure 62
0000
3300
0022
0000
0000
0033
0202
0000
,  // measure 63
0000
0303
1100
1000
,  // measure 64
0010
0001
0000
0010
0000
0100
0020
0000
,  // measure 65
0000
0030
0200
0000
0000
0320
0000
0000
,  // measure 66
0000
0030
0000
0000
1001
0000
2020
0000
,  // measure 67
0000
0000
3030
0101
0000
0000
0022
0000
,  // measure 68
0000
0233
0000
0000
0300
2020
0000
0000
,  // measure 69
0000
0030
3000
0101
0000
0002
0000
0000
,  // measure 70
0003
2020
0000
0000
3030
2200
0000
0000
,  // measure 71
0000
3300
0000
0100
0000
0010
0000
0001
,  // measure 72
0010
0000
0100
0000
0010
0200
0000
0000
,  // measure 73
2300
0000
0000
0000
0020
3000
0000
0000
,  // measure 74
0032
0000
0000
0000
0003
0002
0000
1003
,  // measure 75
0000
0100
0010
0000
4004
0000
0000
0000
,  // measure 76
3003
0000
0000
0000
0110
1100
0000
0000
,  // measure 77
0000
0010
0001
0010
1000
0100
0010
0001
,  // measure 78
0000
0010
0001
0100
1000
0100
0001
1000
,  // measure 79
0100
1000
0010
0001
0100
0010
0000
0000
,  // measure 80
0002
0000
1003
0000
1000
0100
0010
0001
,  // measure 81
0110
0000
1000
0000
0100
0000
0000
0000
1000
0001
1000
0000
0000
0001
1000
0001
,  // measure 82
0000
0000
0000
1000
0000
0100
0000
0000
,  // measure 83
0000
0010
0000
0001
0000
0000
0000
0000
,  // measure 84
0000
0000
0000
0000
0000
1001
0000
0000
,  // measure 85
0000
0000
0000
1001
0000
0000
0000
0000
,  // measure 86
0000
0000
0000
1000
0100
0010
0001
0100
,  // measure 87
0010
0100
0010
0000
0010
0100
0010
1100
,  // measure 88
0000
0000
1000
0100
0010
0001
0010
1000
,  // measure 89
0100
0010
0001
0010
0100
0010
0001
0010
,  // measure 90
0100
0000
0000
0010
0100
0010
0200
0000
,  // measure 91
0300
0000
0000
1000
0100
0010
0001
0010
,  // measure 92
0000
0100
0010
0001
0010
0100
1000
0100
,  // measure 93
0010
0100
1000
0100
0100
0010
0010
0000
,  // measure 94
0000
0000
0000
0220
0000
0000
0000
0000
,  // measure 95
0000
0000
0000
0000
,  // measure 96
0000
0000
0000
0000
0000
0330
0000
2002
,  // measure 97
0000
0000
0000
0000
,  // measure 98
0000
0000
0000
0000
0000
0000
0000
3003
,  // measure 99
0000
0220
0000
0000
0000
0000
0000
0000
,  // measure 100
0000
0000
0000
0000
,  // measure 101
0000
0000
0000
0000
,  // measure 102
0000
0000
0000
0000
0000
0000
0000
0330
,  // measure 103
0000
0000
0000
2002
0000
0000
0000
0000
,  // measure 104
0000
0000
0000
0000
,  // measure 105
0000
0000
0000
3003
0220
0000
0000
0000
,  // measure 106
0000
0000
0000
0000
,  // measure 107
0000
0000
0000
0330
0000
2002
0000
0000
,  // measure 108
0000
0000
0000
0000
,  // measure 109
0000
0000
0000
0000
,  // measure 110
0000
0000
0000
0000
,  // measure 111
0000
0000
3003
0000
0000
0110
0000
0220
,  // measure 112
0000
0000
0000
0330
0000
1001
0000
2002
,  // measure 113
0000
0003
0020
0000
0000
3030
0202
0000
,  // measure 114
0000
0303
1100
0022
,  // measure 115
0000
0033
0202
0000
0000
0303
2020
0000
,  // measure 116
0000
3030
1000
0100
,  // measure 117
0010
0001
0000
0010
0000
0000
0200
0000
,  // measure 118
0000
0320
0000
0000
0000
0230
0000
0000
,  // measure 119
0000
0000
0300
0000
1000
0100
0020
0000
,  // measure 120
0000
0000
0030
0002
0000
0020
0003
0000
,  // measure 121
0000
0230
0000
0000
0300
2000
0000
0000
,  // measure 122
0000
0000
3000
0200
0000
0320
0000
0000
,  // measure 123
0000
0230
0000
0000
0300
0220
0000
0000
,  // measure 124
0330
0000
0000
0002
0010
0203
0000
1300
,  // measure 125
0200
0000
0320
0000
0031
0020
0000
0000
,  // measure 126
0032
0000
0000
0000
0200
0003
0000
0000
,  // measure 127
2300
0000
0000
0000
3020
0000
0030
1001
,  // measure 128
0000
1001
0000
0000
0000
1001
0000
1001
,  // measure 129
0000
0100
0010
0000
0000
0010
0100
0010
,  // measure 130
0000
1000
0100
0010
0100
0001
0000
0100
,  // measure 131
0000
1000
0100
0010
0000
0001
0001
0010
,  // measure 132
0000
0100
0010
0000
0100
1000
0010
0001
,  // measure 133
0010
0000
0100
0010
0001
0010
0100
1000
,  // measure 134
0100
0000
0010
0001
0010
0100
0010
0100
,  // measure 135
0010
0000
0100
0010
0000
0000
0000
2002
,  // measure 136
0000
0000
0000
0000
,  // measure 137
0000
0000
0000
0000
,  // measure 138
0000
0000
0000
0000
,  // measure 139
0000
0000
0000
3003
,  // measure 140
0000
0000
0000
0220
0000
0000
0000
0000
,  // measure 141
0000
0000
0000
0000
,  // measure 142
0000
0000
0000
0000
,  // measure 143
0000
0000
0000
0000
,  // measure 144
0000
0000
0000
0000
,  // measure 145
0000
0000
0330
0000
0000
2002
0000
0000
,  // measure 146
0000
0000
0000
0000
,  // measure 147
0000
0000
0000
0000
,  // measure 148
0000
0000
0000
0000
,  // measure 149
0000
0000
0000
0000
,  // measure 150
0000
0000
0000
0000
0000
3003
0000
0220
,  // measure 151
0000
0000
0000
0000
,  // measure 152
0000
0000
0000
0000
,  // measure 153
0000
0000
0000
0000
,  // measure 154
0000
0000
0000
0000
,  // measure 155
0000
0000
0000
0000
,  // measure 156
0000
0000
0000
0000
,  // measure 157
0000
0000
0000
0000
,  // measure 158
0000
0000
0000
0000
0000
0000
0000
0330
,  // measure 159
0000
0000
1000
0100
0001
0010
0100
1000
,  // measure 160
0000
1000
0010
0001
0010
0100
1000
0100
,  // measure 161
0010
0001
0010
0100
1000
0000
1000
0010
,  // measure 162
0001
0010
0100
1000
0000
0100
0010
0001
,  // measure 163
0010
0100
1000
0000
1000
0100
0010
0001
,  // measure 164
0010
0100
1000
0000
0100
0010
0001
0010
,  // measure 165
0100
0010
0000
2002
0000
0000
0000
0000
,  // measure 166
0000
0000
0000
0000
,  // measure 167
0000
0000
0000
0000
,  // measure 168
0000
0000
0000
0000
0000
3003
2000
0000
,  // measure 169
0000
3100
0010
0001
0010
0100
1000
0100
,  // measure 170
0001
0010
0100
1000
0100
0020
0000
0000
,  // measure 171
0000
0000
0031
0100
1000
0001
0010
1000
,  // measure 172
0100
0010
0001
0010
0200
0000
0000
0000
,  // measure 173
0000
0000
0000
0300
0010
0002
0000
0023
,  // measure 174
0000
0000
0030
1000
0000
0010
0001
0010
,  // measure 175
1000
0100
0010
0001
0010
0100
1000
0100
,  // measure 176
0010
0001
0000
0000
0001
0010
0100
0010
,  // measure 177
0001
0010
0100
1000
0100
0010
0100
1000
,  // measure 178
0100
0001
0010
0000
0020
0000
0000
0000
,  // measure 179
0000
0000
1030
0120
0000
0000
0000
0032
,  // measure 180
0000
0013
0100
1000
0100
0001
0010
0100
,  // measure 181
0010
0001
0100
1000
0100
0010
0100
1000
,  // measure 182
0000
0010
0100
0020
0000
0000
0230
0000
,  // measure 183
0300
0020
0000
0230
0000
0000
0000
0000
,  // measure 184
0000
0300
2002
0000
0000
0000
3003
0010
,  // measure 185
0200
0000
0000
2300
0000
3020
0000
0000
,  // measure 186
0030
0002
0200
0003
0000
2300
0000
0020
,  // measure 187
3000
0000
0000
0030
0002
0020
0003
0130
,  // measure 188
2000
0000
3200
0320
0000
0000
0032
0000
,  // measure 189
0203
0000
0000
2300
0000
3000
4004
0000
,  // measure 190
0000
0000
0000
0000
,  // measure 191
0000
0000
0000
3003
,  // measure 192
0000
1001
2002
0000
0000
0000
3003
0000
,  // measure 193
1010
0000
0202
0000
0300
0020
0000
0000
,  // measure 194
0000
0033
2020
0000
0000
3030
0000
1100
,  // measure 195
0000
0022
0000
0000
0033
0202
0000
0000
,  // measure 196
0303
2200
0000
0000
0000
3300
0000
0020
,  // measure 197
0000
0130
0000
0010
0200
0000
2300
0000
,  // measure 198
3001
0000
2000
0000
0000
3002
0000
0000
,  // measure 199
0023
0000
0000
0000
0000
0030
0000
1000
,  // measure 200
0100
0020
0000
0000
0000
0030
0012
0000
,  // measure 201
0203
0000
0000
0300
2000
0000
0000
0000
,  // measure 202
3020
0000
0030
1001
,  // measure 203
0220
0000
0000
0330
2002
0000
0000
3003
,  // measure 204
2020
0000
3030
0100
,  // measure 205
0010
0000
0001
0010
0000
0100
0000
0010
,  // measure 206
0200
0000
0000
2300
0000
0000
0000
3020
,  // measure 207
0000
0000
0000
0032
0000
0000
0000
0203
,  // measure 208
0000
0000
1300
0010
0001
0100
1000
0100
,  // measure 209
0001
0010
1000
0100
0010
0001
0100
1000
,  // measure 210
0100
0001
0010
1000
0100
0010
0100
0001
,  // measure 211
1000
0100
0001
0010
0100
0010
0100
1000
,  // measure 212
0100
0010
0001
0010
0100
0001
0010
0100
,  // measure 213
1000
0100
1000
0100
1000
0100
1000
0010
,  // measure 214
1000
0010
1000
0010
1000
0010
0001
1000
,  // measure 215
0100
0001
0010
1000
0001
1000
0000
0000
;
