#VERSION:0.83;
#TITLE:Common World Domination;
#SUBTITLE:;
#ARTIST:Unknown artist;
#TITLETRANSLIT:;
#SUBTITLETRANSLIT:;
#ARTISTTRANSLIT:;
#GENRE:;
#ORIGIN:;
#CREDIT:;
#BANNER:banner.png;
#BACKGROUND:Arifureta.Sekai.Seifuku.full.2010264.jpg;
#PREVIEWVID:;
#JACKET:;
#CDIMAGE:;
#DISCIMAGE:;
#LYRICSPATH:;
#CDTITLE:;
#MUSIC:【Gumi V3】- Common World Domination (鬱P, UtsuP Cover).mp3;
#OFFSET:0.000000;
#SAMPLESTART:99.971581;
#SAMPLELENGTH:12.000000;
#SELECTABLE:YES;
#BPMS:0.000=150.000;
#STOPS:;
#DELAYS:;
#WARPS:;
#TIMESIGNATURES:0.000=4=4;
#TICKCOUNTS:0.000=4;
#COMBOS:0.000=1;
#SPEEDS:0.000=1.000=0.000=0;
#SCROLLS:0.000=1.000;
#FAKES:;
#LABELS:0.000=Song Start;
#BGCHANGES:;
#KEYSOUNDS:;
#ATTACKS:
;

//---------------dance-single - ----------------
#NOTEDATA:;
#CHARTNAME:;
#STEPSTYPE:dance-single;
#DESCRIPTION:;
#CHARTSTYLE:;
#DIFFICULTY:Hard;
#METER:8;
#RADARVALUES:0.602012,0.742482,0.229338,0.143336,0.126614,882.000000,834.000000,48.000000,30.000000,0.000000,4.000000,6.000000,0.000000,0.000000,0.602012,0.742482,0.229338,0.143336,0.126614,882.000000,834.000000,48.000000,30.000000,0.000000,4.000000,6.000000,0.000000,0.000000;
#CREDIT:;
#NOTES:
// measure 0
0000
0000
0000
0000
0000
0001
1000
0001
,  // measure 1
0100
0010
0100
1000
0100
0010
0001
0010
,  // measure 2
0100
1000
0010
0001
0000
0010
0100
0010
,  // measure 3
0001
0010
0100
1000
0100
0010
0001
0010
,  // measure 4
0100
0010
0001
0010
0100
1000
0100
0010
,  // measure 5
0100
1000
0100
0001
0010
0100
0010
0001
,  // measure 6
0010
0100
0010
0100
0010
0100
0001
1000
,  // measure 7
0001
0010
0100
1000
0100
0002
0000
0000
,  // measure 8
0003
0020
0000
1130
0000
0022
0000
0000
,  // measure 9
0000
0000
0000
0000
,  // measure 10
0000
0000
0000
0000
0000
0000
0000
0033
,  // measure 11
1000
0010
0001
0100
1000
0010
0001
0010
,  // measure 12
1000
0100
0001
4040
0000
3130
0010
0001
,  // measure 13
0010
0100
0001
0100
1000
0010
0001
0010
,  // measure 14
0100
1000
0100
1000
0100
0010
0100
1000
,  // measure 15
0100
1000
0001
1000
0010
0001
1010
1010
,  // measure 16
0011
0000
0011
0000
1100
0000
1100
0000
0000
0000
1000
0100
0000
0000
0100
0010
,  // measure 17
0000
1000
0001
0000
0000
0010
0100
0000
0100
0000
1100
0000
0000
0000
0011
0000
,  // measure 18
1010
0101
0000
1000
0100
0010
0000
0100
,  // measure 19
0010
0001
0010
1000
0100
0010
0001
0010
,  // measure 20
0100
1000
0000
0000
0000
1000
0000
0100
,  // measure 21
0010
0001
0010
0100
0001
0010
0100
1000
,  // measure 22
0010
0001
0000
0010
0100
1000
0000
0000
,  // measure 23
1000
0100
0000
0000
0010
0100
0010
0001
,  // measure 24
0010
0100
1000
0100
0000
0001
0000
0010
,  // measure 25
0100
1000
0100
0010
0001
0010
0100
0010
,  // measure 26
1000
0101
1010
0101
0000
0010
0100
1000
,  // measure 27
0010
0001
0010
0100
1000
0100
0001
0010
,  // measure 28
0100
0010
0000
0000
1000
0001
0000
0000
,  // measure 29
0001
1000
0000
0000
1000
0001
0001
0010
,  // measure 30
0100
1000
0100
0010
0001
0010
0100
0010
,  // measure 31
0100
0010
0100
1000
0100
0010
0002
0000
,  // measure 32
0000
0000
0003
0000
0000
0000
0000
0000
1000
0010
0001
0000
0100
0000
1000
0000
,  // measure 33
0100
0010
0001
0000
0010
0000
1000
0000
0100
0000
0010
0000
0001
0000
0100
0000
,  // measure 34
1000
0000
0100
0000
0001
0000
0010
0000
0010
0100
1000
0000
0010
0000
0001
0000
,  // measure 35
0001
0010
0100
0000
0001
0000
0010
0000
0100
0000
1000
0000
0100
0000
1010
0000
,  // measure 36
1001
0000
0101
0000
0000
0000
0000
0000
0001
0010
0100
0000
0001
0000
0010
0000
,  // measure 37
1000
0100
0010
0000
0001
0000
0100
0000
1000
0000
0010
0000
0001
0000
0100
0000
,  // measure 38
0010
0000
0100
0000
0000
0000
0000
0000
1000
0001
1000
0000
0000
0000
0000
1000
,  // measure 39
0001
1000
0000
0000
0000
0000
0000
0000
0000
0000
0100
0000
0010
0000
0001
0000
,  // measure 40
0100
0010
0100
0010
0100
2002
0000
0000
,  // measure 41
0000
0000
0000
0000
0000
3013
0100
1000
,  // measure 42
0010
0001
0100
1000
0010
0001
0010
1000
,  // measure 43
0100
0010
0100
1000
0010
0001
0100
0010
,  // measure 44
0001
0100
1000
4040
0000
3030
0010
0100
,  // measure 45
1000
0100
0010
0100
0010
0001
0010
0100
,  // measure 46
0010
0100
0010
1001
0000
0010
0100
1000
,  // measure 47
0100
0010
0100
0010
0001
0010
0100
0010
,  // measure 48
0100
0000
0000
0000
0000
0000
1000
0000
0001
0000
0000
0000
1000
0000
0000
0000
0001
0000
1001
0000
0000
0000
0000
0000
0000
0000
0000
0000
0000
0000
0100
0000
0000
1000
0000
0000
0000
0000
0000
0000
0000
0000
0100
0000
0000
0010
0000
0000
,  // measure 49
0000
0001
0010
0000
1000
0100
0000
0000
0010
0000
1001
0000
0100
0000
1001
0000
,  // measure 50
0100
0010
0000
1000
0100
0010
0000
0001
,  // measure 51
0010
0100
0010
0001
0010
2002
3003
0010
,  // measure 52
1000
0100
0000
0000
0000
0001
1000
0001
,  // measure 53
0010
0100
0010
0100
0010
1000
0000
0001
,  // measure 54
1000
0001
1000
1000
0010
0010
0001
0000
,  // measure 55
0100
1000
0000
0000
1000
0010
0001
0010
,  // measure 56
0100
1000
0100
0010
0000
0001
0010
0100
,  // measure 57
0010
1000
0100
0010
0001
0000
0010
0000
0100
0000
1000
0000
0010
0000
0001
0000
,  // measure 58
0010
0100
0010
0001
0100
0010
0100
0010
,  // measure 59
1000
0001
1000
0001
0010
1000
0010
1000
,  // measure 60
1000
0100
0000
0000
0001
1000
0000
0000
,  // measure 61
1000
0001
0000
0000
0001
1000
0010
0001
,  // measure 62
1000
0010
0001
0010
0100
1000
0000
0000
,  // measure 63
0010
0100
0010
0100
2020
0000
0000
0000
,  // measure 64
0000
0000
3030
0000
0000
0000
0000
0000
1000
0100
0010
0000
0100
0000
1000
0000
,  // measure 65
0100
0010
0001
0000
1000
0000
0100
0000
0010
0000
1000
0000
0010
0000
0100
0000
,  // measure 66
0010
0000
1000
0000
0100
0000
0010
0000
0100
1000
0100
0000
0010
0000
0100
0000
,  // measure 67
0010
0001
0010
0100
0010
0001
0100
1000
,  // measure 68
0100
0000
1001
0000
0000
0000
0000
0000
0001
0010
0100
0000
1000
0000
0100
0000
,  // measure 69
0010
0100
1000
0000
0100
0000
0010
0000
0001
0000
0010
0000
0100
0000
0001
0000
,  // measure 70
1000
0000
0001
0000
0000
0000
0000
0000
1000
0001
1000
0000
0000
0000
0000
1000
,  // measure 71
0001
1000
0000
0000
1001
0000
0000
0000
0000
0000
0000
0000
1000
0000
0100
0000
,  // measure 72
0100
0010
0001
0100
1000
2002
0000
0000
,  // measure 73
0000
0000
0000
0000
,  // measure 74
0000
3003
0000
0000
0000
1000
0001
0000
,  // measure 75
1000
0001
1000
0001
0000
0010
0100
0010
,  // measure 76
0100
0010
0100
0000
1000
1000
0100
0000
,  // measure 77
0001
0010
1000
0100
0000
0001
1000
0000
,  // measure 78
1000
0100
0010
0100
1000
0001
1000
0000
,  // measure 79
0001
0000
0000
0100
0000
0000
0010
0000
0000
0001
0000
0000
0000
0000
1010
0000
0000
0000
0101
0000
0000
0000
1010
0000
,  // measure 80
0000
0000
0101
0000
0000
0000
1000
0000
0000
0100
0000
0000
0010
0000
0000
0001
0000
0000
0010
0000
0000
1000
0000
0000
,  // measure 81
0100
0010
0100
1000
0000
0001
1000
0000
,  // measure 82
0001
0100
0010
0001
0000
1000
0001
0000
,  // measure 83
1000
0000
0000
0010
0000
0000
0100
0000
0000
1000
0000
0000
0000
0000
1001
0000
0000
0000
0101
0000
0000
0000
1001
0000
,  // measure 84
0000
2002
0000
0000
3003
1001
1001
0100
,  // measure 85
0000
0010
0010
0010
0000
0001
0000
0001
,  // measure 86
0100
1000
0100
0100
0100
0010
0000
0010
,  // measure 87
0010
0001
0001
0000
1000
0100
0000
0010
,  // measure 88
0000
0001
0000
0010
0000
1000
1000
1000
,  // measure 89
0100
0010
0000
0001
0000
0010
0000
0100
,  // measure 90
0000
1000
0000
0100
0000
0001
0010
0010
,  // measure 91
0100
0100
0000
2000
0000
3020
0000
0030
,  // measure 92
0001
0010
0100
0010
0001
0010
0100
1000
,  // measure 93
0010
0001
0100
0010
0100
0010
0100
0010
,  // measure 94
0100
0010
0010
0001
0000
0010
0100
0010
,  // measure 95
0001
0010
0100
0002
0000
0020
0000
2000
,  // measure 96
0003
0030
0000
3000
0000
1000
0100
0010
,  // measure 97
0001
0010
1000
0100
0010
0002
0000
0023
,  // measure 98
0000
2030
0000
0000
3000
0100
0010
0001
,  // measure 99
0010
0100
1000
0010
0001
0010
0001
0010
,  // measure 100
0100
0020
0000
0000
0030
1000
0100
0000
,  // measure 101
0000
0001
0010
0000
1000
0100
0010
0001
,  // measure 102
0010
0000
0100
0000
0000
0000
0000
0000
1000
0100
0010
0000
1000
0000
0001
0000
,  // measure 103
0010
0100
1000
0100
0010
0001
0100
0010
,  // measure 104
0001
0010
0100
0010
0100
1000
0100
0010
,  // measure 105
0100
1000
0010
0001
0010
0100
0010
0010
,  // measure 106
0010
0000
0010
0000
0000
0000
0000
0000
1000
0100
0010
0000
0100
0000
1000
0000
,  // measure 107
0001
0010
0100
0000
1000
0000
0001
0000
0010
0000
0100
0000
1000
0000
0100
0000
,  // measure 108
0100
0000
0100
0000
0000
0000
0000
0000
1000
0001
1000
0000
0000
0000
0000
0000
,  // measure 109
1000
0001
1000
0000
0000
0000
0000
0000
1000
0001
1000
0000
1000
0001
1000
0000
,  // measure 110
0001
1000
0002
0000
0000
0000
0000
0000
1003
0100
0010
0000
0100
0000
0001
0000
,  // measure 111
0010
0100
1000
0000
0100
0000
0010
0000
0001
0000
0010
0000
0001
0000
0010
0000
,  // measure 112
0001
0000
0100
0000
0010
0000
0100
0000
1000
0100
0010
0000
0001
0000
1000
0000
,  // measure 113
0001
0010
0100
0000
0010
0000
0100
0000
0000
0000
1000
0000
0010
0000
0100
0000
,  // measure 114
0010
0000
0100
0000
0000
0000
0000
0000
1000
0100
0010
0000
0100
0000
1000
0000
,  // measure 115
0100
0010
0001
0000
0100
0000
0010
0000
0001
0000
0010
0000
0100
0000
0010
0000
,  // measure 116
0100
0000
0010
0000
0000
0000
0000
0000
1000
0001
1000
0000
0000
0000
0000
0000
,  // measure 117
1000
0001
1000
0000
0000
0000
0000
0000
0000
0000
0000
0000
2000
0000
0000
0000
,  // measure 118
3100
0010
0001
0010
0100
2002
0000
0000
,  // measure 119
0000
0000
0000
0000
,  // measure 120
3003
1000
0010
0001
0100
1000
0100
0001
,  // measure 121
0010
0100
1000
0010
0001
0100
1000
0010
,  // measure 122
0001
0010
1000
0100
0010
0001
0100
4004
,  // measure 123
0000
3003
1000
0010
0100
1000
0010
0001
,  // measure 124
0010
0100
0001
0010
0100
1000
0010
0001
,  // measure 125
0010
1000
0010
0001
1000
0100
0001
0010
,  // measure 126
0100
0000
1001
0000
0000
0000
1010
0000
0000
0000
0101
0000
0000
0000
1001
0000
0000
0000
0110
0000
0000
1000
0000
0000
,  // measure 127
0100
0000
0000
2020
0000
0000
0000
0000
,  // measure 128
0000
0000
0000
0000
,  // measure 129
0000
0000
3030
0000
;
