#TITLE:Cherry Blossom Whirlwind;
#SUBTITLE:;
#ARTIST:Unknown artist;
#TITLETRANSLIT:;
#SUBTITLETRANSLIT:;
#ARTISTTRANSLIT:;
#GENRE:;
#CREDIT:;
#BANNER:banner.png;
#BACKGROUND:Awesome-cherry-blossom-park-hd-1080p-wallpapers.jpg;
#LYRICSPATH:;
#CDTITLE:;
#MUSIC:Cherry Blossom Whirlwind Revisited BGA.mp3;
#OFFSET:0.000000;
#SAMPLESTART:0.000000;
#SAMPLELENGTH:12.000000;
#SELECTABLE:YES;
#BPMS:0.000000=186.000000
;
#STOPS:
;
#BGCHANGES:;
#KEYSOUNDS:;
#ATTACKS:;

//---------------dance-single - ----------------
#NOTES:
     dance-single:
     :
     Hard:
     7:
     0.815487,0.646619,0.000000,0.000000,0.000000,605.000000,605.000000,0.000000,0.000000,0.000000,0.000000,0.815487,0.646619,0.000000,0.000000,0.000000,605.000000,605.000000,0.000000,0.000000,0.000000,0.000000:
// measure 0
0000
0000
1000
0100
0010
0001
0010
0100
,  // measure 1
1000
0100
0010
0001
0010
0100
1000
0100
,  // measure 2
0010
0001
0100
1000
0100
0010
0001
0010
,  // measure 3
0100
1000
0100
0010
0001
0010
0100
1000
,  // measure 4
0010
0001
0010
0100
1000
0100
0010
0001
,  // measure 5
0010
0100
1000
0100
0010
0100
1000
0010
,  // measure 6
0001
0010
0100
0010
0001
0010
0100
1000
,  // measure 7
0100
0010
1000
0100
0010
0100
0001
1000
,  // measure 8
0001
1000
0001
1000
0001
1000
0001
1000
,  // measure 9
0100
0010
0001
0010
0100
1000
0100
0010
,  // measure 10
0001
0010
0100
1000
0100
0010
0001
0010
,  // measure 11
0100
0010
0100
0001
0010
0100
1000
0100
,  // measure 12
0010
0100
1000
0100
0010
0001
0010
0100
,  // measure 13
0010
0001
0010
0100
1000
0100
0001
0010
,  // measure 14
0100
0010
0100
0010
0100
1000
0001
1000
,  // measure 15
0001
1000
0100
1000
0100
1000
0010
1000
,  // measure 16
0010
1000
0001
1000
0001
1000
0010
0001
,  // measure 17
0010
0001
0100
0001
0010
0100
1000
0100
,  // measure 18
0010
0001
0010
0100
1000
0100
0010
0001
,  // measure 19
0010
0100
1000
0100
0010
0100
1000
0100
,  // measure 20
0010
0001
0010
0100
0001
0010
0100
1000
,  // measure 21
0010
0100
0010
0001
0010
0100
1000
0100
,  // measure 22
0010
0001
0010
0100
1000
0010
0001
0010
,  // measure 23
0100
1000
0100
0010
0100
1000
0100
0010
,  // measure 24
0001
0010
0100
0010
0001
0010
0100
0010
,  // measure 25
0100
0010
0100
0010
0100
0010
1000
0001
,  // measure 26
1000
0001
1000
0001
1000
0001
1000
0100
,  // measure 27
1000
0100
1000
0100
1000
0100
1000
0001
,  // measure 28
0010
0001
0010
0001
0010
0001
0010
0100
,  // measure 29
0010
0100
0010
0100
0010
0100
0010
0100
,  // measure 30
1000
0001
1000
0001
1000
0001
0010
1000
,  // measure 31
0001
1000
0000
0100
0000
0010
0000
0001
,  // measure 32
0000
0010
0000
0100
0000
1000
0000
0010
,  // measure 33
0000
1000
0000
0100
0000
0010
0000
0001
,  // measure 34
0000
0010
0000
0100
0000
1000
0000
0100
,  // measure 35
0000
0010
0000
0001
0000
0010
0000
0100
,  // measure 36
0000
1000
0010
0001
0100
1000
0100
0010
,  // measure 37
0001
0010
0100
1000
0100
0010
0001
0100
,  // measure 38
0010
0001
0010
0100
1000
0100
0010
0100
,  // measure 39
1000
0100
0010
0001
0010
0100
0010
0001
,  // measure 40
0010
0100
1000
0100
0010
0100
1000
0100
,  // measure 41
0010
0001
0010
0100
0010
0001
0010
0100
,  // measure 42
0010
0001
0010
0100
1000
0100
0010
0001
,  // measure 43
0010
1000
0100
0010
0100
1000
0010
0100
,  // measure 44
1000
0100
0010
0100
0010
0100
0010
0100
,  // measure 45
1000
0001
1000
0001
1000
0001
1000
0010
,  // measure 46
1000
0010
1000
0100
1000
0100
1000
0001
,  // measure 47
0100
0001
0100
0001
0010
0001
0010
0001
,  // measure 48
0010
0100
0010
0100
0010
0100
0001
1000
,  // measure 49
0100
0001
1000
0001
1000
0100
0010
0001
,  // measure 50
1000
0100
0010
0001
0010
0100
1000
0010
,  // measure 51
0001
0010
0100
1000
0100
0010
0001
0010
,  // measure 52
0100
1000
0100
0010
0100
1000
0100
0010
,  // measure 53
0001
0010
0100
0010
0001
0010
0100
1000
,  // measure 54
0100
0010
0100
1000
0100
0010
0001
0010
,  // measure 55
0100
0010
0001
0010
1000
0100
1000
0100
,  // measure 56
0010
0100
1000
0100
0010
0001
0010
0100
,  // measure 57
0010
0001
0010
0100
1000
0100
0010
0100
,  // measure 58
1000
0100
0010
0001
0010
0100
0010
0001
,  // measure 59
0010
0100
1000
0100
0010
0100
0010
0100
,  // measure 60
1000
0001
1000
0001
1000
0100
1000
0100
,  // measure 61
1000
0100
1000
0010
1000
0010
0001
1000
,  // measure 62
0001
1000
0001
0010
0001
0010
0001
0010
,  // measure 63
0001
0100
0001
0100
0001
0100
0010
0100
,  // measure 64
0010
0100
1000
0100
1000
0100
0010
0100
,  // measure 65
1000
0010
0100
1000
0100
1000
0100
0010
,  // measure 66
0001
0010
0100
1000
0100
0010
0001
0010
,  // measure 67
0100
1000
0100
0010
0001
0010
1000
0100
,  // measure 68
0010
0001
0010
0100
1000
0100
0010
0100
,  // measure 69
1000
0100
0010
0001
0010
0100
0010
1000
,  // measure 70
0001
0010
0100
1000
0010
0001
0010
0100
,  // measure 71
1000
0100
0010
0100
1000
0100
0010
0001
,  // measure 72
0010
0100
0010
0001
0010
0100
1000
0100
,  // measure 73
0010
0100
0010
0100
1000
0010
0100
0010
,  // measure 74
0100
0001
1000
0010
0100
0010
0001
0010
,  // measure 75
0100
0010
0001
0010
0000
0100
0000
1000
,  // measure 76
0000
0010
0000
0001
0000
0100
0000
1000
,  // measure 77
0000
0100
0000
0001
0000
0100
0000
1000
,  // measure 78
0000
0010
0000
0001
0000
0010
0000
0100
,  // measure 79
0000
1000
0000
0100
0000
0010
0000
0001
,  // measure 80
0000
0100
1000
0100
0010
0001
0000
0000
;
