#VERSION:0.83;
#TITLE:BitCrushe;
#SUBTITLE:;
#ARTIST:Unknown artist;
#TITLETRANSLIT:;
#SUBTITLETRANSLIT:;
#ARTISTTRANSLIT:;
#GENRE:;
#ORIGIN:;
#CREDIT:;
#BANNER:BitCrushe-banner.png;
#BACKGROUND:ドラ_-_BitCrushe.jpg;
#PREVIEWVID:;
#JACKET:;
#CDIMAGE:;
#DISCIMAGE:;
#LYRICSPATH:;
#CDTITLE:;
#MUSIC:(Hatsune Miku and Kasane Teto) BitCrushe English and Romaji lyrics.mp3;
#OFFSET:0.000000;
#SAMPLESTART:100.000000;
#SAMPLELENGTH:12.000000;
#SELECTABLE:YES;
#BPMS:0.000=133.000,
44.250=10.000,
44.333=500.000,
122.125=10.000,
122.250=500.000,
198.000=144.000,
243.000=500.000,
328.000=144.000,
374.000=200.000,
380.000=133.000,
381.500=200.000,
386.500=133.000,
388.500=200.000,
394.000=133.000,
395.000=200.000,
399.000=50.000,
399.667=200.000,
462.500=555.000,
473.000=200.000,
536.500=144.000,
610.000=200.000,
615.500=133.000,
617.000=200.000,
622.000=133.000,
624.000=200.000,
630.000=133.000,
631.500=200.000,
634.500=50.000,
635.000=200.000,
643.500=133.000,
645.000=200.000,
650.000=133.000,
652.000=200.000,
658.000=133.000,
659.500=200.000,
662.500=50.000,
663.000=200.000,
665.500=10.000,
665.750=200.000,
730.000=555.000;
#STOPS:;
#DELAYS:;
#WARPS:;
#TIMESIGNATURES:0.000=4=4;
#TICKCOUNTS:0.000=4;
#COMBOS:0.000=1;
#SPEEDS:0.000=1.000=0.000=0;
#SCROLLS:0.000=1.000;
#FAKES:;
#LABELS:0.000=Song Start;
#BGCHANGES:;
#KEYSOUNDS:;
#ATTACKS:
;

//---------------dance-single - ----------------
#NOTEDATA:;
#CHARTNAME:;
#STEPSTYPE:dance-single;
#DESCRIPTION:;
#CHARTSTYLE:;
#DIFFICULTY:Hard;
#METER:9;
#RADARVALUES:0.565955,1.456651,0.209261,0.099874,0.197371,833.000000,789.000000,44.000000,21.000000,0.000000,2.000000,0.000000,0.000000,0.000000,0.565955,1.456651,0.209261,0.099874,0.197371,833.000000,789.000000,44.000000,21.000000,0.000000,2.000000,0.000000,0.000000,0.000000;
#CREDIT:;
#NOTES:
// measure 0
0000
0000
0000
0000
0000
0000
0000
0000
0000
0000
0000
0000
1000
0001
1000
0001
,  // measure 1
1000
0010
0100
0010
0001
0100
1000
0010
1000
0100
1000
0100
0010
0100
0010
1000
,  // measure 2
0010
1000
0100
0010
1000
0100
0010
0001
1000
0100
1000
0010
0001
0010
0100
1000
,  // measure 3
0001
0010
0001
1000
0100
0010
0100
0010
0000
1000
0100
0010
0100
0010
0100
0010
,  // measure 4
0100
0010
0100
0010
0100
0000
1000
0100
0001
1000
0001
0100
1000
0100
1000
0100
,  // measure 5
1000
0000
0100
0001
1000
0010
1000
0010
1000
0100
1000
0001
1000
0100
1000
0010
,  // measure 6
1000
0100
0010
0001
1000
0010
0001
0100
1000
0010
0001
0100
0001
0010
1000
0001
,  // measure 7
1000
0100
0010
0100
1000
0100
0010
0001
0010
0100
0010
0001
0010
0100
1000
0100
,  // measure 8
0010
0100
1000
0100
1000
0100
0010
0001
0010
0100
0010
0001
0010
0100
1000
0100
,  // measure 9
0010
0100
1000
0100
0010
0001
0010
0100
0010
0001
0010
0100
1000
0100
0010
0001
,  // measure 10
0010
0100
1000
0100
0010
0001
0010
0100
1000
0100
0010
0001
0010
0100
1000
0000
,  // measure 11
1000
2002
0000
0000
0000
0000
0000
0000
0000
0000
0000
0000
,  // measure 12
0000
0000
0000
0000
,  // measure 13
0000
0000
0000
0000
,  // measure 14
0000
0000
0000
0000
,  // measure 15
0000
0000
0000
0000
,  // measure 16
0000
0000
0000
0000
,  // measure 17
0000
0000
0000
0000
,  // measure 18
0000
0000
0000
0000
,  // measure 19
0000
0000
0000
0000
,  // measure 20
0000
0000
0000
0000
,  // measure 21
0000
0000
0000
0000
,  // measure 22
0000
0000
0000
0000
,  // measure 23
0000
0000
0000
0000
,  // measure 24
0000
0000
0000
0000
,  // measure 25
0000
0000
0000
0000
,  // measure 26
0000
0000
0000
0000
,  // measure 27
0000
0000
0000
0000
,  // measure 28
0000
0000
0000
0000
,  // measure 29
0000
0000
0000
0000
,  // measure 30
0000
0000
0000
0000
0000
0000
0000
0000
0000
0000
0000
0000
0000
0000
0000
0000
0000
0220
0000
0000
0000
0000
0000
0000
3003
0000
0000
0000
0000
0000
0000
0000
,  // measure 31
0000
0000
0000
0000
,  // measure 32
0000
0000
0000
0000
,  // measure 33
0000
0000
0000
0000
,  // measure 34
0000
0000
0000
0000
,  // measure 35
0000
0000
0000
0000
,  // measure 36
0000
0000
0000
0000
,  // measure 37
0000
0000
0000
0000
,  // measure 38
0000
0000
0000
0000
,  // measure 39
0000
0000
0000
0000
,  // measure 40
0000
0000
0000
0000
,  // measure 41
0000
0000
0000
0000
,  // measure 42
0000
0000
0000
0000
,  // measure 43
0000
0000
0000
0000
,  // measure 44
0000
0000
0000
0000
,  // measure 45
0000
0000
0000
0000
,  // measure 46
0000
0000
0000
0000
,  // measure 47
0000
0000
0000
0000
,  // measure 48
0000
0000
0000
0000
,  // measure 49
0000
0000
0000
0000
0330
0010
0001
0010
,  // measure 50
0001
0010
0001
0100
0010
0100
1000
0000
,  // measure 51
1000
0100
1000
0100
1000
0100
1000
0100
,  // measure 52
1000
1000
0100
0000
0010
0001
0010
0001
,  // measure 53
0010
0001
0000
0011
0000
0010
0001
0000
,  // measure 54
1000
0100
1000
0100
1000
0100
0010
0100
,  // measure 55
0010
0100
0000
0010
0001
0010
0001
0010
,  // measure 56
0001
0010
0001
0100
0010
0000
1000
0100
,  // measure 57
1000
0100
1000
0100
0100
0001
0100
0001
,  // measure 58
0100
0000
1000
0100
1000
0100
1000
0100
,  // measure 59
1000
0100
1000
0100
1000
0010
0001
0010
,  // measure 60
0001
0010
0001
0010
0001
0010
1001
0000
,  // measure 61
0000
0000
1001
0000
0000
0000
0000
2002
,  // measure 62
0000
0000
0000
0000
,  // measure 63
0000
0000
0000
0000
,  // measure 64
0000
0000
0000
0000
,  // measure 65
0000
0000
0000
0000
,  // measure 66
0000
0000
0000
0000
,  // measure 67
0000
0000
0000
0000
,  // measure 68
0000
0000
0000
0000
,  // measure 69
0000
0000
0000
0000
,  // measure 70
0000
0000
0000
0000
,  // measure 71
0000
0000
0000
0000
,  // measure 72
0000
0000
0000
0000
,  // measure 73
0000
0000
0000
0000
,  // measure 74
0000
0000
0000
0000
,  // measure 75
0000
0000
0000
0000
,  // measure 76
0000
0000
0000
0000
,  // measure 77
0000
0000
0000
0000
,  // measure 78
0000
0000
0000
0000
,  // measure 79
0000
0000
0000
0000
,  // measure 80
0000
0000
0000
0000
,  // measure 81
0000
0000
0000
0000
,  // measure 82
3000
1003
0100
1000
0100
0010
0001
0010
,  // measure 83
0001
0010
0001
0000
0100
0010
0100
0010
,  // measure 84
0100
1000
0100
1000
0100
1000
0100
0010
,  // measure 85
0001
0010
0001
0010
0001
0100
0010
0001
,  // measure 86
0010
0011
0000
1000
0010
0100
1000
0010
,  // measure 87
1000
0010
1000
0100
0010
1000
0001
0100
,  // measure 88
0001
0100
0001
0100
0000
0001
0100
0001
,  // measure 89
0100
0001
0100
1000
0100
1000
0100
1000
,  // measure 90
0100
1000
0100
1000
0100
0010
0001
0010
,  // measure 91
0001
0010
0001
0000
0011
0000
0010
0011
,  // measure 92
0000
0001
0010
0100
1000
0000
1000
0000
,  // measure 93
1001
1001
0000
1001
1000
1000
0000
0000
,  // measure 94
0001
0001
0000
1000
1000
0000
0100
0100
,  // measure 95
1000
0010
0000
1000
0100
0000
0100
0100
,  // measure 96
0000
0010
0010
0000
0010
0010
0001
1000
,  // measure 97
0100
0010
0010
0000
0001
0001
0000
0001
,  // measure 98
0001
0000
0100
0100
0000
1000
0100
0000
,  // measure 99
1000
0000
0000
0100
0000
0000
0000
0000
0000
0010
0000
0000
0010
0000
0000
0000
0000
0000
0001
0010
0000
0000
1001
0000
,  // measure 100
0000
0100
0010
0001
,  // measure 101
0010
0000
0100
0010
0000
0100
1000
0000
,  // measure 102
0100
0000
0010
0002
0000
0013
0000
0000
,  // measure 103
1000
0000
0100
0010
0000
0000
0001
0000
,  // measure 104
0010
0000
1000
0100
0010
0000
0001
0000
,  // measure 105
0010
0000
0100
0010
0000
0001
0010
0000
,  // measure 106
0100
0000
1000
0000
1001
0000
0000
1010
,  // measure 107
0000
0000
0011
0000
0000
0101
0000
0000
,  // measure 108
1000
0100
0010
0001
,  // measure 109
0010
0000
0100
0010
0000
1000
0100
0000
,  // measure 110
0010
0000
0001
0010
0000
0000
0100
0000
,  // measure 111
0010
0000
1000
0100
0000
0000
0010
0000
,  // measure 112
0001
0010
0200
0000
,  // measure 113
0310
0000
0001
0000
0010
1000
0000
0010
,  // measure 114
0000
0001
0000
0000
2002
0000
0000
0000
,  // measure 115
0000
0000
0000
3003
0220
0000
0000
0000
,  // measure 116
0000
0000
0000
0000
,  // measure 117
0000
0000
0000
0000
,  // measure 118
0000
0000
0000
1330
0100
1000
0010
0001
,  // measure 119
1000
0010
0100
0010
1000
0100
0010
0001
,  // measure 120
0010
0000
0100
0010
0100
1000
0100
0000
,  // measure 121
0010
0000
0001
0010
0100
0000
0010
0001
,  // measure 122
0010
0000
0100
1000
0100
0010
0001
0000
,  // measure 123
0010
0000
0100
0010
0000
0100
0100
0100
,  // measure 124
0000
1000
1000
1000
1000
0010
0010
0010
,  // measure 125
0000
0001
0000
0001
0001
0100
0100
0100
,  // measure 126
0000
0010
0010
0100
0000
0010
0100
0000
,  // measure 127
0000
1000
0000
0001
1000
0100
1000
0010
,  // measure 128
1000
0000
0010
0001
0100
0010
0100
0000
,  // measure 129
0010
0000
0100
0100
0000
1000
1000
1000
,  // measure 130
0000
0010
0001
0010
0000
0001
0010
0000
,  // measure 131
0100
0000
0010
0100
0000
1000
0100
0100
,  // measure 132
0000
0010
0001
0010
0000
0100
0010
0000
,  // measure 133
0100
0000
1000
0100
0000
0010
0001
0010
,  // measure 134
0000
0010
0100
0010
0100
0010
0100
0010
,  // measure 135
0100
0010
0100
1000
0001
1000
0001
1000
,  // measure 136
0000
0001
1000
0001
0100
0010
0100
0010
,  // measure 137
0100
0010
0100
0010
0000
0110
1000
0001
,  // measure 138
1000
1001
0000
1001
1001
1000
0100
0010
,  // measure 139
0100
0010
0100
1000
0010
0100
0010
0001
,  // measure 140
0010
0100
1000
0010
0000
0010
0100
0010
,  // measure 141
1000
0100
0010
0100
0010
0100
0010
0100
,  // measure 142
0110
0010
0001
1000
0001
1001
1001
1001
,  // measure 143
0000
1000
0100
0010
0100
1000
0100
1000
,  // measure 144
0110
0000
1000
0001
0010
0100
0010
0001
,  // measure 145
0000
0010
0100
0010
0001
0010
0100
1000
,  // measure 146
0100
0010
0000
1100
0000
0100
0010
0100
,  // measure 147
0100
0110
0110
0000
0110
1000
0100
0010
,  // measure 148
0100
0010
0001
0000
0010
0100
0010
0100
,  // measure 149
0010
0010
1000
0001
0000
1000
0001
1000
,  // measure 150
1000
0100
0010
0100
0010
0100
0010
0001
,  // measure 151
0010
0010
0001
0010
0100
0110
0110
0000
,  // measure 152
0110
1001
0000
1001
1001
0100
0100
0000
,  // measure 153
0010
0010
0000
0100
0100
0000
0010
0100
,  // measure 154
1000
0100
0010
0010
0000
0001
0001
0000
,  // measure 155
0010
0010
0000
0010
0100
0100
1000
0100
,  // measure 156
0000
0100
0010
0000
0100
0010
0000
0100
,  // measure 157
0010
0000
0010
0100
1000
0010
0000
0100
,  // measure 158
1000
0000
1000
0100
0000
2200
3300
0000
,  // measure 159
1000
0100
0020
0000
,  // measure 160
1000
0000
1000
1000
0000
1000
1000
0030
,  // measure 161
2000
3100
0000
0100
0010
0000
0001
0010
,  // measure 162
0000
0010
0100
0000
1000
0100
0010
0001
,  // measure 163
0000
0010
0100
0000
0010
0100
0000
0010
,  // measure 164
0100
0000
0010
0100
1000
0001
0100
1000
,  // measure 165
0100
0000
1000
0100
0000
1010
0000
0000
,  // measure 166
2000
0000
0000
3200
0000
0000
0000
0000
,  // measure 167
1300
0100
0000
0010
0000
0001
0000
0010
,  // measure 168
0000
0100
0010
0000
0100
1000
0000
0100
,  // measure 169
0000
0010
0001
0000
0000
0010
0000
0100
,  // measure 170
0000
0010
0100
0000
0000
1000
0100
0000
,  // measure 171
0000
0001
0010
0100
0000
1000
0000
0100
,  // measure 172
0000
0010
0100
0000
1000
0001
0000
1000
,  // measure 173
0000
0001
0000
1001
0000
0000
1010
0000
,  // measure 174
0000
0101
0000
0000
1100
0000
0000
1000
,  // measure 175
0000
0010
0000
0001
0000
0100
0000
1000
,  // measure 176
0100
0001
0000
0000
0010
0100
0000
0010
,  // measure 177
0000
0001
0010
0000
0000
0100
0000
1000
,  // measure 178
0000
0010
0001
0000
0000
0010
0000
0001
,  // measure 179
0000
0100
0000
0020
0000
0000
0000
0000
,  // measure 180
0000
0000
0030
1000
0100
0000
0010
0000
,  // measure 181
0001
2000
0000
0000
,  // measure 182
0000
0000
0000
0002
0000
0000
0000
0000
,  // measure 183
0000
0000
0000
0000
,  // measure 184
0000
0000
0000
0000
,  // measure 185
0000
0000
0000
0000
0000
3003
0000
0000
;
