#TITLE:Anti-Digitalism;
#SUBTITLE:;
#ARTIST:Unknown artist;
#TITLETRANSLIT:;
#SUBTITLETRANSLIT:;
#ARTISTTRANSLIT:;
#GENRE:;
#CREDIT:;
#BANNER:banner.png;
#BACKGROUND:maxresdefault-6.jpg;
#LYRICSPATH:;
#CDTITLE:;
#MUSIC:【Hatsune Miku】- Anti-Digitalism (CD-R Version) 【Utsu-P】.mp3;
#OFFSET:0.000000;
#SAMPLESTART:99.971581;
#SAMPLELENGTH:12.000000;
#SELECTABLE:YES;
#BPMS:0.000000=155.000000
;
#STOPS:
;
#BGCHANGES:;
#KEYSOUNDS:;
#ATTACKS:;

//---------------dance-single - ----------------
#NOTES:
     dance-single:
     :
     Hard:
     9:
     0.622952,0.606423,0.275284,0.079793,0.000000,1093.000000,1024.000000,69.000000,20.000000,0.000000,0.000000,0.622952,0.606423,0.275284,0.079793,0.000000,1093.000000,1024.000000,69.000000,20.000000,0.000000,0.000000:
// measure 0
0000
0000
0000
0001
1000
0001
1000
0001
,  // measure 1
1000
0001
1000
0001
1000
0001
1000
0001
,  // measure 2
1000
0001
1000
0001
1000
0001
1000
0001
,  // measure 3
0010
0100
0010
0100
0010
0100
0010
0100
,  // measure 4
0010
0100
0010
0100
0010
0100
0010
0100
,  // measure 5
0010
0100
0010
0100
0001
1000
0001
1000
,  // measure 6
0001
0100
1000
0100
0010
1000
0010
1000
,  // measure 7
0010
1000
0001
0010
0001
0010
0001
0010
,  // measure 8
0001
0100
0001
0100
0001
0100
0010
1000
,  // measure 9
0010
1000
0010
0100
0010
0100
0010
0100
,  // measure 10
0010
1000
0001
1000
0000
0001
1000
0100
,  // measure 11
0010
0001
0100
1000
0100
0010
0100
1000
,  // measure 12
0100
0010
0001
0100
0010
0001
0010
0100
,  // measure 13
0010
0100
0010
1000
0001
1000
0001
0010
,  // measure 14
0100
1000
0100
0010
0001
0010
0100
1000
,  // measure 15
0100
0010
0001
0010
0100
0010
0000
0000
,  // measure 16
1000
0100
0010
0001
0010
0001
0100
0010
,  // measure 17
0100
0010
1000
0001
1000
0001
0100
1000
,  // measure 18
0100
1000
0100
1000
0100
0010
1000
0010
,  // measure 19
0100
0001
0010
0001
0010
0001
0010
0100
,  // measure 20
1000
0010
0100
1000
0100
1000
0010
0001
,  // measure 21
0000
0001
0010
1000
0100
1000
0100
0010
,  // measure 22
0000
0001
0020
0000
0230
0000
0000
0000
,  // measure 23
0000
1300
0000
0100
0010
0001
0100
0010
,  // measure 24
0100
0010
0002
0000
0013
0100
1000
0000
,  // measure 25
0200
0000
0000
0000
0000
0300
0000
0001
,  // measure 26
0010
0100
1000
1000
0100
0010
0001
0000
,  // measure 27
0010
0100
0010
0002
0000
0000
0023
0200
,  // measure 28
0030
0000
0000
1300
1000
0100
0010
0001
,  // measure 29
0010
1000
0100
1000
0100
0010
0001
0010
,  // measure 30
0200
0020
0300
0000
0000
0000
0230
0000
,  // measure 31
0000
0300
1000
0100
0010
0000
0000
0001
,  // measure 32
0010
0100
0000
0000
0000
1000
0001
1000
,  // measure 33
0001
1000
0001
1000
0001
0000
0000
1000
,  // measure 34
0100
0010
0000
0000
0001
0010
0100
0000
,  // measure 35
0000
1000
0100
1000
0010
0001
0010
0000
,  // measure 36
0100
1000
0000
0001
0010
0100
0000
0000
,  // measure 37
1000
0100
0010
0001
0000
0000
1000
0100
,  // measure 38
0010
0001
0010
0100
1000
0100
0000
0000
,  // measure 39
1000
0000
0100
0010
0000
0001
0000
0010
,  // measure 40
0100
0000
0000
1000
0100
0010
0001
0010
,  // measure 41
0100
1000
0010
0000
0000
0000
1001
0000
,  // measure 42
0000
1001
0000
1001
1001
0000
0001
1000
,  // measure 43
0000
1000
1000
0100
0010
0001
0010
0100
,  // measure 44
1000
0000
0000
1001
0000
1001
0000
1001
,  // measure 45
1001
0000
1000
0001
0000
0000
1000
0100
,  // measure 46
0010
0001
0001
0010
0100
1000
0100
0000
,  // measure 47
1001
0000
1001
0000
1001
1001
1001
0100
,  // measure 48
1000
0100
0000
0010
0000
0000
0010
0000
,  // measure 49
0100
1000
0000
0000
1001
0000
0000
1010
,  // measure 50
0000
0101
0101
0000
1100
1100
0000
0000
,  // measure 51
1000
0100
0010
0001
0001
0010
0100
1000
,  // measure 52
0000
1000
0100
0010
0001
0000
0001
0010
,  // measure 53
0100
1000
0010
0010
0100
0100
0010
0010
,  // measure 54
1000
0100
1000
0100
1000
1000
0010
1000
,  // measure 55
0010
1000
0100
0010
0001
0010
0100
1000
,  // measure 56
0100
0010
0100
1000
0100
1000
0100
0010
,  // measure 57
0001
0000
0001
0010
0100
1000
0100
1000
,  // measure 58
0010
0100
0010
0000
1000
0100
1000
0100
,  // measure 59
0000
1000
0010
1000
0010
1000
0000
0010
,  // measure 60
0001
0010
0001
0000
0001
0100
0001
0100
,  // measure 61
0000
1000
0001
1000
0001
0000
0110
0110
,  // measure 62
0110
0000
0000
0100
1000
0100
0010
0001
,  // measure 63
0100
1000
0010
0001
0100
0010
0001
0010
,  // measure 64
1000
0100
0010
1000
0100
0001
0010
0100
,  // measure 65
0010
0001
0010
1000
0100
0010
0010
0100
,  // measure 66
0001
1000
0001
1000
0010
0001
0010
1000
,  // measure 67
0010
0001
0010
1000
0000
0100
0010
0001
,  // measure 68
0100
0010
0001
0010
1000
0010
0100
1000
,  // measure 69
0100
0010
0001
0100
0010
0001
0100
0010
,  // measure 70
0001
0100
1000
0100
0010
1000
0100
0010
,  // measure 71
0010
0100
0010
0010
0100
0010
0100
1001
,  // measure 72
1001
1000
0100
0001
0010
0100
1000
0100
,  // measure 73
0010
0000
0001
0010
0100
0000
0000
1000
,  // measure 74
0100
0010
0001
0001
0010
0100
1000
0100
,  // measure 75
0010
0000
1000
0100
0010
0000
0001
0010
,  // measure 76
0100
1000
0000
0000
1000
0001
1000
0010
,  // measure 77
0001
1000
0001
1000
0000
0000
1000
0000
,  // measure 78
0100
0010
0000
0001
0000
0010
0100
0000
,  // measure 79
1000
0000
0100
0010
0001
0001
0010
0100
,  // measure 80
1000
0000
0000
1000
0100
0010
0000
0000
,  // measure 81
0001
0010
0100
0000
0000
1000
0001
0100
,  // measure 82
1000
0100
0010
0000
0100
0010
0000
0000
,  // measure 83
0000
1001
0000
1001
0000
1001
1001
0000
,  // measure 84
1000
0001
0100
0001
0001
0010
0100
1000
,  // measure 85
1000
0100
0010
0001
1000
0000
1001
0000
,  // measure 86
1001
0000
1001
1001
0000
0001
1000
0000
,  // measure 87
1000
0100
0001
0010
0001
0010
1000
0100
,  // measure 88
1000
0100
1001
0000
1001
0000
1100
1100
,  // measure 89
0000
0010
0001
0010
0000
0002
0000
0000
,  // measure 90
0023
0000
0030
1000
0100
0000
0000
0001
,  // measure 91
0000
0010
0000
0100
0010
0000
1000
0100
,  // measure 92
0000
0000
0001
0010
0100
1000
0100
0010
,  // measure 93
0001
0010
0000
0100
0000
1000
0100
0010
,  // measure 94
0000
0001
0010
0100
0010
0000
0001
0010
,  // measure 95
0100
0000
0010
0001
0010
0100
0000
1000
,  // measure 96
0100
0010
0100
0000
1000
0100
0010
0001
,  // measure 97
0010
0100
0010
0000
0001
0010
0100
1000
,  // measure 98
0000
0100
0010
0100
1000
0100
0010
0000
,  // measure 99
0001
0010
0100
0010
0001
0000
0010
0100
,  // measure 100
1000
0100
0000
0010
0100
1000
0100
0010
,  // measure 101
0001
0010
0100
0010
0000
0001
0010
0100
,  // measure 102
0010
0001
0010
0100
1000
0100
0010
0100
,  // measure 103
1000
0100
0010
0200
0000
0000
0300
1000
,  // measure 104
0100
0001
0010
1000
0100
0001
0010
0001
,  // measure 105
0010
0100
0010
0010
0100
1000
0100
0010
,  // measure 106
0010
0100
0000
1000
0100
0010
0100
1000
,  // measure 107
0010
0001
1000
0100
0001
0010
1000
0100
,  // measure 108
0010
1000
0010
0001
0010
0100
0001
0000
,  // measure 109
0010
1000
0010
0010
1000
0010
0010
0100
,  // measure 110
0010
0010
1000
0100
0010
0100
0100
0010
,  // measure 111
0010
0100
0100
0000
1000
0001
0001
1000
,  // measure 112
0100
0010
0010
0100
0100
0010
0010
1000
,  // measure 113
0100
1000
1000
0010
0010
1000
0010
1001
,  // measure 114
0000
1001
1001
0000
0000
1000
0100
0010
,  // measure 115
0000
0000
0001
0010
0100
0000
1000
0100
,  // measure 116
0010
0001
0000
0000
1000
0000
0100
0010
,  // measure 117
0000
0001
0000
0010
0100
0000
0000
1000
,  // measure 118
0100
0010
0001
0010
0100
1000
0100
0000
,  // measure 119
0000
1000
0100
0010
0000
0000
0001
0010
,  // measure 120
0100
1000
0000
0100
1000
0100
0010
0001
,  // measure 121
0010
0100
1000
0100
0000
0000
1000
0100
,  // measure 122
0010
0000
0000
0001
0010
0100
0000
0000
,  // measure 123
0001
0010
0100
1000
1000
0100
0010
0001
,  // measure 124
0000
0000
0011
1100
,  // measure 125
1010
1010
0000
0001
0100
0000
1000
0100
,  // measure 126
0000
0010
0001
0010
0100
1000
0100
0000
,  // measure 127
1001
0000
0000
1010
0000
0011
0011
0000
,  // measure 128
0101
1100
0000
1000
0100
0010
0000
0001
,  // measure 129
0010
0100
1000
0100
0000
1001
0000
1001
,  // measure 130
0000
1000
0010
0000
0001
0100
1000
0000
,  // measure 131
1000
0000
0000
0100
0000
0001
0000
0010
,  // measure 132
0000
0011
0000
0000
1100
0000
1010
1010
,  // measure 133
0000
0101
0101
0000
1000
0100
0010
0000
,  // measure 134
0001
0010
0100
1000
0100
0000
1001
0000
,  // measure 135
0000
1010
0000
0001
0010
0000
0100
0010
,  // measure 136
0000
0100
1000
0100
0010
0001
0001
0010
,  // measure 137
0100
1000
1100
0000
0000
0011
0000
0101
,  // measure 138
0101
0000
1010
1010
0000
1000
0000
0100
,  // measure 139
0010
0001
0010
0100
1000
0000
0110
0000
,  // measure 140
1001
0000
1010
0000
0001
0100
1000
0100
,  // measure 141
0002
0000
0000
0023
0000
2000
0030
0000
,  // measure 142
3100
0020
0000
0000
0032
0000
0023
0000
,  // measure 143
0000
0130
1000
0100
0010
0002
0000
0013
,  // measure 144
1000
0100
0000
0010
0001
0010
0100
1000
,  // measure 145
0000
1000
0100
1000
1100
0000
0010
1000
,  // measure 146
0010
1000
0010
0001
0010
0001
0010
0100
,  // measure 147
0001
0100
0001
1000
0100
1000
0100
1000
,  // measure 148
0100
1000
0100
0010
1000
0100
0010
1000
,  // measure 149
0001
1000
0001
1000
0010
0001
0010
0100
,  // measure 150
1000
0000
1000
0100
1000
0100
0010
0001
,  // measure 151
0010
0001
0001
0100
0010
0100
0010
0100
,  // measure 152
0010
1000
0001
1000
0001
1000
0100
1000
,  // measure 153
0100
1000
0100
1000
0010
1000
0010
1000
,  // measure 154
0100
0001
0010
0001
0010
0100
0001
0100
,  // measure 155
1000
0100
0000
0000
0001
0010
0100
1000
,  // measure 156
0000
0001
0010
0100
1000
0001
0010
0100
,  // measure 157
1000
0100
0001
0010
0100
1000
0001
0010
,  // measure 158
0100
1000
1000
0100
0010
0001
0010
0100
,  // measure 159
1000
0010
0100
1000
0010
0001
0010
0100
,  // measure 160
1000
0000
0000
0000
;
