#VERSION:0.83;
#TITLE:All Star;
#SUBTITLE:;
#ARTIST:Unknown artist;
#TITLETRANSLIT:;
#SUBTITLETRANSLIT:;
#ARTISTTRANSLIT:;
#GENRE:;
#ORIGIN:;
#CREDIT:;
#BANNER:banner.png;
#BACKGROUND:shrek-wallpapers-29885-3054218.jpg;
#PREVIEWVID:;
#JACKET:;
#CDIMAGE:;
#DISCIMAGE:;
#LYRICSPATH:;
#CDTITLE:;
#MUSIC:Smash Mouth - All Star (Official Music Video).mp3;
#OFFSET:0.000000;
#SAMPLESTART:99.971581;
#SAMPLELENGTH:12.000000;
#SELECTABLE:YES;
#BPMS:0.000=104.000;
#STOPS:;
#DELAYS:;
#WARPS:;
#TIMESIGNATURES:0.000=4=4;
#TICKCOUNTS:0.000=4;
#COMBOS:0.000=1;
#SPEEDS:0.000=1.000=0.000=0;
#SCROLLS:0.000=1.000;
#FAKES:;
#LABELS:0.000=Song Start;
#BGCHANGES:0.000=shrek-wallpapers-29885-3054218.jpg=1.000=0=0=1=StretchNormal====,
0.021=videoplayback.mp4=1.000=0=0=1=====,
99999=-nosongbg-=1.000=0=0=0 // don't automatically add -songbackground-
;
#KEYSOUNDS:;
#ATTACKS:
;

//---------------dance-single - ----------------
#NOTEDATA:;
#CHARTNAME:;
#STEPSTYPE:dance-single;
#DESCRIPTION:;
#CHARTSTYLE:;
#DIFFICULTY:Hard;
#METER:7;
#RADARVALUES:0.404265,0.568548,0.109979,0.647186,0.915790,669.000000,643.000000,26.000000,153.000000,0.000000,0.000000,0.000000,0.000000,0.000000,0.404265,0.568548,0.109979,0.647186,0.915790,669.000000,643.000000,26.000000,153.000000,0.000000,0.000000,0.000000,0.000000,0.000000;
#CREDIT:;
#NOTES:
// measure 0
0000
0000
0000
0000
0000
0000
1000
0100
,  // measure 1
0100
0000
0010
0000
0001
0000
0010
0010
,  // measure 2
0100
0000
1000
0000
0100
0000
0010
0001
,  // measure 3
0001
0000
0000
0000
0000
0010
0000
0000
0100
0000
0000
0000
1000
0000
0100
0000
,  // measure 4
0100
0000
0000
0000
0010
0000
0000
0000
0000
0001
0000
0000
0000
0100
0000
0010
,  // measure 5
0000
0010
0000
0000
0000
1000
0000
0000
0000
0001
0000
0000
0000
1000
0000
0001
,  // measure 6
0000
0001
0000
0000
0000
0100
0000
0000
0000
0010
0000
0000
0000
0100
0000
1000
,  // measure 7
0000
1000
0000
0000
0000
0100
0000
0000
0000
0010
0000
0000
0001
0000
0010
0000
,  // measure 8
0010
0000
0000
0000
0000
0001
0000
0000
0000
0100
0000
0000
0000
1000
0000
1000
,  // measure 9
0000
1000
0000
0000
0000
0010
0000
0000
0000
0001
0000
0000
0000
0100
0000
0010
,  // measure 10
0000
0010
0000
0000
0000
1000
0000
0000
0001
0000
0000
0000
0000
0100
0000
0010
,  // measure 11
0000
0100
0000
0000
0000
1000
0000
0000
0000
0001
0000
0000
0000
0010
0000
0100
,  // measure 12
0000
0100
0000
0000
0000
1000
0000
0000
0000
0001
0000
0000
0000
0010
0000
0100
,  // measure 13
0000
0010
0000
0000
0000
0100
0000
0000
0000
1000
0000
0000
0010
0000
0000
0001
,  // measure 14
0000
0001
0000
0000
0000
0010
0000
0000
0100
0000
0000
0000
0000
1000
0000
0100
,  // measure 15
0000
0100
0000
0000
0000
0000
0000
0000
0000
0000
0000
0000
0000
0000
0000
0000
,  // measure 16
2200
0000
0000
3300
0000
0010
0000
0001
0000
0010
0000
0000
0100
0000
1000
0000
,  // measure 17
0000
0100
0000
0020
0000
0000
0000
0032
0000
0103
0000
1000
0000
0010
0000
0002
,  // measure 18
0000
0000
0000
0013
0000
2000
0000
3100
0000
0002
0000
0013
0000
0100
0000
0010
,  // measure 19
0200
0000
0300
2000
0000
0000
3200
0000
0000
0300
1000
0100
0020
0000
0000
0000
,  // measure 20
0031
0000
0010
0000
0000
0200
0000
1300
0010
0000
0002
0000
0100
0003
0010
0000
,  // measure 21
0200
0000
0320
0000
0000
0000
0000
1030
0000
0001
0000
1000
0000
0002
0000
0013
,  // measure 22
0100
0000
0020
0000
0000
0000
0000
2030
0000
3100
0000
0020
0000
0000
0000
0032
,  // measure 23
0000
0013
0000
0200
0000
0000
0320
0000
0000
0000
0000
0000
0000
0030
0000
0000
,  // measure 24
1001
0000
0000
0000
1000
0100
0000
0010
0000
0010
0010
0010
0001
0001
0000
0001
,  // measure 25
0000
0001
0001
0000
0000
0100
0000
0100
0100
0100
0000
1000
1000
1000
1000
1000
,  // measure 26
0000
0010
0010
0000
0000
0001
0001
0001
0000
0100
0000
0100
0100
0100
0000
1000
,  // measure 27
0000
1000
0000
0000
0010
0010
0000
0010
0000
0010
0000
0100
0100
0100
0000
0001
,  // measure 28
0000
0001
0001
0000
0000
1000
0100
0000
0010
0001
0000
0001
0010
0100
0000
0010
,  // measure 29
0000
0100
1000
0000
0100
0000
1000
0000
0010
0000
0001
0000
0010
0010
0000
0100
,  // measure 30
0000
0000
0000
0000
1000
1000
1000
1000
0000
0001
0001
0001
0000
0001
0000
0010
,  // measure 31
0100
0010
0000
0100
0000
1000
1000
1000
0000
0001
0001
0001
0000
0001
0000
0000
,  // measure 32
0000
0110
0000
0000
0000
1001
0000
1001
0000
0000
0000
1010
1010
1010
0000
1010
,  // measure 33
0000
0000
0000
0101
0101
0101
0000
0101
0000
0000
0000
0022
0000
0030
0000
0020
,  // measure 34
0000
0000
0000
0033
0000
1100
0000
1100
0000
0000
0000
1000
0010
1000
0000
0010
,  // measure 35
0000
0000
0000
0001
0010
0001
0000
0010
0000
0000
0000
0101
0000
0000
2200
0000
,  // measure 36
0000
3300
0000
2000
0000
3020
0000
0000
0000
0032
0000
0000
0000
0203
0000
1300
,  // measure 37
0000
0200
0000
0310
0000
0002
0000
0000
0000
0000
0000
0000
0020
0003
1000
0030
,  // measure 38
0100
0000
0010
0000
0002
0000
0020
0003
0000
0000
0000
0000
2030
0000
3200
0000
,  // measure 39
0000
0000
0000
0320
0000
0000
0000
0230
0000
0000
0000
0000
0000
0000
0000
0300
,  // measure 40
0000
0000
0000
1000
1000
1000
0000
1000
0000
0000
0000
0001
0001
0001
0001
0001
,  // measure 41
0000
0001
0001
0000
0010
0010
0010
0010
0000
0010
0000
0100
0000
0100
0100
0100
,  // measure 42
0000
0100
0100
1000
1000
1000
1000
0000
0100
0000
0010
0000
0001
0001
0001
0000
,  // measure 43
0000
0010
0100
0100
0100
0010
0000
0100
0100
0100
0100
0000
0000
1000
0100
0000
,  // measure 44
0001
0010
0000
0001
0000
0010
0000
0000
0100
1000
0100
0010
0000
0100
0000
0000
,  // measure 45
1000
1000
1000
1000
0001
0001
0000
0001
0001
0001
0001
0001
0000
0010
0000
0000
,  // measure 46
0100
0100
0000
0010
0000
0100
0010
0000
0000
0100
0100
0000
1000
0000
0000
0000
,  // measure 47
0000
1000
0010
0001
0100
1000
0100
0001
0010
1000
0100
0010
0000
0002
0000
0000
,  // measure 48
0000
0003
0000
0000
0000
1001
0000
1001
0000
0000
0000
1000
1000
1000
0000
0010
,  // measure 49
0000
0000
0000
0001
0001
0001
0000
0100
0000
0000
0000
0020
0000
0000
0230
0000
,  // measure 50
0000
0000
0000
0000
2300
0000
0020
3000
0000
0000
0031
0000
0100
1000
0000
0200
,  // measure 51
0000
0300
0000
0001
0001
0001
0000
0020
0000
0000
0000
2030
0000
0000
0200
3000
,  // measure 52
0000
0000
0310
0000
0002
0000
0000
0000
0000
0023
0000
0000
0000
1030
0000
0100
,  // measure 53
0000
0002
0000
0013
0000
2000
0000
0000
0000
0000
0000
0000
3010
0000
0002
0000
,  // measure 54
0203
0000
2300
0000
3100
0000
0002
0000
0000
0000
0000
0000
0000
0023
0000
2030
,  // measure 55
0000
0000
0000
3200
0000
0000
0000
0302
0000
0000
0000
0000
0000
0000
0000
0003
,  // measure 56
0000
0000
0000
0000
2000
0000
0000
0000
0020
3000
0000
0000
0030
0100
0020
0000
,  // measure 57
0000
0000
0230
0000
0000
0000
0002
0300
0020
0003
0000
0000
0000
0032
0000
0023
,  // measure 58
0000
2030
0000
3100
0000
0020
0000
0000
0000
0230
0000
0000
0000
2300
0000
3020
,  // measure 59
0000
0000
0000
0032
0000
0000
0000
0103
0000
0002
0000
0000
0000
0203
0000
1300
,  // measure 60
0000
0200
0000
1300
0000
0020
0000
0000
0000
0230
0000
0000
0000
0310
0000
0200
,  // measure 61
0000
0000
0000
2300
0000
0000
0000
3002
0000
0023
0000
0000
0000
0032
0000
0103
,  // measure 62
0000
1000
0000
0100
0000
2000
0000
0000
0000
3020
0000
0000
0000
1030
0000
0002
,  // measure 63
0000
0000
0000
2003
0000
0000
0000
3001
0000
0020
0000
0000
0000
0032
0000
0103
,  // measure 64
0000
2000
0000
3000
0000
1010
0000
1010
0000
0000
0000
0001
0100
0001
0000
0100
,  // measure 65
0000
0000
0000
1000
0100
1000
0000
0200
0000
0000
0000
0320
0000
0000
0230
0000
,  // measure 66
0000
0000
0000
0300
0000
1001
0000
1001
0000
0000
0000
1000
0010
1000
0000
0020
,  // measure 67
0000
0030
0000
0001
0100
0002
0000
0203
0000
0000
0300
2000
0000
0000
3020
0000
,  // measure 68
0000
0030
0000
0002
0000
0023
0000
0000
0000
2030
0000
0000
0000
3100
0000
0010
,  // measure 69
0000
0100
0000
0010
0000
0100
0000
0020
0000
0000
0000
0000
0000
0031
0000
2000
,  // measure 70
0000
3001
0000
2000
0000
3002
0000
0023
0000
0000
0000
0000
0000
0001
0000
0000
,  // measure 71
0000
0002
0030
0000
0000
0103
0000
1000
0000
0010
0000
0000
0000
0001
0000
0010
,  // measure 72
0000
0100
0000
0020
0000
0000
0000
1030
0000
0100
0000
0010
0000
0001
0000
0010
,  // measure 73
0000
0100
0000
1000
0000
0100
0000
0010
0000
0100
0000
1000
0000
0100
0000
0010
,  // measure 74
0000
0002
0000
0023
0000
0000
0000
0032
0000
0000
0000
0003
0000
0000
0000
0000
,  // measure 75
1000
1000
0000
0000
1000
0000
0000
0000
0000
0010
0010
0010
0000
0010
0000
0000
,  // measure 76
0000
0001
0001
0000
0001
0000
0100
0100
0100
0100
0000
1000
0000
1000
0000
1000
,  // measure 77
0000
0010
0000
0001
0000
0020
0000
0000
0000
0130
0000
0010
0000
0100
0020
0000
,  // measure 78
0000
0000
0000
2000
0000
0030
0000
0000
0200
0000
0000
3000
0320
0000
0000
0000
,  // measure 79
0000
0032
0000
0003
0010
0010
0000
0100
0000
0100
0100
0100
1000
1000
0000
1000
,  // measure 80
0000
1000
1000
0000
0000
0010
0000
0010
0010
0010
0000
0001
0001
0001
0001
0001
,  // measure 81
0000
0100
0100
0000
0000
1000
1000
1000
0000
0001
0000
0001
0001
0001
0000
1000
,  // measure 82
0000
1000
0000
0000
0010
0010
0000
0010
0000
0010
0000
0100
0100
0100
0000
0100
,  // measure 83
0000
0100
0100
0000
0000
1000
1000
0000
0001
0001
0010
0001
0000
0100
0010
0000
,  // measure 84
0000
0100
1000
0000
0100
0000
0010
0000
0001
0000
0010
0000
0100
1000
0000
0100
,  // measure 85
0000
0000
0000
0000
0001
0001
0001
0001
0000
0010
0010
0010
0000
0100
0000
1000
,  // measure 86
0100
1000
0000
0000
0000
1000
0010
1000
0000
0010
1000
0010
0000
0002
0000
0000
,  // measure 87
0000
0023
0000
0000
0000
0130
0000
2000
0000
0000
3000
0010
0001
0100
0000
0100
,  // measure 88
0000
0000
0000
1000
1000
1000
0000
0010
0000
0000
0000
0002
0000
0000
0020
0003
,  // measure 89
0000
0000
0000
0030
0000
1010
0000
1010
0000
0000
0000
1000
0100
1000
0000
0100
,  // measure 90
0000
0000
0000
0001
0100
0001
0000
0100
0000
0000
0000
0002
0000
0000
0023
0000
,  // measure 91
0000
0000
2030
0000
3200
0000
0000
0000
0300
0020
0000
0000
0000
0032
0000
0013
,  // measure 92
0200
0000
0000
1300
0000
0200
0000
0320
0000
0000
0000
0000
0032
0000
0000
0013
,  // measure 93
0000
0100
2000
0000
0000
3100
0000
0020
0000
0000
0000
0000
0000
0032
0000
0023
,  // measure 94
0000
0000
0000
0032
0000
0000
0000
0203
0000
0000
0000
0000
0000
0000
0000
0000
,  // measure 95
0300
0000
0000
2000
0000
3020
0000
0000
0032
0000
0000
0000
0100
0003
0010
0000
,  // measure 96
0100
0010
0200
2300
0000
0000
3100
0020
,  // measure 97
0000
0032
0000
0023
0000
0230
0000
2300
0000
0000
0000
0000
3100
0000
0020
0000
,  // measure 98
0000
0000
0000
0032
0000
0000
0000
2000
0003
0000
0000
0000
0000
0000
0000
0000
,  // measure 99
0000
0000
0000
0000
0000
0000
0000
0000
0000
3000
0000
0000
0000
0000
0000
0000
;
