#VERSION:0.83;
#TITLE:All Star Midi Version;
#SUBTITLE:;
#ARTIST:Unknown artist;
#TITLETRANSLIT:;
#SUBTITLETRANSLIT:;
#ARTISTTRANSLIT:;
#GENRE:;
#ORIGIN:;
#CREDIT:;
#BANNER:banner.png;
#BACKGROUND:d7xjwrx-194c094e-97d1-4ac1-ade4-e52218a3ec2b.jpg;
#PREVIEWVID:;
#JACKET:;
#CDIMAGE:;
#DISCIMAGE:;
#LYRICSPATH:;
#CDTITLE:;
#MUSIC:Smesh Mouth - All Star [MIDI Version].mp3;
#OFFSET:0.000000;
#SAMPLESTART:99.971581;
#SAMPLELENGTH:12.000000;
#SELECTABLE:YES;
#BPMS:0.000=104.000;
#STOPS:;
#DELAYS:;
#WARPS:;
#TIMESIGNATURES:0.000=4=4;
#TICKCOUNTS:0.000=4;
#COMBOS:0.000=1;
#SPEEDS:0.000=1.000=0.000=0;
#SCROLLS:0.000=1.000;
#FAKES:;
#LABELS:0.000=Song Start;
#BGCHANGES:;
#KEYSOUNDS:;
#ATTACKS:
;

//---------------dance-single - ----------------
#NOTEDATA:;
#CHARTNAME:;
#STEPSTYPE:dance-single;
#DESCRIPTION:;
#CHARTSTYLE:;
#DIFFICULTY:Hard;
#METER:7;
#RADARVALUES:0.447159,0.555869,0.085318,0.730538,0.743869,587.000000,571.000000,16.000000,137.000000,0.000000,1.000000,0.000000,0.000000,0.000000,0.447159,0.555869,0.085318,0.730538,0.743869,587.000000,571.000000,16.000000,137.000000,0.000000,1.000000,0.000000,0.000000,0.000000;
#CREDIT:;
#NOTES:
// measure 0
0000
0000
2002
0000
0000
3003
0010
0000
0100
0000
0010
0000
0000
0100
0000
1000
,  // measure 1
0000
0100
0000
0020
0000
0000
0000
0031
0000
0010
0000
0100
0000
1000
0000
0200
,  // measure 2
0000
0300
0000
0010
0000
0010
0000
0001
0000
0001
0100
0000
1000
0000
0100
0000
,  // measure 3
0010
0000
0200
0000
0300
0020
0000
0000
0030
0000
1000
0010
0002
0000
0000
0003
,  // measure 4
0001
0000
0010
0100
0000
1000
0000
0100
0000
0010
0000
0002
0000
0013
0001
0000
,  // measure 5
0200
0000
0000
0000
2300
0000
0000
3010
0100
0000
0010
0000
0100
0000
1000
0000
,  // measure 6
0002
0000
0000
0000
1003
0000
0010
0200
0000
0000
0000
0000
0302
0000
0013
0200
,  // measure 7
0000
0000
0000
0320
0000
0000
0000
0000
0000
0030
0000
0000
0001
1000
0000
0000
,  // measure 8
1000
1000
0000
0100
0000
0010
0010
0010
0010
0001
0000
0001
0000
0001
0001
0000
,  // measure 9
0100
0000
0010
0010
0010
0000
1000
1000
1000
1000
1000
0000
0100
0100
0000
0010
,  // measure 10
0010
0010
0010
0000
0001
0000
0001
0001
0001
0000
0100
0010
0000
0000
1000
1000
,  // measure 11
0000
0100
0000
0010
0000
0001
0001
0001
0000
0010
0000
0100
0000
0000
1000
0100
,  // measure 12
0000
0010
0001
0000
0100
0010
0100
0010
0100
0000
1000
0100
0000
0010
0000
0001
,  // measure 13
0000
0010
0000
0100
0000
1000
0100
0010
0000
0000
0000
0000
0001
0001
0001
0001
,  // measure 14
0000
1000
1000
1000
0000
0010
0000
0000
0000
0110
0000
0000
1000
1000
1000
1000
,  // measure 15
0001
0000
0001
0000
0020
0000
0000
0000
0230
0000
0000
0300
1001
0000
1001
0000
,  // measure 16
0000
0000
1000
0010
1000
0000
0010
0000
0000
0100
0001
0100
0000
0000
0001
0000
,  // measure 17
0000
0200
0000
0000
0000
2300
0000
0000
0000
0000
0000
3110
0000
0110
0000
0000
,  // measure 18
0000
0001
0010
0001
0000
0010
0000
0000
0000
0100
0010
0100
0000
1000
0000
0000
,  // measure 19
0002
0000
0000
0000
0023
0000
0000
0030
0002
0200
0003
0000
0000
2300
0000
0000
,  // measure 20
0000
3020
0000
0032
0000
0203
0000
0002
0300
0010
0003
2000
0000
0000
0000
0000
,  // measure 21
0010
3000
0002
0000
0200
0003
0000
1300
0000
0100
0020
0000
0000
0000
0000
0000
,  // measure 22
0000
1030
0200
0000
0000
0000
0320
0000
0000
0000
0032
0000
0000
0000
0000
0000
,  // measure 23
0000
0000
0000
0003
0000
0000
1000
1000
1000
0000
1000
0000
0000
0010
0010
0010
,  // measure 24
0010
0010
0000
0010
0010
0000
0100
0100
0100
0100
0000
0001
0000
0001
0000
0001
,  // measure 25
0001
0001
0001
0001
0001
0000
1000
1000
1000
1000
1000
0010
0000
0001
0100
0010
,  // measure 26
0000
0000
0100
0100
0100
0100
0010
0000
0010
0010
1000
1000
0000
0001
0001
0000
,  // measure 27
0000
0010
0010
0100
0000
0010
0000
0000
1000
1000
1000
1000
1000
1000
0000
0000
,  // measure 28
0100
0100
0100
0100
0100
0000
0010
0010
0010
0010
0010
0010
0000
0001
0000
0000
,  // measure 29
0001
0001
0000
0001
0100
0100
0000
0000
0010
0010
0000
1000
0000
0000
0000
1000
,  // measure 30
0010
1000
0010
1000
0010
1000
0100
1000
0100
1000
0000
0002
0000
0000
0000
0000
,  // measure 31
0003
0000
0000
1001
0000
1001
0000
0000
0000
0010
0100
1000
0010
0000
0000
0000
,  // measure 32
0100
0010
0100
0000
0010
0000
0000
0000
0002
0000
0000
0023
0000
0000
0000
0030
,  // measure 33
0000
0000
0101
0000
0101
0000
0000
1000
0001
1000
0000
0001
0000
0000
0000
1000
,  // measure 34
0010
1000
0000
0010
0000
0000
0002
0000
0000
0000
0203
0000
0000
0000
0000
0000
,  // measure 35
2300
0000
3020
0000
0032
0203
0302
0023
,  // measure 36
0032
0000
0023
0000
0000
0000
0000
2030
0000
3100
0000
0010
0000
0100
0000
0010
,  // measure 37
0000
0200
0000
0000
0000
0000
0302
0000
0000
2003
0000
0000
0000
3002
0000
0000
,  // measure 38
0020
0003
0000
0000
0000
0000
0000
0000
0000
0000
0000
0000
0000
2030
0000
0000
,  // measure 39
0000
3200
0000
0000
0000
0300
0010
0002
0000
0000
0000
0023
0000
0000
0000
0130
,  // measure 40
0000
0020
0000
0000
0230
0000
1300
0000
0100
0000
0010
0000
0002
0000
0023
0000
,  // measure 41
0000
0032
0000
0000
0200
0003
2300
0000
0000
0000
0200
3000
0000
0000
0310
0000
,  // measure 42
0002
0000
0000
0000
0013
0000
1000
0200
0000
0000
0310
0200
0000
0000
0000
0000
,  // measure 43
0302
0000
0000
0013
0000
2000
0000
0000
0000
3020
0000
0000
0000
0031
0000
0200
,  // measure 44
0000
0000
0000
0302
0020
0003
0000
1030
0000
0100
0020
0000
0000
0000
0230
0000
,  // measure 45
0000
0000
1300
0000
0200
0000
0000
0302
0000
0000
0000
0000
0013
0000
2000
0000
,  // measure 46
0000
0000
0010
0000
0010
0000
0010
0000
0000
3010
0000
0010
0000
0000
0000
0001
,  // measure 47
1000
0001
0000
1000
0000
0000
0000
0010
0100
1000
0000
0010
0000
0000
2000
0000
,  // measure 48
0000
0000
3200
0000
0000
0000
0300
0000
0101
0000
0101
0000
0000
0000
0001
0010
,  // measure 49
0001
0000
0010
0000
0000
0001
0100
0001
0100
0000
0000
0000
0000
2000
0000
0000
,  // measure 50
0000
3020
0000
0000
0030
0000
2002
0000
0000
0003
0020
0000
0000
0030
3200
0000
,  // measure 51
0000
1300
0010
0000
0001
0000
0100
0000
0002
0000
0000
0000
0000
0000
0023
0000
,  // measure 52
1030
0000
0100
0000
0010
0000
0100
0000
0020
0000
0000
0000
0000
0032
0000
2003
,  // measure 53
0000
0000
3020
0000
0000
0030
0001
0010
0000
0100
0000
0000
0000
1000
0000
0100
,  // measure 54
0000
0010
0000
0002
0000
0000
0000
0013
1000
0000
0100
0000
0010
0000
0100
0000
,  // measure 55
0010
0000
0001
0000
0010
0000
1000
0000
0100
0000
0010
0000
0001
0010
0000
0100
,  // measure 56
0000
0020
0000
0000
0230
0000
0000
0000
0000
0000
0000
0000
0300
0000
0000
1000
,  // measure 57
1000
0000
0001
0000
0000
0000
0000
0010
0010
0010
0000
0100
0000
0000
0000
0100
,  // measure 58
0100
1000
0000
1000
1000
1000
1000
0000
0010
0000
0001
0000
0001
0100
0000
1000
,  // measure 59
0000
0020
0000
0000
0000
0130
0100
0010
0000
0100
0000
0020
0000
0000
0000
2030
,  // measure 60
0000
0000
0000
0200
3000
0000
0000
0302
0000
0000
0000
0000
0023
0000
0000
1030
,  // measure 61
1000
0000
0010
0000
0001
0001
0001
0001
0100
0000
0100
0000
0100
0100
0000
0000
,  // measure 62
1000
0000
1000
0010
0010
0010
0010
0010
0010
0010
0010
0001
0001
0000
0000
0100
,  // measure 63
0100
0100
0000
1000
0000
1000
1000
1000
0000
0010
0000
0010
0000
0000
0001
0001
,  // measure 64
0100
0000
0100
0000
0100
0100
0100
0000
0010
0000
0010
0010
0000
0000
1000
1000
,  // measure 65
0000
0010
1000
0000
0010
1000
0001
1000
0000
0000
0001
1000
0002
0000
0000
0103
,  // measure 66
0010
0000
0100
0000
0000
0110
0000
0020
0000
0000
0030
0000
1000
1000
1000
1000
,  // measure 67
0000
0001
0001
0001
0000
0001
0000
0000
0000
0110
0000
0000
1000
0001
1000
0000
,  // measure 68
0001
1000
0001
0000
1000
0000
0000
0000
1010
0000
0000
0000
1000
0000
0200
0000
,  // measure 69
0000
0310
0001
0000
0010
0000
0002
0000
0000
0103
1000
0010
0000
0002
0000
0000
,  // measure 70
0000
0023
0000
0000
2030
0000
0000
0000
0000
0000
3200
0000
2300
0000
0000
0000
,  // measure 71
3010
1000
0010
0000
0002
0000
0000
0000
0103
1000
0200
0000
0302
0000
0000
0020
,  // measure 72
0003
0000
0000
2030
0000
0000
0000
0000
0000
3002
0000
0000
0000
0023
0000
0000
,  // measure 73
0032
0000
0100
0003
2000
0000
0020
3000
0000
0130
0020
0000
0000
0000
0000
0000
,  // measure 74
0030
1000
0001
0000
1000
0000
0010
0000
0001
0000
0200
0000
0000
0000
0000
0320
,  // measure 75
0000
2030
0000
0000
0000
0000
3020
0000
0000
0000
0032
0000
0000
0000
0000
0000
,  // measure 76
0000
0000
0000
0000
0003
2000
0000
3002
0000
0000
0000
0023
0000
0000
0000
0130
,  // measure 77
0000
1000
0000
0100
0000
0010
0100
0000
0020
0000
0000
0000
0000
0000
1030
0000
,  // measure 78
0001
0000
1000
0000
0001
0000
1000
0020
0000
0000
0000
0000
0000
0000
0032
0000
,  // measure 79
0203
0000
0000
0302
0000
0000
0000
0023
0000
0000
0000
0000
0000
0000
0000
0000
,  // measure 80
0000
0000
0000
0030
0000
0000
0000
0000
0000
0000
0000
0000
0000
0000
0000
0000
;
