#TITLE:ANTITHESE;
#SUBTITLE:;
#ARTIST:Unknown artist;
#TITLETRANSLIT:;
#SUBTITLETRANSLIT:;
#ARTISTTRANSLIT:;
#GENRE:;
#CREDIT:;
#BANNER:banner.png;
#BACKGROUND:clowd08.jpg;
#LYRICSPATH:;
#CDTITLE:;
#MUSIC:CLØWD - ANTITHESE [OFFICIAL VIDEO].mp3;
#OFFSET:0.000000;
#SAMPLESTART:99.971581;
#SAMPLELENGTH:12.000000;
#SELECTABLE:YES;
#BPMS:0.000000=183.000000
,99.000000=144.000000
,110.000000=183.000000
,126.000000=144.000000
,137.000000=183.000000
,490.000000=144.000000
,525.000000=183.000000
;
#STOPS:
;
#BGCHANGES:;
#KEYSOUNDS:;
#ATTACKS:;

//---------------dance-single - ----------------
#NOTES:
     dance-single:
     :
     Hard:
     7:
     0.471588,0.879187,0.299723,0.707679,0.016651,793.000000,721.000000,72.000000,170.000000,0.000000,2.000000,0.471588,0.879187,0.299723,0.707679,0.016651,793.000000,721.000000,72.000000,170.000000,0.000000,2.000000:
// measure 0
0000
0000
0000
0000
,  // measure 1
0000
0000
0000
0000
,  // measure 2
0000
0000
0000
0000
,  // measure 3
0000
0000
0000
0000
,  // measure 4
0000
0000
0000
0000
,  // measure 5
0000
0000
0000
0000
,  // measure 6
0000
0000
0000
0000
,  // measure 7
0000
0000
0000
0000
,  // measure 8
1000
0000
0100
0000
0000
0010
0001
0000
,  // measure 9
0010
0100
0000
0000
0010
0000
0000
0000
,  // measure 10
1000
0000
0010
0000
0001
0100
1000
0000
,  // measure 11
0000
0100
0000
0010
0000
0002
0000
0000
,  // measure 12
0023
0000
0000
2030
0200
3000
0000
0000
,  // measure 13
0000
0310
0001
0010
2000
0000
0000
3100
,  // measure 14
0100
0020
0000
0032
0000
0000
0000
0000
,  // measure 15
0000
0003
0000
1000
0000
0001
1000
0000
,  // measure 16
0002
0000
0000
0000
,  // measure 17
0000
0023
0000
0000
0000
0230
0000
2300
,  // measure 18
0000
0000
3200
0000
0000
0310
0000
0002
,  // measure 19
0000
0023
0000
0000
2030
0000
0000
3200
,  // measure 20
0000
0000
0000
0000
0000
0000
0000
0320
,  // measure 21
0000
0000
0032
0000
0000
0023
0000
0000
,  // measure 22
0230
0000
0000
2300
0000
3200
0300
0020
,  // measure 23
0000
0000
0000
0000
0030
0001
0000
0001
,  // measure 24
0001
0000
1000
0000
1000
0000
1000
0001
,  // measure 25
0000
0010
0000
0100
1000
0100
0010
0000
,  // measure 26
0002
0003
0000
0010
0000
0100
0000
0010
,  // measure 27
0100
1000
0001
0010
0000
0000
0220
0000
,  // measure 28
0330
2002
0000
3113
0000
0000
2002
0000
,  // measure 29
0000
3003
1000
0010
0001
0200
0000
0301
,  // measure 30
0010
2000
3200
0000
,  // measure 31
0000
0000
0300
0000
0000
0001
0010
0000
,  // measure 32
0000
1000
0100
0010
0001
0000
0010
0000
,  // measure 33
0000
0100
1000
0000
0010
1000
0001
0000
,  // measure 34
0100
0000
0002
0000
0023
0000
2000
0030
,  // measure 35
0000
0200
3300
0020
0000
0000
0000
0030
,  // measure 36
0001
0010
0100
2000
0000
3100
0010
0002
,  // measure 37
0000
0013
0000
0200
0000
0000
0000
0000
,  // measure 38
0300
0000
1000
0010
0001
0100
0001
0100
,  // measure 39
0002
0000
0103
0000
1000
0000
0000
1000
,  // measure 40
0100
0010
1000
0010
0100
0001
1000
0001
,  // measure 41
1000
0000
0010
0002
0000
0000
0003
0000
,  // measure 42
0010
0000
0100
0000
0100
0010
0100
0000
,  // measure 43
1000
0000
0001
0000
1000
0001
1000
0010
,  // measure 44
1000
0010
1000
0100
1000
0100
0010
0001
,  // measure 45
0100
0002
0000
0000
0003
0000
0001
0000
,  // measure 46
0010
0000
0001
0010
0001
0010
0000
0001
,  // measure 47
0100
0000
0000
1000
0010
0001
0200
0000
,  // measure 48
0000
0300
2000
0000
3020
0000
0000
0000
,  // measure 49
0032
0000
0000
0000
0100
0003
1000
0000
,  // measure 50
0020
0032
0000
0000
,  // measure 51
0000
0000
0000
0023
0000
0000
2030
0000
,  // measure 52
0000
3200
0000
0320
0000
0000
0032
0000
,  // measure 53
0023
0000
0230
0000
0000
2300
0000
0000
,  // measure 54
3200
0000
0000
0000
,  // measure 55
0320
0000
0000
0032
0000
0000
0023
0000
,  // measure 56
0000
0230
0000
0000
2300
0000
3100
0000
,  // measure 57
0020
0000
1031
0000
1001
0000
1000
0010
,  // measure 58
0001
0100
0000
1000
0100
0000
0010
0000
,  // measure 59
0000
0001
0100
0010
1000
0000
0010
0001
,  // measure 60
0100
0000
1000
0000
0010
1000
0000
0020
,  // measure 61
0000
0032
0000
0100
0003
2000
0000
0000
,  // measure 62
0000
0000
3000
0001
0010
0100
2000
0000
,  // measure 63
3200
0000
0320
0000
0031
0020
0000
0000
,  // measure 64
0000
0000
0030
0000
0000
1001
0000
1001
,  // measure 65
0000
0000
1100
1100
0000
1000
0010
1000
,  // measure 66
0000
0001
0000
1000
0000
0002
0000
0013
,  // measure 67
0000
0000
0101
1000
0100
0000
0010
0000
,  // measure 68
0001
0010
0100
0010
0000
2000
0000
3200
,  // measure 69
0000
0000
0320
0000
0000
0030
0000
0001
,  // measure 70
0010
2000
0000
3100
0020
0000
0032
0000
,  // measure 71
0023
2030
3100
0010
,  // measure 72
0002
2003
3001
1000
,  // measure 73
0002
2000
0003
3010
2000
0000
3020
0000
,  // measure 74
0030
2000
0000
3100
2000
0000
3200
0000
,  // measure 75
0000
0300
0001
0100
0000
0002
0000
0000
,  // measure 76
0000
0000
0013
2000
3020
0000
0000
0000
,  // measure 77
0030
0100
0020
0000
0230
0000
0000
1300
,  // measure 78
0000
0001
0000
2000
0000
3002
0000
1003
,  // measure 79
0001
2000
3020
2030
,  // measure 80
3100
0000
0010
0002
0000
0020
0003
0031
,  // measure 81
0200
0000
0302
0000
0100
0003
2000
0000
,  // measure 82
3100
0000
2000
0000
0000
0000
3010
2000
,  // measure 83
0000
3002
0000
0000
0000
0000
0013
2000
,  // measure 84
0000
3020
0000
0000
0030
0100
0020
0000
,  // measure 85
0030
0200
0000
0000
1300
0000
0001
0010
,  // measure 86
0000
2000
0000
0000
0000
3020
0000
0000
,  // measure 87
0032
0000
0000
0003
0000
1000
1000
0000
,  // measure 88
1000
0000
1000
0000
1000
1000
0000
1001
,  // measure 89
0000
1000
0000
0010
1000
0000
0100
1000
,  // measure 90
0100
0001
0100
0000
0001
0000
0001
0010
,  // measure 91
0000
0000
0001
0010
0000
0001
0100
1000
,  // measure 92
0100
0000
0010
0100
0000
0010
0000
1000
,  // measure 93
0000
0001
0000
1000
0000
0001
0000
1000
,  // measure 94
0000
0001
1000
0000
0000
1000
0010
1000
,  // measure 95
0010
0000
1000
0010
1000
0010
1000
0010
1000
0010
1000
0010
1000
0010
1000
0010
,  // measure 96
1000
0010
1000
0000
0000
0000
1000
0000
0100
0000
0010
0000
0001
0000
0100
0000
,  // measure 97
0010
0100
0010
0100
0010
0100
0010
0000
,  // measure 98
1000
0000
0001
0100
1000
0010
1000
0010
,  // measure 99
1000
0100
0010
0001
1000
0100
0000
0000
,  // measure 100
0000
0001
0100
1000
0010
0001
0100
1000
,  // measure 101
0100
0001
1000
0100
0010
0001
0010
0000
,  // measure 102
0010
0100
0010
0100
0010
0000
1000
0001
,  // measure 103
0000
1000
0000
0001
0000
0000
0000
0100
,  // measure 104
1000
0010
0100
1000
0010
1000
0100
1000
,  // measure 105
0100
0000
0001
0000
0100
0000
0001
0010
,  // measure 106
0000
0002
0000
0003
0010
0000
0200
0000
,  // measure 107
0000
2300
0000
0000
0000
3020
0000
0000
,  // measure 108
0000
0032
0100
0003
2000
0000
3000
0100
,  // measure 109
0020
0000
0000
0000
0000
0032
0000
2003
,  // measure 110
3002
0000
1003
0000
0001
1000
0002
0000
,  // measure 111
2003
0000
0000
0000
3002
1003
0000
0001
,  // measure 112
0000
1000
0002
0000
2003
0000
3001
2000
,  // measure 113
0000
3002
0000
2003
0000
3002
2000
0003
,  // measure 114
3001
1000
0002
0000
1003
0000
0002
0000
,  // measure 115
0000
0003
1000
1000
0000
0010
0000
0010
,  // measure 116
0000
0100
0010
0000
0200
0000
0000
0300
,  // measure 117
0000
0000
1001
0000
1001
0000
1001
1001
,  // measure 118
0000
1001
0000
1001
0000
1001
0000
0000
,  // measure 119
0000
1001
0000
1001
0000
1001
1001
0000
,  // measure 120
1001
1001
1001
1001
,  // measure 121
0000
1001
1001
0000
1001
1001
0000
2002
,  // measure 122
0000
0000
0000
0000
3003
1000
0100
0001
,  // measure 123
0010
1000
0100
0000
0100
1000
0000
0100
,  // measure 124
0001
0010
0001
0010
0100
0001
0100
0100
,  // measure 125
1000
0000
0020
0030
0000
1000
0100
0001
,  // measure 126
0010
0100
0001
0100
0010
0100
0000
1000
,  // measure 127
0010
0001
0010
0100
1000
0010
0100
0010
,  // measure 128
0000
0100
0000
0000
1000
0001
0100
1000
,  // measure 129
0010
0100
1000
0100
1000
0100
0001
0010
,  // measure 130
0100
0020
0000
0030
0000
0002
0023
0000
,  // measure 131
0000
2030
0000
3000
0000
1000
0010
0001
,  // measure 132
0010
0100
1000
0100
0010
0001
0000
0010
,  // measure 133
0000
0100
0000
1000
0010
0001
0010
0100
,  // measure 134
0010
0001
0010
1000
0010
0100
0020
0000
,  // measure 135
0000
0030
0000
1000
0000
0001
0000
0010
,  // measure 136
1000
0010
0000
1000
0000
0100
0000
1000
,  // measure 137
0000
0100
0001
0010
0100
0010
0001
0010
,  // measure 138
1000
0100
1000
0010
0200
0000
0300
0000
,  // measure 139
0000
1000
0000
0100
0000
0010
0001
0010
,  // measure 140
0100
0010
0000
0001
0000
0010
0000
0100
,  // measure 141
1000
0100
0010
1000
0001
1000
0001
1000
,  // measure 142
0000
0010
0002
0000
0000
0103
2000
0000
,  // measure 143
0000
3000
0022
0000
0000
0000
0033
0200
,  // measure 144
0000
0000
0000
0000
0000
0302
0000
0023
,  // measure 145
0000
0000
0000
0000
,  // measure 146
0030
0000
1000
0100
0000
0010
0100
0001
,  // measure 147
0010
1000
0100
0010
0001
0100
0010
0100
,  // measure 148
0000
0010
0000
0000
1000
0001
1000
0001
,  // measure 149
1000
0001
1000
0010
1000
0000
0010
0000
,  // measure 150
2000
0000
3000
0100
0010
0001
0010
0100
,  // measure 151
0010
0001
0010
0000
0100
0010
0100
1000
,  // measure 152
0100
0010
0001
0010
0100
0010
0001
0010
,  // measure 153
0100
1000
0100
0010
0100
0020
0000
0000
,  // measure 154
0000
0031
0100
1000
0100
0010
0001
0010
,  // measure 155
0100
1000
0100
0010
0001
0000
0010
0100
,  // measure 156
0020
0000
0000
0000
0000
2030
0000
3200
,  // measure 157
0000
0320
0000
0032
,  // measure 158
0000
0000
2003
0000
0000
3002
0000
0000
,  // measure 159
0000
2003
0000
0000
0000
0000
0002
0000
,  // measure 160
0000
0000
3003
1010
,  // measure 161
1010
1010
0000
1010
0000
1100
0000
1100
,  // measure 162
0000
1100
0000
1100
0101
0000
0101
0000
,  // measure 163
0101
0101
0011
0011
,  // measure 164
0011
0000
0011
1010
0000
1010
0000
1010
,  // measure 165
0000
1010
0000
1100
0000
1100
0000
1100
,  // measure 166
0000
1100
0101
0000
0101
0000
0101
0000
,  // measure 167
0101
0000
0000
1001
1001
0000
1001
1001
,  // measure 168
0000
1001
1001
1001
1001
1001
0000
0000
,  // measure 169
1001
2002
0000
0000
0000
0000
0000
0000
,  // measure 170
0000
0000
0000
0000
,  // measure 171
0000
0000
0000
0000
,  // measure 172
0000
0000
0000
0000
0000
0000
0000
0003
,  // measure 173
0000
0000
3002
0000
2003
0000
0000
0002
,  // measure 174
3000
0000
0000
0000
,  // measure 175
0000
0000
0000
0000
,  // measure 176
0003
0000
0000
0000
;
