#TITLE:Code Lyoko;
#SUBTITLE:;
#ARTIST:Unknown artist;
#TITLETRANSLIT:;
#SUBTITLETRANSLIT:;
#ARTISTTRANSLIT:;
#GENRE:;
#CREDIT:;
#BANNER:banner.png;
#BACKGROUND:NsVMIiODHGxybXT-800x450-noPad.jpg;
#LYRICSPATH:;
#CDTITLE:;
#MUSIC:Code Lyoko Season 1 Opening.mp3;
#OFFSET:0.000000;
#SAMPLESTART:-0.028420;
#SAMPLELENGTH:12.000000;
#SELECTABLE:YES;
#BPMS:0.000000=126.999992
;
#STOPS:
;
#BGCHANGES:0.021=Code Lyoko Season 1 Opening.mp4=1.000=0=0=1=====,
99999=-nosongbg-=1.000=0=0=0 // don't automatically add -songbackground-
;
#KEYSOUNDS:;
#ATTACKS:;

//---------------dance-single - ----------------
#NOTES:
     dance-single:
     :
     Hard:
     4:
     0.419009,0.394130,0.108632,0.760423,1.184088,135.000000,130.000000,5.000000,35.000000,0.000000,0.000000,0.419009,0.394130,0.108632,0.760423,1.184088,135.000000,130.000000,5.000000,35.000000,0.000000,0.000000:
// measure 0
0000
0000
0000
0000
0000
0100
0000
1000
0000
0100
0000
0010
0000
0001
0000
0010
,  // measure 1
0000
1000
0000
0100
0000
0000
0000
0010
0000
0001
0000
0010
0000
0100
0000
1000
,  // measure 2
0000
0100
0000
0010
0000
0000
0000
0001
0000
0010
0000
0100
0000
1000
0000
0100
,  // measure 3
0000
0010
0000
0001
0000
0000
0000
0001
0000
0010
0000
0100
0000
1000
0000
0100
,  // measure 4
0000
0010
0000
0000
0000
0001
0000
0000
0010
0010
0000
0100
0000
0000
1000
0000
,  // measure 5
1000
0000
0000
0100
0000
0010
0000
0001
0001
0000
0000
0010
0000
0000
0000
0100
,  // measure 6
0000
1000
0000
1000
0000
0100
0000
0000
0010
0010
0000
0001
0000
0000
0010
0000
,  // measure 7
0000
0100
0000
0100
0000
1000
0000
0100
0100
0000
0000
0010
0000
0000
0000
0001
,  // measure 8
0000
0010
0000
0100
0000
0000
0000
1000
0000
0100
0000
0010
0000
0000
0000
0001
,  // measure 9
0000
0010
0000
0200
0000
0000
0000
1300
0000
0100
0000
0020
0000
0000
0030
0001
,  // measure 10
0000
0010
0000
0100
0000
0000
0000
1000
0000
0100
0000
0010
0000
0000
0000
0001
,  // measure 11
0000
0010
0000
0002
0000
0000
0020
0003
0000
0000
0230
0000
0000
0000
1300
0000
,  // measure 12
0100
0000
0020
0000
0000
0000
0030
0001
0000
0010
0000
0200
0000
0000
0000
1300
,  // measure 13
0000
0100
0000
0020
0000
0000
0000
0031
0000
0010
0000
0200
0000
0000
0000
0000
,  // measure 14
0000
1300
0000
0200
0000
0000
0000
0000
0000
0000
0000
0000
0000
0000
0300
0000
,  // measure 15
1001
0000
0000
2002
0000
3003
0000
2002
0000
0000
3003
2002
0000
0000
3003
0000
,  // measure 16
2002
0000
0000
0000
0000
0000
3003
0000
0000
1000
0000
0000
0100
0010
0000
0001
,  // measure 17
0000
0000
0000
0020
0000
0000
0000
0030
0000
0200
0000
0020
0300
0000
0000
0230
,  // measure 18
0000
0000
0000
0320
0000
0000
0000
0000
0030
1000
0000
0000
0001
1000
0000
0002
,  // measure 19
0000
0000
0000
0023
0000
0000
0000
0000
0000
0130
0000
0020
0000
0000
0000
0230
,  // measure 20
0000
0000
0000
0320
0000
0000
0000
0030
1000
0000
0000
0001
1000
0000
0000
0001
,  // measure 21
0000
0000
2000
0000
0000
0000
0000
3000
0000
0100
0000
0020
0000
0000
0000
0032
,  // measure 22
0000
0000
0000
0023
0000
0000
0000
0030
0000
0100
0000
0010
1000
0000
0000
0010
,  // measure 23
0000
0000
2000
0000
0000
0000
0000
0000
0000
3100
0000
0020
0000
0000
0000
0032
,  // measure 24
0000
0000
0000
0003
0000
0000
0000
0000
0000
0000
0000
0000
0000
0000
0000
0000
;
