#VERSION:0.83;
#TITLE:marlie-chang (k-darta mix);
#SUBTITLE:;
#ARTIST:Yuji kano feat. sasazuka ittukenya;
#TITLETRANSLIT:;
#SUBTITLETRANSLIT:;
#ARTISTTRANSLIT:;
#GENRE:MASALA DANCE;
#ORIGIN:;
#CREDIT:;
#BANNER:marlie-chang (k-darta mix).png;
#BACKGROUND:marlie-chang (k-darta mix)-bg.png;
#PREVIEWVID:;
#JACKET:marlie-chang (k-darta mix)-jacket.png;
#CDIMAGE:;
#DISCIMAGE:;
#LYRICSPATH:;
#CDTITLE:cdtitle.png;
#MUSIC:marlie-chang (k-darta mix).ogg;
#OFFSET:-0.050000;
#SAMPLESTART:44.020000;
#SAMPLELENGTH:15.000000;
#SELECTABLE:YES;
#DISPLAYBPM:120.000000;
#BPMS:0.000=120.054;
#STOPS:;
#DELAYS:;
#WARPS:;
#TIMESIGNATURES:0.000=4=4;
#TICKCOUNTS:0.000=4;
#COMBOS:0.000=1;
#SPEEDS:0.000=1.000=0.000=0;
#SCROLLS:0.000=1.000;
#FAKES:;
#LABELS:0.000=Song Start;
#BGCHANGES:0.000=marlie-chang (k-darta mix).avi=1.000=0=0=0=StretchNoLoop==CrossFade_Fastest==,
99999=-nosongbg-=1.000=0=0=0 // don't automatically add -songbackground-
;
#KEYSOUNDS:;
#ATTACKS:
;

//---------------dance-single - Daff_4K----------------
#NOTEDATA:;
#CHARTNAME:Daff_4K;
#STEPSTYPE:dance-single;
#DESCRIPTION:Daff_4K;
#CHARTSTYLE:;
#DIFFICULTY:Beginner;
#METER:1;
#RADARVALUES:0.082558,0.120835,0.010507,0.000000,0.000000,55.000000,54.000000,1.000000,0.000000,0.000000,0.000000,0.000000,0.000000,0.000000,0.082558,0.120835,0.010507,0.000000,0.000000,55.000000,54.000000,1.000000,0.000000,0.000000,0.000000,0.000000,0.000000,0.000000;
#CREDIT:Daff_4K;
#DISPLAYBPM:120.000000;
#NOTES:
0000
0000
0000
0000
,
0000
0000
0000
0000
,
0000
0000
0000
0000
,
0000
0000
0000
0000
,
0000
0000
0000
0000
,
0000
0000
0000
0000
,
1000
0000
0000
0000
,
0001
0000
0000
0000
,
1000
0000
0000
0000
,
0001
0000
0000
0000
,
0010
0000
0000
0000
,
0100
0000
0000
0000
,
0010
0000
0000
0000
,
0100
0000
0000
0000
,
1000
0000
0000
0000
,
0010
0000
0000
0000
,
1000
0000
0001
0000
,
1000
0000
0000
0000
,
0001
0000
0000
0000
,
0010
0000
0000
0000
,
0001
0000
1000
0000
,
0001
0000
0000
0000
,
1000
0000
0100
0000
,
0001
0000
0100
0000
,
1000
0000
0000
0000
,
0001
0000
0000
0000
,
0001
0000
0100
0000
,
1000
0000
0100
0000
,
0001
0000
0000
0000
,
1000
0000
0000
0000
,
1000
0000
0000
0000
,
0100
0000
0000
0000
,
0010
0000
0001
0000
,
0010
0000
0000
0000
,
0001
0000
0000
0000
,
0100
0000
0000
0000
,
0010
0000
1000
0000
,
0010
0000
0000
0000
,
1000
0000
0001
0000
,
1000
0000
0100
0000
,
1000
0000
0000
0000
,
0001
0000
1000
0000
,
0001
0000
1000
0000
,
0001
0000
0100
0000
,
0001
0000
0000
0000
,
1000
0000
0000
0000
,
1001
0000
0000
0000
;

//---------------dance-single - Daff_4K----------------
#NOTEDATA:;
#CHARTNAME:Daff_4K;
#STEPSTYPE:dance-single;
#DESCRIPTION:Daff_4K;
#CHARTSTYLE:;
#DIFFICULTY:Easy;
#METER:4;
#RADARVALUES:0.180127,0.241670,0.031522,0.084059,0.000000,120.000000,117.000000,3.000000,8.000000,0.000000,0.000000,0.000000,0.000000,0.000000,0.180127,0.241670,0.031522,0.084059,0.000000,120.000000,117.000000,3.000000,8.000000,0.000000,0.000000,0.000000,0.000000,0.000000;
#CREDIT:Daff_4K;
#DISPLAYBPM:120.000000;
#NOTES:
0000
0000
0000
0000
,
0000
0000
0000
0000
,
0000
0000
0000
0000
,
0000
0000
0000
0000
,
0000
0000
0000
0000
,
0000
0000
0000
0000
,
1000
0100
1000
0000
,
0001
0100
0001
0000
,
1000
0010
1000
0000
,
0200
0000
0300
0010
,
0001
0100
0001
0000
,
1000
0100
1000
0000
,
0001
0010
0001
0000
,
0200
0000
0300
0010
,
1000
0000
0001
0000
,
1000
0100
0010
0001
,
1000
0000
0001
0000
,
0200
0000
0000
0300
,
0001
0000
1000
0000
,
0001
0100
0010
1000
,
0001
0000
1000
0000
,
0200
0000
0000
0300
,
1000
0100
0001
0000
,
1000
0100
0001
0000
,
1000
0100
0001
0100
,
1000
0010
0100
0001
,
0001
0100
1000
0000
,
0001
0100
1000
0000
,
0001
0100
1000
0100
,
0001
0010
0100
1000
,
1001
0000
0001
0100
,
0010
2000
0000
3000
,
0001
1000
0100
0010
,
0200
0000
0000
0300
,
1001
0000
1000
0100
,
0010
0002
0000
0003
,
1000
0001
0100
0010
,
0200
0000
0000
0300
,
0001
0010
1000
0000
,
0001
0010
1000
0000
,
0001
0010
1000
0010
,
0001
0100
0010
0010
,
1000
0010
0001
0000
,
1000
0010
0001
0000
,
1000
0010
0001
0010
,
1000
0100
0010
0001
,
1001
0000
0000
0000
;

//---------------dance-single - Daff_4K----------------
#NOTEDATA:;
#CHARTNAME:Daff_4K;
#STEPSTYPE:dance-single;
#DESCRIPTION:Daff_4K;
#CHARTSTYLE:;
#DIFFICULTY:Medium;
#METER:6;
#RADARVALUES:0.238668,0.265837,0.010507,0.178626,0.000000,159.000000,158.000000,1.000000,17.000000,0.000000,0.000000,0.000000,0.000000,0.000000,0.238668,0.265837,0.010507,0.178626,0.000000,159.000000,158.000000,1.000000,17.000000,0.000000,0.000000,0.000000,0.000000,0.000000;
#CREDIT:Daff_4K;
#DISPLAYBPM:120.000000;
#NOTES:
0000
0000
0000
0000
,
0000
0000
0000
0000
,
0000
0000
0000
0000
,
0000
0000
0000
0000
,
0000
0000
0000
0000
,
0000
0000
0000
0000
,
2000
0000
0010
3010
,
0002
0000
0100
0103
,
2000
0000
0010
3010
,
0002
0000
0000
1003
,
0002
0000
0010
0013
,
2000
0000
0100
3100
,
0002
0000
0010
0013
,
2000
0000
0000
3001
,
1000
1000
0010
0010
,
1000
0001
1000
0100
,
0010
0000
0001
0000
0100
0000
0010
0100
,
0020
0000
2000
3030
,
0001
0001
0010
0010
,
0001
1000
0001
0100
,
0020
0000
0030
0000
1000
0000
0001
1000
,
0002
0000
2000
3003
,
1000
0000
0010
0000
1000
0010
1000
0000
,
0001
0000
0010
0000
0001
0010
0001
0000
,
1000
0100
0001
0100
,
1000
0000
0001
0000
0100
0010
0100
0000
,
0001
0000
0010
0000
0001
0010
0001
0000
,
1000
0000
0010
0000
1000
0010
1000
0000
,
0001
0100
1000
0100
,
0001
0000
1000
0000
0100
0010
0100
0000
,
1000
0010
0001
0010
,
1000
0002
0000
1003
,
0001
0010
0100
1000
,
0020
0100
0100
0130
,
0001
0010
1000
0010
,
0001
2000
0000
3001
,
1000
0010
0100
0001
,
0020
0100
0100
0130
,
1000
0000
0100
0000
1000
0100
1000
0000
,
0001
0000
0100
0000
0001
0100
0001
0000
,
1000
0010
0001
0010
,
1000
0000
0001
0000
0010
0100
0010
0000
,
0001
0000
0100
0000
0001
0100
0001
0000
,
1000
0000
0100
0000
1000
0100
1000
0000
,
0001
0010
1000
0010
,
0001
0000
1000
0000
0010
0100
0010
0000
,
1001
0000
0000
0000
;

//---------------dance-single - Daff_4K----------------
#NOTEDATA:;
#CHARTNAME:Daff_4K;
#STEPSTYPE:dance-single;
#DESCRIPTION:Daff_4K;
#CHARTSTYLE:;
#DIFFICULTY:Hard;
#METER:10;
#RADARVALUES:0.406787,0.410839,0.367759,0.241670,0.000000,271.000000,236.000000,35.000000,23.000000,0.000000,0.000000,0.000000,0.000000,0.000000,0.406787,0.410839,0.367759,0.241670,0.000000,271.000000,236.000000,35.000000,23.000000,0.000000,0.000000,0.000000,0.000000,0.000000;
#CREDIT:Daff_4K;
#DISPLAYBPM:120.000000;
#NOTES:
0000
0000
0000
0000
,
0000
0000
0000
0000
,
0000
0000
0000
0000
,
0000
0000
0000
0000
,
0000
0000
0000
0000
,
0000
0000
0000
0000
,
2100
0000
0001
0000
3010
1000
0001
0000
,
0021
0000
0100
0000
0031
0100
0010
0000
,
0210
0000
0001
0000
0310
1000
0001
0000
,
0110
0000
1001
0000
1000
0010
0100
0000
,
0102
0000
1000
0000
0013
0001
1000
0000
,
1020
0000
0100
0000
1030
0100
0010
0000
,
0210
0000
1000
0000
0310
0001
1000
0000
,
0110
0000
1001
0000
0001
0010
0100
1000
,
1002
0103
2001
3010
,
1000
0001
1000
0100
0001
0100
1000
0001
,
0200
0000
0310
0000
0100
0001
0010
0100
,
2000
0010
0100
3001
,
2001
3100
1002
0013
,
0001
1000
0001
0100
1000
0100
0001
1000
,
0200
0000
0310
0000
0001
1000
0010
0100
,
0002
0010
0100
1003
,
1020
0000
0001
0000
1030
0010
0001
0000
,
2010
0000
0100
0000
3010
1000
0100
0000
,
0001
0100
1000
0001
1000
0010
0100
0010
,
1000
0001
0010
0100
2000
0001
3001
0000
,
0021
0000
1000
0000
0031
0010
1000
0000
,
0012
0000
0100
0000
0013
0001
0100
0000
,
1000
0100
0001
1000
0001
0010
0100
0010
,
0001
1000
0010
0100
0002
1000
1003
0000
,
2001
0000
3100
1000
0001
1000
0010
0100
,
0001
0000
1000
0001
0010
0001
0100
0010
,
1000
0000
0001
1000
0100
1000
0010
0100
,
0001
0011
0110
1100
,
1002
0000
0103
0001
1000
0001
0010
0100
,
1000
0000
0001
1000
0010
1000
0100
0010
,
0001
0000
1000
0001
0100
0001
0010
0100
,
1000
1010
0110
0101
,
0011
0000
1100
0000
0010
0001
0100
0000
,
1010
0000
0101
0000
0010
1000
0100
0000
,
0001
0100
1000
0001
1000
0010
0001
0010
,
1000
0100
0010
0001
0200
0010
0310
0000
,
1010
0000
0101
0000
0010
1000
0100
0000
,
0011
0000
1100
0000
0010
0001
0100
0000
,
1000
0100
0001
1000
0001
0010
1000
0010
,
0001
0100
0010
1000
0100
0010
0001
0000
,
1001
0000
0000
0000
;

//---------------dance-single - Daff_4K----------------
#NOTEDATA:;
#CHARTNAME:Daff_4K;
#STEPSTYPE:dance-single;
#DESCRIPTION:Daff_4K;
#CHARTSTYLE:;
#DIFFICULTY:Challenge;
#METER:12;
#RADARVALUES:0.492347,0.580009,0.147104,0.525370,0.231163,328.000000,314.000000,14.000000,50.000000,0.000000,0.000000,0.000000,0.000000,0.000000,0.492347,0.580009,0.147104,0.525370,0.231163,328.000000,314.000000,14.000000,50.000000,0.000000,0.000000,0.000000,0.000000,0.000000;
#CREDIT:Daff_4K;
#DISPLAYBPM:120.000000;
#NOTES:
// measure 0
0000
0000
0000
0000
,  // measure 1
0000
0000
0000
0000
,  // measure 2
0000
0000
0000
0000
,  // measure 3
0000
0000
0000
0000
,  // measure 4
0000
0000
0000
0000
,  // measure 5
0000
0000
0000
0000
,  // measure 6
2001
0000
0000
0000
3100
0000
0010
0000
0002
0010
0000
0000
0103
0000
0000
0000
,  // measure 7
2010
0000
0000
0000
3001
0000
0010
0000
0200
0010
0000
0000
1300
0000
0000
1000
,  // measure 8
0002
0000
0000
0000
0103
0000
0010
0000
2000
0010
0000
0000
3001
0000
0000
0000
,  // measure 9
1000
0000
0001
0000
0010
0100
0000
0010
0100
0000
1000
0001
0000
0001
1000
0000
,  // measure 10
1002
0000
0000
0000
0103
0000
0010
0000
2000
0010
0000
0000
3100
0000
0000
0000
,  // measure 11
0012
0000
0000
0000
1003
0000
0010
0000
0200
0010
0000
0000
0301
0000
0000
0001
,  // measure 12
2000
0000
0000
0000
3100
0000
0010
0000
0002
0010
0000
0000
1003
0000
0000
0000
,  // measure 13
0001
0100
1000
0100
0001
0010
0100
1000
,  // measure 14
1001
0000
0000
0001
0100
0000
0010
0000
2000
0000
0000
0000
3200
0000
0000
0000
,  // measure 15
0301
0100
1000
0010
0001
0010
1000
0100
,  // measure 16
0010
0000
0000
0000
1001
0000
0000
0001
0100
0000
0010
0000
1000
0000
0001
0000
,  // measure 17
0010
0000
0100
0000
1000
0010
0000
1000
0010
0000
0100
0001
0000
0100
0001
0000
,  // measure 18
1001
0000
0000
1000
0100
0000
0010
0000
0002
0000
0000
0000
0203
0000
0000
0000
,  // measure 19
1300
0100
0001
0010
1000
0010
0001
1000
,  // measure 20
0020
0000
0000
0000
0130
0000
0000
0100
0001
0000
1000
0000
0100
0000
0010
0000
,  // measure 21
0001
0000
1000
0000
0010
0100
0000
0100
0001
1000
0000
0001
1000
0000
0001
0000
,  // measure 22
2000
0100
3002
0100
2003
0010
3001
0000
,  // measure 23
0002
0010
2003
0010
3002
0100
1003
0000
,  // measure 24
0001
1000
0001
0000
0010
0000
1000
0000
0001
0000
1000
0000
0010
0000
0001
0000
,  // measure 25
0100
1000
0100
0001
2000
0100
3001
0000
,  // measure 26
0002
0100
2003
0100
3002
0010
1003
0000
,  // measure 27
2000
0010
3002
0010
2003
0100
3001
0000
,  // measure 28
1000
0001
1000
0000
0010
0000
0001
0000
1000
0000
0001
0000
0010
0000
1000
0000
,  // measure 29
0100
0001
0100
1000
0002
0100
1003
0001
,  // measure 30
2001
0000
0000
0000
3100
0010
0001
0000
0100
0000
0100
0000
0010
0000
1000
0000
,  // measure 31
0002
0000
0000
0000
0013
0100
1000
0000
0010
0000
0100
0000
0001
0000
1000
0000
,  // measure 32
1200
0000
0000
0000
0310
0001
1000
0000
0010
0000
0010
0000
0100
0000
0001
0000
,  // measure 33
1000
1100
0100
0110
0010
0011
0001
1000
,  // measure 34
1002
0000
0000
0000
0103
0010
1000
0000
0100
0000
0100
0000
0010
0000
0001
0000
,  // measure 35
2000
0000
0000
0000
3010
0100
0001
0000
0010
0000
0100
0000
1000
0000
0001
0000
,  // measure 36
0201
0000
0000
0000
0310
1000
0001
0000
0010
0000
0010
0000
0100
0000
1000
0000
,  // measure 37
0001
1000
0001
0000
0100
0010
0100
0000
0010
1000
0000
0001
1000
0000
0001
0000
,  // measure 38
2000
0100
3002
0010
0203
0010
0301
0000
,  // measure 39
0002
0010
2003
0100
3020
0100
1030
0000
,  // measure 40
0001
1000
0001
0000
0010
0000
1000
0000
0001
0000
0100
0000
1000
0000
0001
0000
,  // measure 41
1000
0010
0001
0010
2000
0100
3001
0000
,  // measure 42
0002
0100
2003
0010
3200
0010
1300
0000
,  // measure 43
2000
0010
3002
0100
0023
0100
0031
0000
,  // measure 44
1000
0001
1000
0000
0010
0000
0001
0000
1000
0000
0100
0000
0001
0000
1000
0000
,  // measure 45
0100
1000
0100
0000
0010
0001
0010
0000
0001
1000
0001
1000
0001
1000
0001
1000
,  // measure 46
0001
0000
0000
0000
;
