#TITLE:magician's operation;
#SUBTITLE:;
#ARTIST:EZFG;
#TITLETRANSLIT:;
#SUBTITLETRANSLIT:;
#ARTISTTRANSLIT:;
#GENRE:DARK ELECTRO;
#CREDIT:;
#BANNER:magician's operation.png;
#BACKGROUND:magician's operation-bg.png;
#LYRICSPATH:;
#CDTITLE:cdtitle.png;
#MUSIC:magician's operation.ogg;
#OFFSET:-0.065000;
#SAMPLESTART:30.763000;
#SAMPLELENGTH:15.000000;
#SELECTABLE:YES;
#DISPLAYBPM:63.000000:125.000000;
#BPMS:0.000000=124.999992
,209.000000=62.499996
;
#STOPS:46.750000=0.480000,
97.750000=0.480000,
156.750000=0.480000
;
#BGCHANGES:0.000=magician's operation.avi=1.000=0=0=0=StretchNoLoop==CrossFade_Fastest==,
99999=-nosongbg-=1.000=0=0=0 // don't automatically add -songbackground-
;
#KEYSOUNDS:;
#ATTACKS:;

//---------------dance-single - Daff_4K----------------
#NOTES:
     dance-single:
     Daff_4K:
     Beginner:
     2:
     0.077816,0.115651,0.016021,0.000000,0.000000,68.000000,66.000000,2.000000,0.000000,0.000000,0.000000,0.077816,0.115651,0.016021,0.000000,0.000000,68.000000,66.000000,2.000000,0.000000,0.000000,0.000000:
0000
0000
0000
0000
,
0000
0000
0000
0000
,
0000
0000
0000
0000
,
0000
0000
0000
0000
,
0010
0000
0000
0000
,
0010
0000
0000
0000
,
0100
0000
0000
0000
,
0100
0000
0000
0000
,
0001
0000
0001
0000
,
0001
0000
0000
0000
,
1000
0000
1000
0000
,
1000
0000
0000
0000
,
0000
0000
0000
0100
,
0000
0000
0000
0001
,
0000
0000
0000
0100
,
0000
0000
0000
1000
,
0000
1000
0000
1000
,
0000
0000
0000
0001
,
0000
0001
0000
0001
,
0000
0000
0000
0100
,
0000
0100
0000
0100
,
0000
0000
0000
0010
,
0000
0010
0000
0010
,
0000
0000
0000
1001
,
0000
0000
0000
0000
,
0000
0000
1000
0000
,
0000
0000
0010
0000
,
0000
0000
0100
0000
,
0000
0000
0001
0000
,
0000
0000
0001
0000
,
0000
0000
1000
0000
,
0000
0000
1000
0000
,
0000
0000
0100
0000
,
0100
0000
0100
0000
,
0000
0000
0010
0000
,
0010
0000
0010
0000
,
0000
0000
0001
0000
,
0001
0000
0001
0000
,
0000
0000
1000
0000
,
1000
0000
0000
0000
,
0000
0010
0000
0010
,
0000
0000
0000
0000
,
0000
0100
0000
0100
,
0000
0000
0000
0000
,
0000
0001
0000
0001
,
0000
0001
0000
0000
,
0000
1000
0000
1000
,
0000
1000
0000
0000
,
0000
0100
0000
0100
,
0000
0100
0000
0000
,
0000
0010
0000
0010
,
0000
0010
0000
0000
,
0000
1001
0000
0000
,
0000
0000
0000
0000
,
0000
0001
0000
0000
,
0000
0001
0000
0000
,
0000
1000
0000
0000
,
0000
1000
0000
0100
;

//---------------dance-single - Daff_4K----------------
#NOTES:
     dance-single:
     Daff_4K:
     Easy:
     4:
     0.152198,0.209974,0.016021,0.136178,0.000000,133.000000,131.000000,2.000000,17.000000,0.000000,0.000000,0.152198,0.209974,0.016021,0.136178,0.000000,133.000000,131.000000,2.000000,17.000000,0.000000,0.000000:
0000
0000
0000
0000
,
0000
0000
0000
0000
,
0000
0000
0000
0000
,
0000
0000
0000
0000
,
2000
0000
3000
0000
,
0002
0000
0003
0000
,
0020
0000
0030
0000
,
0200
0000
0300
0000
,
1000
0000
1000
0000
,
0001
0000
0001
0000
,
0100
0000
0100
0000
,
0010
0000
0010
0000
,
1000
0100
0000
0010
,
0001
0100
0000
0001
,
1000
0100
0000
1000
,
0001
0100
0000
0010
,
0010
0100
0000
0001
,
1000
0001
0000
0010
,
0100
1000
0000
0010
,
0100
0001
0000
0010
,
0010
0100
0000
1000
,
0001
1000
0000
0010
,
0100
0001
0000
0010
,
0100
1000
0000
2002
,
0000
3003
0000
0000
,
0000
0001
0100
0001
,
0000
1000
0100
1000
,
0000
0010
0100
0001
,
1000
0100
0020
0000
,
0030
0000
0001
0000
,
0100
0000
0020
0000
,
0030
0000
1000
0000
,
0100
0000
0010
0000
,
0010
0000
0100
0000
,
0100
0000
1000
0000
,
1000
0000
0001
0000
,
0001
0000
1000
0010
,
1000
0001
0010
0001
,
1000
0000
0001
1000
,
0001
0000
0010
0000
,
0100
1000
0001
0020
,
0000
0230
0000
1300
,
0000
0001
1000
0020
,
0000
0230
0000
0301
,
0000
1000
1000
0001
,
0000
1000
0100
0001
,
0000
0100
0010
0100
,
0000
1000
1000
0010
,
0100
0001
0001
1000
,
0000
0001
0100
1000
,
0000
0100
0010
0100
,
0000
0001
0010
0100
,
1000
2002
0000
0000
,
0000
0000
0000
0000
,
3003
0002
0000
0003
,
0000
2000
0000
3000
,
0000
0010
0010
0100
,
0100
0001
1000
0200
,
0000
0300
0000
0000
;

//---------------dance-single - Daff_4K----------------
#NOTES:
     dance-single:
     Daff_4K:
     Medium:
     8:
     0.280366,0.326626,0.056073,0.144188,0.004005,245.000000,238.000000,7.000000,18.000000,0.000000,0.000000,0.280366,0.326626,0.056073,0.144188,0.004005,245.000000,238.000000,7.000000,18.000000,0.000000,0.000000:
0000
0000
0000
0000
,
0000
0000
0000
0000
,
0000
0000
0000
0000
,
0000
0000
0000
0000
,
1001
0000
0000
1000
0100
0000
0000
0010
,
0100
0000
0000
1000
0001
0000
1000
0000
,
1001
0000
0000
0001
0100
0000
0000
0010
,
0100
0000
0000
0001
1000
0000
0001
0000
,
0010
0000
0100
0010
0100
0000
1000
0000
,
0010
0000
0100
0010
0100
0000
0001
0000
,
1000
0000
0100
0010
0100
0000
1000
0000
,
0001
0000
0100
0010
0100
0000
0001
0000
,
0010
0000
0100
1000
0100
0000
1000
0000
,
0010
0000
0100
0001
0100
0000
0001
0000
,
1000
0000
0100
0100
0100
0000
0010
0000
,
0001
0000
0100
0100
0100
0000
0001
0000
,
0010
0000
0100
1000
0100
0000
1000
0001
,
1000
0000
0001
0000
0100
0000
0010
1000
,
0010
0000
1000
0001
1000
0000
0001
0000
,
0010
0000
0100
0100
0100
0000
1000
0000
,
0010
0000
0100
0001
0100
0000
0001
1000
,
0001
0000
1000
0000
0100
0000
0010
0001
,
0010
0000
0001
1000
0001
0000
1000
0000
,
0010
0100
0001
2002
,
0000
0000
0000
0000
3003
0000
0000
0000
0100
0000
0000
0100
0000
0000
0000
0000
,
1000
0010
0001
0010
,
1000
0000
0001
1000
0001
0000
0010
0000
,
1000
0010
0001
0100
,
0010
0100
0010
0000
1001
0000
0000
1000
,
0100
0000
0000
0001
0100
0000
0000
1000
,
0010
0000
0100
0000
1001
0000
0000
0001
,
0100
0000
0000
1000
0100
0000
0000
0001
,
0010
0000
0100
0000
1000
0000
0010
0100
,
0010
0000
1000
0000
0001
0000
0010
0100
,
0010
0000
0001
0000
1000
0000
0001
0100
,
0010
0000
1000
0000
0001
0000
1000
0100
,
0010
0001
1000
0010
,
0001
0010
0200
0010
,
0000
0310
1000
0100
,
0010
0001
0100
0010
,
1000
0001
1000
0020
,
0000
0200
0330
0100
,
0001
1000
0001
0020
,
0000
0200
0330
0100
,
1000
0000
0001
0000
0010
0000
0100
1000
,
0100
0000
1000
0001
1000
0000
0010
0000
,
0100
0000
0001
0010
0001
0000
1000
0010
,
1000
0000
0100
0000
0001
0100
0010
0100
,
0010
0100
1000
0000
0010
0000
0100
0001
,
0100
0000
0001
1000
0001
0000
0010
0000
,
0100
0000
1000
0010
1000
0000
0001
0010
,
0001
0000
0100
0000
0010
0000
1000
0001
,
1000
0001
2002
0000
0000
0000
0000
0000
,
0000
0000
0000
0000
,
3003
2000
3100
0002
,
0103
2000
3010
0002
,
0013
2000
3100
0002
,
0103
0020
0130
2002
,
0000
3003
0000
0000
;

//---------------dance-single - Daff_4K----------------
#NOTES:
     dance-single:
     Daff_4K:
     Hard:
     12:
     0.435997,0.443278,0.120157,0.192251,0.260339,381.000000,366.000000,15.000000,24.000000,0.000000,0.000000,0.435997,0.443278,0.120157,0.192251,0.260339,381.000000,366.000000,15.000000,24.000000,0.000000,0.000000:
// measure 0
0000
0000
0000
0000
,  // measure 1
0000
0000
0000
0000
,  // measure 2
0000
0000
0000
0000
,  // measure 3
0000
0000
0000
0000
,  // measure 4
1001
0000
0000
1000
0000
0000
0100
0000
1000
0000
0000
0001
0000
0000
0100
0000
,  // measure 5
0001
0000
0000
0010
0000
0000
0100
0000
0010
0000
0001
1000
0000
0001
1000
0000
,  // measure 6
1001
0000
0000
0001
0000
0000
0100
0000
0001
0000
0000
1000
0000
0000
0100
0000
,  // measure 7
1000
0000
0000
0010
0000
0000
0100
0000
0010
0000
1000
0001
0000
1000
0001
0000
,  // measure 8
2000
0000
0000
0010
0000
0000
3010
0000
0200
0000
0000
0001
0000
0000
0301
0000
,  // measure 9
2000
0000
0000
0100
0000
0000
3100
0000
0010
0000
0001
1000
0000
0001
1000
0000
,  // measure 10
0002
0000
0000
0010
0000
0000
0013
0000
0200
0000
0000
1000
0000
0000
1300
0000
,  // measure 11
0002
0000
0000
0100
0000
0000
0103
0000
0010
0000
1000
0001
1000
0000
0010
0000
,  // measure 12
0001
0010
1000
0100
0010
0000
0001
0010
,  // measure 13
1000
0010
0001
0100
0010
0000
1000
0001
,  // measure 14
1000
0010
0100
0100
0100
0000
0001
1000
,  // measure 15
0001
0000
0010
0000
0100
0000
1000
0000
0001
0000
0000
0000
1000
0000
0000
0100
,  // measure 16
0000
0001
0100
0010
0100
1000
0001
0100
,  // measure 17
1000
0000
0001
0010
1000
0000
0001
0010
,  // measure 18
1000
0010
0001
0100
0010
0100
0001
1000
,  // measure 19
0100
0000
0000
0000
0010
0000
0001
0000
1000
0000
0000
0000
0001
0000
0000
0100
,  // measure 20
0000
1000
0100
0010
0100
0001
1000
0100
,  // measure 21
0001
0000
1000
0010
0001
0000
1000
0010
,  // measure 22
0001
0010
1000
0100
0010
0100
1000
0001
,  // measure 23
0100
0000
0010
0000
0100
0000
0001
0000
1000
0000
0000
2002
0000
0000
0000
0000
,  // measure 24
0000
0000
0000
0000
0000
0000
0000
3003
0110
0000
0000
1001
0000
0000
0000
0100
,  // measure 25
0000
0010
0100
0000
0001
0000
1000
0000
0010
0000
0000
0000
0110
0000
0000
0100
,  // measure 26
0000
0001
1000
0000
0001
0000
0010
0000
0110
0000
0000
0000
1001
0000
0000
1000
,  // measure 27
0000
0001
0100
0000
0010
0000
1000
0000
0001
0000
0000
0000
1001
0000
0000
0000
,  // measure 28
1000
0000
0100
0000
0010
0000
0001
0000
1001
0000
0000
1000
0000
0000
0010
0000
,  // measure 29
0001
0000
0000
1000
0000
0000
0100
0000
0001
0000
0000
1000
0000
0000
0100
0000
,  // measure 30
0010
0000
0001
1000
0000
0001
1000
0000
1001
0000
0000
0001
0000
0000
0010
0000
,  // measure 31
1000
0000
0000
0001
0000
0000
0100
0000
1000
0000
0000
0001
0000
0000
0100
0000
,  // measure 32
0010
0000
1000
0001
0000
1000
0001
0000
0020
0000
0000
0100
0000
0000
0130
0000
,  // measure 33
2000
0000
0000
0010
0000
0000
3010
0000
0200
0000
0000
0001
0000
0000
0301
0000
,  // measure 34
1000
0000
0100
0010
0000
0001
1000
0000
0020
0000
0000
0100
0000
0000
0130
0000
,  // measure 35
0002
0000
0000
0010
0000
0000
0013
0000
0200
0000
0000
1000
0000
0000
1300
0000
,  // measure 36
0001
0000
0100
0010
0000
1000
0001
0000
1000
0000
0100
0000
0001
0000
0100
0000
,  // measure 37
1000
0010
0100
0001
1000
0000
1100
0000
,  // measure 38
0010
0001
1000
0000
0001
0010
1000
0010
,  // measure 39
0001
0000
1000
0001
1000
0000
0010
0000
0100
0000
0001
1000
0000
0001
1000
0000
,  // measure 40
0100
0010
0001
0100
1000
0100
0002
0010
,  // measure 41
0000
0000
1000
0000
0000
0000
0100
0000
0000
0000
0013
0000
0001
0000
0100
0010
,  // measure 42
0000
0100
0010
0000
1000
0000
0100
0000
0001
0000
0100
0000
2000
0000
0010
0000
,  // measure 43
0000
0000
0001
0000
0100
0000
0100
0000
0100
0000
3100
0000
1000
0001
1000
0001
,  // measure 44
0000
0010
0100
0000
1000
0000
0000
0100
0000
0000
0001
0000
0100
0000
1000
0000
,  // measure 45
0010
0100
0001
1000
0100
0000
0010
0001
,  // measure 46
1000
0000
0001
0100
1000
0001
1000
0100
,  // measure 47
0001
0000
1000
0000
0100
0000
0010
0000
0001
0000
0000
0100
0000
0010
0000
0100
,  // measure 48
0000
0010
1000
0000
0001
0000
0000
0100
0000
0000
1000
0000
0100
0000
0001
0000
,  // measure 49
0010
0100
1000
0001
0100
0000
0010
1000
,  // measure 50
0001
0000
1000
0100
0001
1000
0001
0100
,  // measure 51
1000
0001
0100
0010
1000
0100
0010
0001
,  // measure 52
1000
0001
0000
0200
0000
0000
0000
0000
1000
0000
0000
0000
0010
0000
0000
0000
,  // measure 53
0001
0010
1000
0010
,  // measure 54
0301
2001
3100
0120
,  // measure 55
0031
1000
0002
0000
0103
0000
0120
0000
,  // measure 56
1030
0001
2000
0000
0100
0100
0100
0000
,  // measure 57
3002
0000
0100
0100
0100
0000
0023
0000
,  // measure 58
0000
0030
0000
0000
;
