#VERSION:0.83;
#TITLE:cryout;
#SUBTITLE:;
#ARTIST:Ju_E;
#TITLETRANSLIT:;
#SUBTITLETRANSLIT:;
#ARTISTTRANSLIT:;
#GENRE:Artcore;
#ORIGIN:;
#CREDIT:;
#BANNER:cryout.png;
#BACKGROUND:cryout-bg.png;
#PREVIEWVID:;
#JACKET:cryout-jacket.png;
#CDIMAGE:;
#DISCIMAGE:;
#LYRICSPATH:;
#CDTITLE:cdtitle.png;
#MUSIC:cryout.ogg;
#OFFSET:-0.016000;
#SAMPLESTART:53.182999;
#SAMPLELENGTH:15.000000;
#SELECTABLE:YES;
#BPMS:0.000=90.000,
68.000=180.000;
#STOPS:196.000=1.666;
#DELAYS:;
#WARPS:;
#TIMESIGNATURES:0.000=4=4;
#TICKCOUNTS:0.000=4;
#COMBOS:0.000=1;
#SPEEDS:0.000=1.000=0.000=0;
#SCROLLS:0.000=1.000;
#FAKES:;
#LABELS:0.000=Song Start;
#BGCHANGES:0.000=cryout.avi=1.000=0=0=0=StretchNoLoop==CrossFade_Fastest==,
99999=-nosongbg-=1.000=0=0=0 // don't automatically add -songbackground-
;
#KEYSOUNDS:;
#ATTACKS:
;

//---------------dance-single - Daff_4K----------------
#NOTEDATA:;
#CHARTNAME:Daff_4K;
#STEPSTYPE:dance-single;
#DESCRIPTION:Daff_4K;
#CHARTSTYLE:;
#DIFFICULTY:Beginner;
#METER:2;
#RADARVALUES:0.094743,0.143328,0.055933,0.000000,0.000000,83.000000,76.000000,7.000000,0.000000,0.000000,0.000000,0.000000,0.000000,0.000000,0.094743,0.143328,0.055933,0.000000,0.000000,83.000000,76.000000,7.000000,0.000000,0.000000,0.000000,0.000000,0.000000,0.000000;
#CREDIT:Daff_4K;
#NOTES:
0000
0000
0000
0000
,
0000
0000
0000
0000
,
0000
1000
0000
0000
,
0000
0001
0000
0000
,
0000
0100
0000
0000
,
0000
0010
0000
0000
,
0000
1000
0000
0000
,
0000
0100
0000
0000
,
0000
0001
0000
0000
,
0110
0000
0000
0000
,
1001
0000
0000
0000
,
1000
0000
0000
0000
,
0001
0000
0000
0000
,
0000
0100
0000
0000
,
0000
0010
0000
0000
,
0000
1000
0000
0000
,
0000
0001
0000
0000
,
0010
0000
0000
0000
,
0000
0000
0000
0000
,
0100
0000
0000
0000
,
0000
0000
0000
0000
,
1000
0000
0000
0000
,
0000
0000
0000
0000
,
1001
0000
0000
0000
,
0000
0000
0000
0000
,
0001
0000
0000
0000
,
0100
0000
0000
0000
,
0010
0000
0010
0000
,
0010
0000
0000
0000
,
1000
0000
0000
0000
,
0001
0000
0000
0000
,
0010
0000
0010
0000
,
0010
0000
0000
0000
,
0110
0000
0000
0000
,
1001
0000
0000
0000
,
0000
1000
0000
1000
,
0000
0001
0000
0001
,
0000
0000
0000
0100
,
0000
0000
0001
0000
,
1000
0000
0000
0000
,
0000
0000
0000
0000
,
1000
0000
0000
0000
,
0100
0000
0000
0000
,
0010
0000
0010
0000
,
0010
0000
0000
0000
,
0001
0000
0000
0000
,
1000
0000
0000
0000
,
0010
0000
0010
0000
,
0010
0000
0000
0000
,
0110
0000
0000
0000
,
0001
0000
0001
0000
,
1000
0000
1000
0000
,
0000
0000
0100
0000
,
0000
1000
0000
0001
,
0000
0000
0000
1000
,
0000
0000
0000
0010
,
0000
0000
0000
0100
,
0000
0000
0000
0001
,
0000
0000
0000
1000
,
0000
0000
0000
0100
,
0000
0000
0000
0010
,
0000
0000
0000
0001
,
0000
0000
0000
1000
,
0000
0000
0000
0010
,
0000
0010
0000
0010
,
0000
0000
0000
0100
,
0000
0100
0000
0100
,
0000
0000
0000
0001
,
0000
0000
0000
1000
,
0000
0000
0000
0100
,
0000
0000
0000
0010
,
0000
0000
0000
1001
;

//---------------dance-single - Daff_4K----------------
#NOTEDATA:;
#CHARTNAME:Daff_4K;
#STEPSTYPE:dance-single;
#DESCRIPTION:Daff_4K;
#CHARTSTYLE:;
#DIFFICULTY:Easy;
#METER:5;
#RADARVALUES:0.182638,0.229325,0.055933,0.023971,0.000000,160.000000,153.000000,7.000000,3.000000,0.000000,0.000000,0.000000,0.000000,0.000000,0.182638,0.229325,0.055933,0.023971,0.000000,160.000000,153.000000,7.000000,3.000000,0.000000,0.000000,0.000000,0.000000,0.000000;
#CREDIT:Daff_4K;
#NOTES:
0000
0000
0000
0000
,
0000
0000
0000
0000
,
1000
0010
0000
1000
,
0001
0010
0000
0001
,
0100
0010
0000
1000
,
0100
0010
0000
0001
,
1000
0010
0000
0100
,
0001
0010
0000
0100
,
1000
0001
0000
0100
,
0110
0000
0000
0000
,
1000
0000
0100
0000
,
0001
0000
0100
0010
,
0000
0000
0000
0000
,
0001
1000
0000
0001
,
1000
0010
0000
0010
,
1000
0001
0000
1000
,
0001
0010
0000
0010
,
0001
0000
0000
0100
,
0000
0000
0010
0000
,
1000
0000
0000
0100
,
0000
0000
0010
0000
,
0001
0000
0000
1000
,
0000
0000
0000
0010
,
0200
0000
0000
0000
,
0000
0000
0300
0000
,
0001
0000
1000
0000
,
0001
0000
1000
0100
,
0010
0000
0100
0000
,
0010
0000
0001
1000
,
0010
0000
0100
0000
,
0010
0000
0100
0001
,
1000
0000
0100
0000
,
0001
0000
0100
0000
,
0110
0000
1001
0000
,
0001
1000
0001
1000
,
0000
1001
0000
0001
,
0000
1000
0000
0010
,
0000
0100
0000
0001
,
0000
1000
0001
0000
,
2002
0000
0000
0000
,
0000
0000
3003
0000
,
1000
0000
0001
0000
,
1000
0000
0001
0100
,
0010
0000
0100
0000
,
0010
0000
1000
0001
,
0010
0000
0100
0000
,
0010
0000
0100
1000
,
0001
0000
0100
0000
,
1000
0000
0100
0000
,
0110
0000
0000
0000
,
1001
0000
1000
0000
,
0001
0000
0010
0000
,
0100
0000
1000
0000
,
0001
1000
0000
0010
,
0000
0100
0000
0001
,
1000
0001
0000
1000
,
0000
0010
0000
1000
,
0000
0001
0000
1000
,
0000
0100
0000
0010
,
0000
0001
0000
0100
,
0000
0001
0000
1000
,
0000
0001
0000
0010
,
0000
0100
0000
1000
,
0000
0001
0000
1000
,
0010
1000
0000
0001
,
0000
1000
0000
0001
,
0010
0001
0000
1000
,
0000
0001
0000
0100
,
0000
0100
0000
0010
,
0000
0010
0000
1000
,
0000
0001
0000
0010
,
0100
0010
0100
0010
;

//---------------dance-single - Daff_4K----------------
#NOTEDATA:;
#CHARTNAME:Daff_4K;
#STEPSTYPE:dance-single;
#DESCRIPTION:Daff_4K;
#CHARTSTYLE:;
#DIFFICULTY:Medium;
#METER:7;
#RADARVALUES:0.259118,0.286157,0.039952,0.103875,0.000000,227.000000,222.000000,5.000000,13.000000,0.000000,0.000000,0.000000,0.000000,0.000000,0.259118,0.286157,0.039952,0.103875,0.000000,227.000000,222.000000,5.000000,13.000000,0.000000,0.000000,0.000000,0.000000,0.000000;
#CREDIT:Daff_4K;
#NOTES:
0000
0000
0000
0000
,
0000
0000
0000
0000
,
1000
0010
0000
1000
,
0001
0000
0010
0100
0000
0000
0010
0000
,
0001
0010
0000
0001
,
1000
0000
0010
0100
0000
0000
0010
0000
,
1000
0000
0001
0000
0000
0010
0100
0000
,
0010
0010
0001
1000
,
0001
0000
1000
0000
0000
0010
0100
0000
,
0002
0000
0000
1003
0000
0000
0000
0000
,
1000
0001
1000
0200
,
0310
0000
0000
0001
1000
0000
0001
0100
,
0000
0010
0000
0000
0000
0000
0000
0000
,
1000
0000
0010
1000
0000
0000
0100
0000
,
0010
0000
0001
0010
0000
0100
1000
0000
,
0001
0000
0010
0001
0000
0000
0100
0000
,
0010
0000
1000
0010
0000
0100
0001
0000
,
1000
0100
0000
1000
,
0001
0100
0010
1000
,
0100
0001
0000
0100
,
0010
0010
0100
1000
,
0001
0100
0000
0001
,
1000
0000
0100
0000
0010
0000
0001
2000
,
0002
0000
0000
0000
,
0000
0000
3003
0000
,
1000
0010
0100
0001
,
0000
1000
0100
0010
,
0001
0000
0000
1000
0000
0001
0000
0100
,
0000
0010
1000
0001
,
0010
0000
0000
0100
0000
0000
0010
0000
,
0000
0001
0100
0010
,
1000
0000
0000
0001
0000
0000
1000
0000
,
0000
0100
0010
0001
,
0200
0000
0000
0010
0000
0000
0310
0000
,
2000
0001
0002
0000
,
3003
0000
1001
0000
0000
1000
0000
0000
,
0100
0000
0000
0001
0000
0000
0100
0000
,
1000
0000
0010
0100
,
0000
0001
1000
0000
,
2002
0000
0000
0000
,
0000
0000
3003
0000
,
0001
0010
0100
1000
,
0000
0001
0100
0010
,
1000
0000
0000
0001
0000
1000
0000
0100
,
0000
0010
0001
1000
,
0010
0000
0000
0100
0000
0000
0010
0000
,
0000
1000
0100
0010
,
0001
0000
0000
1000
0000
0000
0001
0000
,
0000
0100
0010
1000
,
2002
0000
0000
3003
,
1001
0000
0000
0001
0000
0000
0100
0000
,
0000
1000
0000
0000
0100
0000
0001
0000
,
0000
0010
0100
0000
,
1000
0001
0000
0100
,
0000
0010
1000
0000
,
0100
0010
0100
1000
,
0010
1000
0000
0001
,
0010
0001
0000
0100
,
0010
1000
0000
0100
,
0010
0001
0000
1000
,
0001
0100
0000
0010
,
1000
0001
0000
0001
,
1000
0100
0000
0010
,
0001
1000
0000
0010
,
0100
0010
0100
0001
,
1000
2002
3003
0001
,
0010
0001
0010
0100
,
1000
0100
1000
0001
,
0100
1000
0100
0001
,
0010
1000
0010
0001
,
0100
0010
1000
0100
,
0010
0000
0001
1000
0001
1000
0000
0000
;

//---------------dance-single - Daff_4K----------------
#NOTEDATA:;
#CHARTNAME:Daff_4K;
#STEPSTYPE:dance-single;
#DESCRIPTION:Daff_4K;
#CHARTSTYLE:;
#DIFFICULTY:Hard;
#METER:11;
#RADARVALUES:0.393813,0.486466,0.047942,0.191770,0.047942,345.000000,339.000000,6.000000,24.000000,0.000000,0.000000,0.000000,0.000000,0.000000,0.393813,0.486466,0.047942,0.191770,0.047942,345.000000,339.000000,6.000000,24.000000,0.000000,0.000000,0.000000,0.000000,0.000000;
#CREDIT:Daff_4K;
#NOTES:
// measure 0
0000
0000
0000
0000
,  // measure 1
0000
0000
0000
0000
,  // measure 2
1000
0001
0010
0100
0000
0010
0001
1000
,  // measure 3
0010
0000
0000
0100
0000
0010
0000
0100
0000
0000
0010
0000
1000
0000
0001
0000
,  // measure 4
1000
0000
0000
0100
0000
0000
0001
0000
0000
0000
0100
0000
0010
0000
0100
0000
,  // measure 5
1000
0000
0000
0010
0000
0000
0001
0000
0000
0000
0010
0000
0100
0000
0010
0000
,  // measure 6
1000
0000
0001
1000
0000
0100
0010
0001
,  // measure 7
1000
0000
0001
0000
0000
0100
0000
0000
1000
0000
0000
0010
0000
0000
0001
0000
,  // measure 8
1000
0000
0010
0100
0000
0001
1000
0000
,  // measure 9
0200
0000
0000
0020
0000
0000
0330
0000
,  // measure 10
0001
0000
1000
0001
0200
0000
0320
0000
,  // measure 11
1030
0000
0001
1000
0200
0000
0310
0002
,  // measure 12
0000
1003
0000
0000
0000
0000
0000
0000
,  // measure 13
0002
0000
0000
0000
0100
0000
0103
0000
0000
0000
0001
0000
1000
0000
0100
1000
,  // measure 14
0200
0000
0010
0310
0000
0001
0100
0010
,  // measure 15
2000
0000
0000
0000
0100
0000
3100
0000
0000
0000
1000
0000
0001
0000
0100
0001
,  // measure 16
0200
0000
0010
0310
0000
1000
0001
0000
,  // measure 17
1000
0000
0100
0000
1000
0001
0000
0001
,  // measure 18
1000
0000
0010
0000
0100
0001
0000
0001
,  // measure 19
1000
0000
0001
0000
0010
0001
0000
0001
,  // measure 20
0100
0000
0010
0000
1000
0100
0000
1000
,  // measure 21
0001
0000
0100
0000
0001
1000
0000
1000
,  // measure 22
0001
0000
0010
0000
0100
1000
0000
0002
,  // measure 23
2000
0000
0000
0000
,  // measure 24
0000
0000
3003
0000
,  // measure 25
0001
0000
1000
0000
0010
0000
0100
0001
,  // measure 26
0000
0001
1000
0000
0100
0010
0100
0000
,  // measure 27
0010
0000
0001
1000
0000
0001
0000
0100
,  // measure 28
0000
0010
1000
0000
0100
0000
0010
0000
,  // measure 29
0001
0000
0100
0010
0000
0010
1000
0000
,  // measure 30
0001
0010
1000
0010
,  // measure 31
0001
0000
1000
0010
0000
0010
0100
0000
,  // measure 32
0001
0010
0100
1000
,  // measure 33
1010
0000
0000
0110
0000
0000
0101
0000
,  // measure 34
0002
0000
0000
0000
1000
0000
0000
0000
1000
0000
0000
1000
0000
0000
1003
0000
,  // measure 35
0000
0000
1002
0000
0000
0023
0000
0000
,  // measure 36
0230
0000
0000
2300
0000
0000
3001
0000
,  // measure 37
1000
0000
0010
0000
0100
0010
0100
0001
,  // measure 38
0000
0010
0100
0010
0100
1000
0000
0002
,  // measure 39
2000
0000
0000
0000
,  // measure 40
0000
0000
3003
0000
,  // measure 41
1000
0000
0001
0000
0010
0000
0100
1000
,  // measure 42
0000
1000
0001
0000
0100
0010
0100
0000
,  // measure 43
0010
0000
1000
0001
0000
1000
0000
0100
,  // measure 44
0000
0010
0001
0000
0100
0000
0010
0000
,  // measure 45
1000
0000
0100
0010
0000
0010
0001
0000
,  // measure 46
1000
0010
0001
0010
,  // measure 47
1000
0000
0001
0010
0000
0010
0100
0000
,  // measure 48
1000
0010
0100
0001
,  // measure 49
0020
0000
0000
0000
0100
0000
0000
0100
0000
0000
0130
0000
0000
0000
0000
0000
,  // measure 50
2001
0000
0000
3020
0000
0000
0230
0000
,  // measure 51
0000
0302
0000
0000
1003
0000
0001
0000
,  // measure 52
0010
0000
0100
0010
0100
1000
0000
0001
,  // measure 53
0100
0010
0100
0010
0000
1000
0001
0000
,  // measure 54
1000
0100
0001
0100
,  // measure 55
1000
0000
0001
1000
0001
0000
0010
0100
,  // measure 56
0010
0000
0001
0000
1000
0000
0010
0100
,  // measure 57
0010
0000
1000
0000
0001
0000
0010
0001
,  // measure 58
0010
0000
0100
0000
1000
0000
0010
1000
,  // measure 59
0010
0000
0100
0000
0001
0000
1000
0001
,  // measure 60
1000
0100
0010
0000
0100
0000
1000
0001
,  // measure 61
1000
0000
0010
0000
0100
0000
0001
1000
,  // measure 62
0001
0100
0010
0000
0100
0000
0001
1000
,  // measure 63
0001
0000
0010
0000
0100
0000
1000
0001
,  // measure 64
0100
0001
0010
0000
0001
0000
1000
0010
,  // measure 65
1000
0000
0000
0000
0100
0000
0000
0100
0000
0000
0010
0000
0001
0000
1000
0000
,  // measure 66
0100
1000
0010
0000
1000
0000
0001
0010
,  // measure 67
0001
0000
0010
0000
0100
0000
1000
0010
,  // measure 68
1000
0010
0100
0001
0100
0001
1000
0100
,  // measure 69
0010
0001
0010
0100
1000
0000
0001
0100
,  // measure 70
0001
0100
0010
1000
0010
1000
0001
0010
,  // measure 71
0100
1000
0100
0010
0001
1001
0000
0000
;
