#VERSION:0.83;
#TITLE:ようかい体操第一;
#SUBTITLE:;
#ARTIST:Dream5;
#TITLETRANSLIT:YOUKAI TAISOU DAIICHI;
#SUBTITLETRANSLIT:;
#ARTISTTRANSLIT:;
#GENRE:YOUKAI POP;
#ORIGIN:;
#CREDIT:;
#BANNER:YOUKAI TAISOU DAIICHI.png;
#BACKGROUND:YOUKAI TAISOU DAIICHI-bg.png;
#PREVIEWVID:;
#JACKET:YOUKAI TAISOU DAIICHI-jacket.png;
#CDIMAGE:;
#DISCIMAGE:;
#LYRICSPATH:;
#CDTITLE:cdtitle.png;
#MUSIC:YOUKAI TAISOU DAIICHI.ogg;
#OFFSET:-0.319000;
#SAMPLESTART:6.019000;
#SAMPLELENGTH:15.000000;
#SELECTABLE:YES;
#BPMS:0.000=125.000;
#STOPS:;
#DELAYS:;
#WARPS:;
#TIMESIGNATURES:0.000=4=4;
#TICKCOUNTS:0.000=4;
#COMBOS:0.000=1;
#SPEEDS:0.000=1.000=0.000=0;
#SCROLLS:0.000=1.000;
#FAKES:;
#LABELS:0.000=Song Start;
#BGCHANGES:-0.500=YOUKAI TAISOU DAIICHI.avi=1.000=0=0=0=StretchNoLoop==CrossFade_Fastest==,
99999=-nosongbg-=1.000=0=0=0 // don't automatically add -songbackground-
;
#KEYSOUNDS:;
#ATTACKS:
;

//---------------dance-single - Daff_4K----------------
#NOTEDATA:;
#CHARTNAME:Daff_4K;
#STEPSTYPE:dance-single;
#DESCRIPTION:Daff_4K;
#CHARTSTYLE:;
#DIFFICULTY:Beginner;
#METER:1;
#RADARVALUES:0.080197,0.125415,0.000000,0.000000,0.000000,47.000000,47.000000,0.000000,0.000000,0.000000,0.000000,0.000000,0.000000,0.000000,0.080197,0.125415,0.000000,0.000000,0.000000,47.000000,47.000000,0.000000,0.000000,0.000000,0.000000,0.000000,0.000000,0.000000;
#CREDIT:Daff_4K;
#NOTES:
0000
0000
0000
0000
,
0000
0000
0000
0000
,
0000
0000
0000
0000
,
1000
0000
0000
0000
,
0001
0000
0000
0000
,
1000
0000
0000
0000
,
0001
0000
0000
0000
,
1000
0000
0001
0000
,
0001
0000
0000
0000
,
1000
0000
1000
0000
,
0001
0000
0000
0000
,
1000
0000
0001
0000
,
1000
0000
0001
0000
,
1000
0000
0000
0000
,
0000
0000
0000
0000
,
0001
0000
0000
0000
,
1000
0000
0000
0000
,
0001
0000
0000
0000
,
1000
0000
0000
0000
,
0001
0000
0000
0000
,
1000
0000
0000
0000
,
0001
0000
0000
0000
,
0000
0000
0001
0000
,
0001
0000
1000
0000
,
1000
0000
0001
0000
,
0000
0000
1000
0000
,
0000
0000
1000
0000
,
0000
0000
0001
0000
,
0000
0000
0001
0000
,
0000
0000
0000
0000
,
0000
0000
0000
0000
,
1000
0000
0000
0000
,
0001
0000
0000
0000
,
1000
0000
0000
0000
,
0001
0000
0000
0000
,
1000
0000
0001
0000
,
0001
0000
0000
0000
,
1000
0000
1000
0000
,
0001
0000
0000
0000
,
1000
0000
0001
0000
,
1000
0000
0001
0000
,
1000
0000
0000
0000
,
0001
0000
0000
0000
;

//---------------dance-single - Daff_4K----------------
#NOTEDATA:;
#CHARTNAME:Daff_4K;
#STEPSTYPE:dance-single;
#DESCRIPTION:Daff_4K;
#CHARTSTYLE:;
#DIFFICULTY:Easy;
#METER:3;
#RADARVALUES:0.158688,0.207831,0.011944,0.155276,0.000000,93.000000,92.000000,1.000000,13.000000,0.000000,0.000000,0.000000,0.000000,0.000000,0.158688,0.207831,0.011944,0.155276,0.000000,93.000000,92.000000,1.000000,13.000000,0.000000,0.000000,0.000000,0.000000,0.000000;
#CREDIT:Daff_4K;
#NOTES:
0000
0000
0000
0000
,
0000
0000
0000
0000
,
0000
0000
0000
0000
,
1000
0000
0001
0000
,
0010
0010
0100
0000
,
1000
0000
0001
0000
,
0100
0100
0010
0000
,
1000
0010
1000
0000
,
0001
0010
0001
0000
,
1000
0000
0001
0000
,
0100
0000
0020
0030
,
1000
1000
0001
0001
,
0010
0010
0200
0300
,
2000
0000
3000
0000
,
0002
0000
0003
0000
,
0002
0003
0010
0000
,
2000
3000
0010
0000
,
0002
0003
0100
0000
,
2000
3000
0100
0000
,
0002
0003
0100
0010
,
2000
3000
0100
0010
,
0001
1000
0001
0000
,
0000
0000
1000
1000
,
0001
0001
0100
0000
,
0010
0000
1000
0001
,
0000
0000
1000
0000
,
0100
0000
0010
0000
,
0001
0000
0100
0100
,
0010
0000
1001
0000
,
0000
0000
0000
0000
,
0000
0000
0000
0000
,
1000
0000
0001
0000
,
0010
0010
0100
0000
,
1000
0000
0001
0000
,
0100
0100
0010
0000
,
1000
0010
1000
0000
,
0001
0010
0001
0000
,
1000
0000
0001
0000
,
0100
0000
0020
0030
,
1000
1000
0001
0001
,
0010
0010
0200
0300
,
1000
0000
0001
0000
,
0200
0000
0000
0000
,
0000
0000
0300
0000
;

//---------------dance-single - Daff_4K----------------
#NOTEDATA:;
#CHARTNAME:Daff_4K;
#STEPSTYPE:dance-single;
#DESCRIPTION:Daff_4K;
#CHARTSTYLE:;
#DIFFICULTY:Medium;
#METER:6;
#RADARVALUES:0.266187,0.311746,0.119443,0.549437,0.000000,156.000000,146.000000,10.000000,46.000000,0.000000,0.000000,0.000000,0.000000,0.000000,0.266187,0.311746,0.119443,0.549437,0.000000,156.000000,146.000000,10.000000,46.000000,0.000000,0.000000,0.000000,0.000000,0.000000;
#CREDIT:Daff_4K;
#NOTES:
0000
0000
0000
0000
,
0000
0000
0000
0000
,
0000
0000
0000
0000
,
2000
3010
0002
0013
,
1000
0000
0001
0000
0010
0100
0010
0000
,
0002
0103
2000
3100
,
0001
0000
1000
0000
0100
0010
0100
0000
,
1000
0000
0001
0000
0100
0010
0100
0000
,
0001
1000
2002
3003
,
0002
0103
2000
3100
,
0002
1003
2002
3003
,
1000
0010
1000
0000
0001
0010
0001
0000
,
0100
0010
2002
3003
,
0001
0100
1000
0100
,
0001
0010
1000
0010
,
0002
1000
0013
0000
,
2000
0001
3010
0000
,
0002
0100
1003
0000
,
2000
0100
3001
0000
,
0002
0000
0103
0000
0010
0010
0010
0000
,
2000
0000
3100
0000
0010
0010
0010
0000
,
0001
1000
0000
0001
0000
2002
0000
0000
,
0000
3003
2000
3002
,
0203
0320
1030
0100
,
0001
0010
1000
2002
,
3003
0000
0002
1000
,
0020
0033
0001
1000
,
0010
0100
0001
1000
,
0100
0010
0100
0000
2002
0000
3003
0000
,
0000
0000
0000
0000
,
0000
0000
0000
0000
,
0002
0103
2000
3100
,
0001
0000
1000
0000
0100
0010
0100
0000
,
2000
3010
0002
0013
,
1000
0000
0001
0000
0010
0100
0010
0000
,
0001
0000
1000
0000
0100
0010
0100
0000
,
1000
0001
2002
3003
,
2000
3010
0002
0013
,
2000
3001
2002
3003
,
0001
0100
0001
0000
1000
0100
1000
0000
,
0001
1000
2002
3003
,
0001
0010
0100
1000
,
2002
0000
0000
0000
,
0000
0000
3003
0000
;

//---------------dance-single - Daff_4K----------------
#NOTEDATA:;
#CHARTNAME:Daff_4K;
#STEPSTYPE:dance-single;
#DESCRIPTION:Daff_4K;
#CHARTSTYLE:;
#DIFFICULTY:Hard;
#METER:9;
#RADARVALUES:0.363448,0.441640,0.250830,0.501660,0.000000,213.000000,192.000000,21.000000,42.000000,0.000000,0.000000,0.000000,0.000000,0.000000,0.363448,0.441640,0.250830,0.501660,0.000000,213.000000,192.000000,21.000000,42.000000,0.000000,0.000000,0.000000,0.000000,0.000000;
#CREDIT:Daff_4K;
#NOTES:
0000
0000
0000
0000
,
0000
0000
0000
0000
,
0000
0000
0000
0000
,
1002
0100
2003
0100
,
3001
0100
1000
0000
1000
0100
0001
0000
,
2001
0010
3002
0010
,
1003
0010
0001
0000
0001
0010
1000
0000
,
1100
0000
0011
0000
0001
0100
0010
0000
,
1000
0100
0010
0000
2002
0000
3003
0000
,
0002
0010
2003
0010
,
3002
1000
0103
1001
,
1000
0001
0100
0010
1000
0001
0010
0100
,
1000
0010
0100
0001
1000
0000
1001
0000
,
0001
0000
0100
0000
1000
0000
0100
0001
,
1000
0000
0100
0000
0001
0000
0100
1000
,
0002
0000
0010
0000
0103
0001
1000
0000
,
0100
0010
0001
1000
0020
0000
1030
0000
,
2000
0000
0010
0000
3100
1000
0001
0000
,
0100
0010
1000
0001
0020
0000
0130
0000
,
2000
0000
3001
0100
0010
0000
1001
0000
,
0002
0000
1003
0100
0010
0000
1001
0000
,
1000
0001
0000
0110
0000
2002
0000
3003
,
0001
0001
1000
1000
0020
0000
0230
0000
,
0320
0000
2030
0000
3002
0000
1003
0100
,
0001
0100
1000
0010
0100
0000
2002
0000
,
3003
1000
0100
0010
0002
0000
0010
0000
,
0100
0100
0100
0000
2003
0000
0010
0000
,
3002
0000
0010
0000
1003
0001
0100
0010
,
1000
0100
0010
0001
2002
0000
3003
0000
,
0000
0000
0000
0000
,
0000
0000
0000
0000
,
2001
0010
3002
0010
,
1003
0100
0001
0000
0001
0100
1000
0000
,
1002
0100
2003
0100
,
3001
0010
1000
0000
1000
0010
0001
0000
,
0101
0000
1010
0000
1000
0100
0010
0000
,
0001
0100
0010
0000
2002
0000
3003
0000
,
2000
0100
3002
0100
,
2003
0001
3010
1001
,
0001
1000
0010
0100
0001
1000
0100
0010
,
0001
0100
0010
1000
0001
0000
1001
0000
,
2000
0000
3002
0000
0103
0010
1000
0000
,
2002
0000
0000
0000
,
0000
0000
3003
0000
;

//---------------dance-single - Daff_4K----------------
#NOTEDATA:;
#CHARTNAME:Daff_4K;
#STEPSTYPE:dance-single;
#DESCRIPTION:Daff_4K;
#CHARTSTYLE:;
#DIFFICULTY:Challenge;
#METER:12;
#RADARVALUES:0.523843,0.519577,0.358329,0.322496,0.161248,307.000000,277.000000,30.000000,27.000000,0.000000,0.000000,0.000000,0.000000,0.000000,0.523843,0.519577,0.358329,0.322496,0.161248,307.000000,277.000000,30.000000,27.000000,0.000000,0.000000,0.000000,0.000000,0.000000;
#CREDIT:Daff_4K;
#NOTES:
// measure 0
0000
0000
0000
0000
,  // measure 1
0000
0000
0000
0000
,  // measure 2
0000
0000
0000
0000
,  // measure 3
1001
0000
0000
1000
0010
0000
0000
0010
0001
0000
0000
0001
0010
0000
0000
0010
,  // measure 4
1000
0100
0010
0100
1000
0001
0100
0000
,  // measure 5
1001
0000
0000
0001
0010
0000
0000
0010
1000
0000
0000
1000
0010
0000
0000
0010
,  // measure 6
0001
0100
0010
0100
0001
1000
0100
0000
,  // measure 7
1001
0000
0000
1000
0100
0000
0000
0100
0001
0000
0100
0000
1000
0000
0000
1000
,  // measure 8
0001
0100
0010
1000
0100
0010
0001
0000
,  // measure 9
2001
0000
3010
0100
0002
0000
0013
0100
,  // measure 10
2000
0000
3001
1000
0010
0110
1001
0000
,  // measure 11
0001
0001
0010
0100
1000
1000
0010
0100
,  // measure 12
0001
0001
1000
1000
0100
0110
1001
0000
,  // measure 13
0011
0000
0000
0001
0100
0000
0010
0000
1000
0000
0000
1000
0100
0000
0010
0000
,  // measure 14
0001
0000
0000
0001
1000
0000
0010
0000
0100
0000
0001
0000
0010
0000
0100
0000
,  // measure 15
2100
0000
3010
0100
0001
0020
0000
1030
,  // measure 16
0010
0100
0010
0001
2000
0000
3001
0000
,  // measure 17
0102
0000
0013
0100
2000
0000
3010
0100
,  // measure 18
0010
1000
0100
0010
0002
0000
1003
0000
,  // measure 19
1010
0000
0000
1000
0001
0000
0010
0000
0100
0000
1000
0000
1001
0000
0000
0000
,  // measure 20
0011
0000
0000
0001
1000
0000
0010
0000
0100
0000
0001
0000
1001
0000
0000
0000
,  // measure 21
1000
0001
0000
0110
0000
2002
0000
3003
,  // measure 22
1000
0010
1000
0000
0001
0010
0001
0000
0200
0000
0000
0000
2300
0000
0000
0000
,  // measure 23
3020
0000
0031
0000
2001
0000
3100
0001
,  // measure 24
0100
1000
0010
0100
0001
1000
2002
0000
,  // measure 25
3003
0001
1000
0200
0001
0000
1000
0000
,  // measure 26
0010
0010
0010
0000
2300
0000
3002
0000
,  // measure 27
0203
0000
0320
0000
0031
0001
1000
1000
,  // measure 28
0100
0010
1000
0001
2002
0000
3003
0000
,  // measure 29
0110
0000
0000
0000
1001
0000
0000
0001
1000
0000
0100
0000
0010
0000
0001
0000
,  // measure 30
1000
0000
1001
0000
0001
0100
0010
1000
,  // measure 31
0001
0000
0010
0100
0010
0000
0001
0000
1000
0000
0100
0010
0100
0000
1000
0000
,  // measure 32
0001
0100
1000
0001
0010
1000
0001
0000
,  // measure 33
1000
0000
0010
0100
0010
0000
1000
0000
0001
0000
0100
0010
0100
0000
0001
0000
,  // measure 34
1000
0100
0001
1000
0010
0001
1000
0000
,  // measure 35
0001
0000
1000
0010
1000
0000
0100
0000
1000
0000
0001
0010
0001
0000
1000
0001
,  // measure 36
1000
0010
0001
0010
1000
0100
0010
0001
,  // measure 37
1000
0010
0001
0010
1000
0001
0010
1000
,  // measure 38
0010
0001
1000
0010
0100
0110
1001
0000
,  // measure 39
1000
1000
0100
0010
0001
0001
0100
0010
,  // measure 40
1000
1000
0001
0001
0010
0110
1001
0000
,  // measure 41
0011
0000
0000
0000
1100
0000
0000
1000
0001
0000
0100
0000
0010
0000
1000
0000
,  // measure 42
1002
0203
0020
0000
,  // measure 43
0000
0000
0330
0000
;
