#TITLE:四次元跳躍機関;
#SUBTITLE:;
#ARTIST:koutaq;
#TITLETRANSLIT:YOJIGEN CHOUYAKU KIKAN;
#SUBTITLETRANSLIT:;
#ARTISTTRANSLIT:;
#GENRE:WARP DEVICE;
#CREDIT:;
#BANNER:YOJIGEN CHOUYAKU KIKAN.png;
#BACKGROUND:YOJIGEN CHOUYAKU KIKAN-bg.png;
#LYRICSPATH:;
#CDTITLE:cdtitle.png;
#MUSIC:YOJIGEN CHOUYAKU KIKAN.ogg;
#OFFSET:-0.730000;
#SAMPLESTART:86.920998;
#SAMPLELENGTH:15.000000;
#SELECTABLE:YES;
#DISPLAYBPM:68.000000:135.000000;
#BPMS:0.000000=135.000000
,144.000000=67.500000
,164.000000=135.000000
;
#STOPS:144.000000=0.223000,
144.250000=0.222000,
144.500000=0.222000,
144.750000=0.222000,
145.000000=0.223000,
145.250000=0.222000,
145.500000=0.222000,
145.750000=0.222000,
146.000000=0.223000,
146.250000=0.222000,
146.500000=0.222000,
146.750000=0.222000,
147.000000=0.223000,
147.250000=0.222000,
147.500000=0.222000,
147.750000=0.222000,
164.000000=0.444000
;
#BGCHANGES:;
#KEYSOUNDS:;
#ATTACKS:;

//---------------dance-single - Daff_4K----------------
#NOTES:
     dance-single:
     Daff_4K:
     Beginner:
     3:
     0.113500,0.185119,0.055615,0.000000,0.000000,100.000000,93.000000,7.000000,0.000000,0.000000,0.000000,0.113500,0.185119,0.055615,0.000000,0.000000,100.000000,93.000000,7.000000,0.000000,0.000000,0.000000:
// measure 0
0000
0000
0000
0000
,  // measure 1
0000
0000
0000
0000
,  // measure 2
0000
0000
0000
0000
,  // measure 3
0000
0000
0000
0000
,  // measure 4
1000
0000
0000
0000
,  // measure 5
0010
0010
0010
0000
,  // measure 6
0001
0000
0000
0000
,  // measure 7
0100
0100
0100
0000
,  // measure 8
1000
0000
0000
0000
,  // measure 9
0001
0001
0001
0000
,  // measure 10
0100
0000
0000
0000
,  // measure 11
0010
0000
0000
0000
,  // measure 12
1000
0000
1000
0000
,  // measure 13
1000
0000
0000
0000
,  // measure 14
0001
0000
0001
0000
,  // measure 15
0001
0000
0000
0000
,  // measure 16
0100
0000
0100
0000
,  // measure 17
0100
0000
0000
0000
,  // measure 18
0010
0000
0010
0000
,  // measure 19
0010
0000
0000
0000
,  // measure 20
1000
0000
0100
0000
,  // measure 21
1000
0000
0000
0000
,  // measure 22
0001
0000
0010
0000
,  // measure 23
0001
0000
0000
0000
,  // measure 24
1000
0000
0010
0000
,  // measure 25
1000
0000
0000
0000
,  // measure 26
0001
0000
0100
0000
,  // measure 27
0001
0000
0000
0000
,  // measure 28
1001
0000
1000
0000
,  // measure 29
0010
0010
0010
0000
,  // measure 30
0110
0000
0100
0000
,  // measure 31
0001
0001
0001
0000
,  // measure 32
1001
0000
0001
0000
,  // measure 33
0010
0010
0010
0000
,  // measure 34
0110
0000
0100
0000
,  // measure 35
1000
1000
1000
0000
,  // measure 36
1001
0000
0000
0000
,  // measure 37
0001
0000
0001
0000
,  // measure 38
1000
0000
1000
0000
,  // measure 39
0001
0000
0001
0000
,  // measure 40
1000
0000
1000
0000
,  // measure 41
1001
0000
0000
0001
,  // measure 42
0000
0001
0000
0000
,  // measure 43
0000
0100
0000
0010
,  // measure 44
0000
0100
0000
0000
,  // measure 45
0000
1000
0000
1000
,  // measure 46
0000
1000
0000
0000
,  // measure 47
0000
0010
0000
0100
,  // measure 48
0000
0010
0000
0000
,  // measure 49
0000
0001
0000
0001
,  // measure 50
0000
0001
0000
0000
,  // measure 51
0000
0010
0000
0100
,  // measure 52
0000
0010
0000
0000
,  // measure 53
0000
1000
0000
1000
,  // measure 54
0000
1000
0000
0000
,  // measure 55
0000
0100
0000
0010
,  // measure 56
0000
0100
0000
0000
,  // measure 57
0000
0001
0000
0000
,  // measure 58
0000
1001
0000
0000
;

//---------------dance-single - Daff_4K----------------
#NOTES:
     dance-single:
     Daff_4K:
     Easy:
     5:
     0.204301,0.231399,0.063560,0.103285,0.000000,180.000000,172.000000,8.000000,13.000000,0.000000,0.000000,0.204301,0.231399,0.063560,0.103285,0.000000,180.000000,172.000000,8.000000,13.000000,0.000000,0.000000:
0000
0000
0000
0000
,
0000
0000
0000
0000
,
0000
0000
0000
0000
,
0000
0000
0000
0000
,
1000
0000
0010
0000
,
0001
0100
1000
0000
,
0001
0000
0010
0000
,
1000
0100
0001
0000
,
1000
0100
0010
0000
,
0001
0010
0100
0000
,
1000
0010
0100
0000
,
2002
0000
0000
3003
,
0001
0100
1000
0000
,
1000
0100
0001
0000
,
0001
0001
0010
0010
,
0100
0100
1000
0000
,
1000
0010
0001
0000
,
0001
0010
1000
0000
,
1000
1000
0100
0100
,
0010
0010
0001
0000
,
0001
0010
1000
0000
,
1000
0010
0001
0000
,
0001
0001
0100
0100
,
0010
0010
1000
0000
,
1000
0100
0001
0000
,
0001
0100
1000
0000
,
1000
1000
0010
0010
,
0100
0100
0001
0000
,
0002
0000
1003
0000
,
1000
0010
0110
0000
,
0200
0000
0310
0000
,
0010
1000
1001
0000
,
2000
0000
3001
0000
,
0001
0010
0110
0000
,
0200
0000
0310
0000
,
0010
0001
1001
0000
,
0110
0000
0000
0000
,
0001
0100
1000
0100
,
0001
0010
1000
0010
,
0001
0100
0010
1000
,
1000
0100
0010
0001
,
1001
1000
0010
0100
,
0001
2000
0000
3001
,
1000
0001
0010
0100
,
1000
0002
0000
1003
,
0001
1000
0100
0010
,
0001
2000
0000
3001
,
1000
0001
0100
0010
,
1000
0002
0000
1003
,
0001
1000
0100
0001
,
0100
2000
0000
3010
,
1000
0001
0100
1000
,
0100
0002
0000
0013
,
0001
1000
0010
0001
,
0010
2000
0000
3100
,
1000
0001
0010
1000
,
0010
0001
0001
0100
,
0010
1000
1000
0100
,
0010
1001
0000
0000
;

//---------------dance-single - Daff_4K----------------
#NOTES:
     dance-single:
     Daff_4K:
     Medium:
     8:
     0.275806,0.323958,0.079450,0.293966,0.015890,243.000000,233.000000,10.000000,37.000000,0.000000,0.000000,0.275806,0.323958,0.079450,0.293966,0.015890,243.000000,233.000000,10.000000,37.000000,0.000000,0.000000:
0000
0000
0000
0000
,
0000
0000
0000
0000
,
0000
0000
0000
0000
,
0000
0000
0000
0000
,
2000
0000
0010
0000
,
0001
0000
3100
1000
,
0002
0000
0010
0000
,
1000
0000
0103
0001
,
2000
0000
0001
0100
,
3002
0000
1000
0100
,
0023
0000
0100
0130
,
2002
0000
0000
3003
,
2000
0010
3001
1000
,
0002
0100
1003
0001
,
0100
0010
1000
0001
,
0010
0000
0100
0000
1000
0001
1000
0000
,
0002
0010
1003
0001
,
2000
0100
3001
1000
,
0100
0010
0001
1000
,
0010
0000
0100
0000
0001
1000
0001
0000
,
2000
0100
3001
1000
,
0200
1000
0310
0100
,
1000
0000
0001
0000
0100
0010
0100
0000
,
0001
0000
1000
0000
0100
0010
0100
0010
,
0002
0100
1003
0001
,
0200
0001
0310
0100
,
0001
0000
1000
0000
0100
0010
0100
0000
,
1000
0000
0001
0000
0100
0010
0100
0010
,
2000
3001
0202
0303
,
0100
0000
0000
0010
0000
0000
0100
0000
0002
0000
0000
0000
1003
0000
0000
0000
,
1002
0013
2200
3300
,
1000
0000
0000
0001
0000
0000
1000
0000
0200
0000
0000
0000
0310
0000
0000
0000
,
0012
1003
2200
3300
,
0100
0000
0000
0010
0000
0000
0100
0000
2000
0000
0000
0000
3001
0000
0000
0000
,
2001
3010
0202
0303
,
0001
0000
0000
1000
0000
0000
0001
0000
0200
0000
0000
0000
0310
0000
0000
0000
,
2002
0000
0000
0000
0000
0000
0000
3003
,
0001
0010
0001
0000
0010
1000
0010
0000
,
1000
0100
1000
0000
0100
0001
0100
0000
,
0001
0010
1000
0100
,
0001
0010
1000
0010
0001
0100
1000
0100
,
0001
0000
1000
0000
0001
0000
0100
0010
,
1000
0002
1000
0100
,
0013
0000
0001
0000
1000
0000
0010
0100
,
0001
2000
0010
0100
,
3001
0000
1000
0000
0001
0000
0010
0100
,
1000
0002
1000
0010
,
0103
0000
0001
0000
1000
0000
0100
0010
,
0001
2000
0100
0010
,
3001
0000
1000
0000
0001
0000
0100
0010
,
1000
0000
0001
0000
1000
0000
0100
0010
,
0001
0000
1000
0000
0010
0000
0100
0001
,
1000
0000
0010
0000
1000
0000
0001
0010
,
0100
0010
0001
0000
1000
0000
0100
0010
,
0001
0000
1000
0000
0001
0000
0100
0010
,
1000
0000
0001
0000
0010
0000
0100
1000
,
0001
0010
0001
0100
,
0010
0000
1000
0100
0010
0000
0001
0010
,
0100
1001
0000
0000
;

//---------------dance-single - Daff_4K----------------
#NOTES:
     dance-single:
     Daff_4K:
     Hard:
     11:
     0.423356,0.485937,0.182735,0.214516,0.146983,373.000000,350.000000,23.000000,27.000000,0.000000,0.000000,0.423356,0.485937,0.182735,0.214516,0.146983,373.000000,350.000000,23.000000,27.000000,0.000000,0.000000:
0000
0000
0000
0000
,
0000
0000
0000
0000
,
0000
0000
0000
0000
,
0000
0000
0000
0000
,
2000
0010
3020
0001
,
0032
0100
0103
1000
,
0002
0010
0023
1000
,
2030
0100
3100
0001
,
2000
0000
0100
0000
3001
0010
0100
0010
,
0002
0000
0100
0000
1003
0010
0100
0010
,
2000
0000
3002
0000
0013
0100
1000
0001
,
2002
0000
3003
0000
1000
0010
0100
0001
,
1000
0000
0000
0100
0000
0000
0001
0000
0000
0000
0100
0000
1000
0000
0100
0000
,
1000
0000
0000
0010
0000
0000
0001
0000
0000
0000
0010
0000
1000
0000
0010
0000
,
1000
0000
0000
0001
0000
0000
0010
0000
0100
0000
0010
0000
1000
0000
0010
0000
,
0001
0000
0001
0100
0010
1000
0100
0010
,
0001
0000
0000
0100
0000
0000
1000
0000
0000
0000
0100
0000
0001
0000
0100
0000
,
0001
0000
0000
0010
0000
0000
1000
0000
0000
0000
0010
0000
0001
0000
0010
0000
,
0001
0000
0000
1000
0000
0000
0010
0000
0100
0000
0010
0000
0001
0000
0010
0000
,
1000
0000
0000
0100
0000
0010
0000
0000
0001
0000
0100
0000
0010
0000
1000
0000
,
0001
0000
0010
0001
0000
0010
0001
0000
0000
0000
1000
0000
0001
0000
0000
0000
,
0100
0000
0010
0100
0000
0010
0100
0000
0000
0000
0001
0000
1000
0000
0000
0000
,
0001
0000
0000
0010
0000
0000
1000
0000
0010
0000
0100
0000
0010
0000
0001
0000
,
1000
0101
1010
1001
,
1000
0000
0010
1000
0000
0010
1000
0000
0000
0000
0001
0000
1000
0000
0000
0000
,
0100
0000
0010
0100
0000
0010
0100
0000
0000
0000
1000
0000
0001
0000
0000
0000
,
1000
0000
0000
0010
0000
0000
0001
0000
0010
0000
0100
0000
0010
0000
1000
0000
,
0001
0000
0010
0100
0010
0001
1000
0000
,
2002
0000
3000
0100
0103
0010
1000
0001
,
0020
0000
0000
0100
0000
0000
0130
0000
2100
0000
0000
0000
3010
0000
0000
0000
,
0202
0000
0300
1000
1003
0001
0010
0100
,
1000
0000
0000
0010
0000
0000
0001
0000
0010
0000
0100
0000
0010
0000
1000
0000
,
2002
0000
0003
0100
3100
0010
0001
1000
,
0020
0000
0000
0100
0000
0000
0130
0000
0102
0000
0000
0000
0013
0000
0000
0000
,
2200
0000
0300
0001
3001
1000
0010
0100
,
0001
0000
0000
0010
0000
0000
1000
0000
0020
0000
0000
0000
0130
0000
0000
0000
,
2002
0000
0000
0000
0000
0000
0000
3003
,
0001
0000
0100
0001
0100
0000
0000
0000
0010
0000
1000
0010
1000
0000
0001
0000
,
1000
0000
0100
1000
0100
0000
0000
0000
0010
0000
0001
0010
0001
0000
1000
0000
,
0010
0010
0100
0100
0001
0001
1000
1000
,
0100
0000
0010
0000
0001
0000
1000
0000
0010
0100
0010
0100
0001
0000
1000
0000
,
1001
0000
0001
0010
0100
0010
0001
1000
,
0001
0100
0010
0000
1001
0000
1000
0100
,
0001
0000
0100
0010
0100
1000
0001
1000
,
0010
0000
0100
0010
0100
0000
0000
0000
1001
0000
0000
0000
1000
0000
0100
0000
,
0010
0001
1000
0010
0100
0010
1000
0001
,
1000
0100
0010
0000
1001
0000
0001
0100
,
1000
0000
0100
0010
0100
0001
1000
0001
,
0010
0000
0100
0010
0100
0000
0000
0000
1001
0000
0000
0000
0001
0000
0100
0000
,
0010
1000
0001
0010
1000
0010
0001
0100
,
1000
0100
0001
0000
1010
0000
1000
0001
,
0010
0000
0100
1000
0010
0100
0010
1000
,
0001
0000
0010
0100
0010
0000
0000
0000
1001
0000
0000
0000
0001
0000
1000
0000
,
0100
0010
0100
0000
1000
0000
0010
0000
0001
0000
0010
0000
1000
0000
0100
0000
,
0001
0100
1000
0000
0011
0000
0001
1000
,
0010
0000
0100
0001
0010
0100
0010
0001
,
1000
0000
0010
0100
0010
0000
0000
0000
1001
0000
0000
0000
1100
0000
0000
0000
,
0011
0000
0000
0000
0001
1000
0001
0000
1000
0000
0010
0100
0010
0100
0010
0100
,
0010
1001
0000
0000
;
