#VERSION:0.83;
#TITLE:Undercover;
#SUBTITLE:;
#ARTIST:Hommarju;
#TITLETRANSLIT:;
#SUBTITLETRANSLIT:;
#ARTISTTRANSLIT:;
#GENRE:ELECTROPOP;
#ORIGIN:;
#CREDIT:;
#BANNER:Undercover.png;
#BACKGROUND:Undercover-bg.png;
#PREVIEWVID:;
#JACKET:Undercover-jacket.png;
#CDIMAGE:;
#DISCIMAGE:;
#LYRICSPATH:;
#CDTITLE:cdtitle.png;
#MUSIC:Undercover.ogg;
#OFFSET:-0.204000;
#SAMPLESTART:61.117001;
#SAMPLELENGTH:15.000000;
#SELECTABLE:YES;
#BPMS:0.000=130.000;
#STOPS:;
#DELAYS:;
#WARPS:;
#TIMESIGNATURES:0.000=4=4;
#TICKCOUNTS:0.000=4;
#COMBOS:0.000=1;
#SPEEDS:0.000=1.000=0.000=0;
#SCROLLS:0.000=1.000;
#FAKES:;
#LABELS:0.000=Song Start;
#BGCHANGES:;
#KEYSOUNDS:;
#ATTACKS:
;

//---------------dance-single - Daff_4K----------------
#NOTEDATA:;
#CHARTNAME:Daff_4K;
#STEPSTYPE:dance-single;
#DESCRIPTION:Daff_4K;
#CHARTSTYLE:;
#DIFFICULTY:Beginner;
#METER:2;
#RADARVALUES:0.106288,0.157699,0.000000,0.000000,0.000000,92.000000,92.000000,0.000000,0.000000,0.000000,0.000000,0.000000,0.000000,0.000000,0.106288,0.157699,0.000000,0.000000,0.000000,92.000000,92.000000,0.000000,0.000000,0.000000,0.000000,0.000000,0.000000,0.000000;
#CREDIT:Daff_4K;
#NOTES:
// measure 0
0000
0000
0000
0000
,  // measure 1
0000
0000
0000
0000
,  // measure 2
0000
0000
0000
0000
,  // measure 3
0000
0000
0000
0000
,  // measure 4
1000
0000
0000
0000
,  // measure 5
0001
0000
0000
0000
,  // measure 6
0100
0000
0000
0000
,  // measure 7
0010
0000
0000
0000
,  // measure 8
0000
0000
0000
0000
,  // measure 9
1000
0000
1000
0000
,  // measure 10
1000
0000
0000
0000
,  // measure 11
0001
0000
0001
0000
,  // measure 12
0001
0000
0000
0000
,  // measure 13
0010
0000
0100
0000
,  // measure 14
0010
0000
0000
0000
,  // measure 15
0001
0000
0001
0000
,  // measure 16
1000
0000
1000
0000
,  // measure 17
0010
0000
0000
0000
,  // measure 18
0010
0000
1000
0000
,  // measure 19
0001
0000
0000
0000
,  // measure 20
0001
0000
0001
0000
,  // measure 21
0010
0000
0000
0000
,  // measure 22
0010
0000
0001
0000
,  // measure 23
1000
0000
0000
0000
,  // measure 24
1000
0000
1000
0000
,  // measure 25
0001
0000
0000
0000
,  // measure 26
1000
0000
0000
0000
,  // measure 27
0010
0000
0000
0000
,  // measure 28
0100
0100
0100
0000
,  // measure 29
0010
0000
0000
0000
,  // measure 30
1000
0000
0000
0000
,  // measure 31
0001
0000
0000
0000
,  // measure 32
0010
0010
0010
0000
,  // measure 33
0001
0000
1000
0000
,  // measure 34
0001
0000
0000
0000
,  // measure 35
0100
0000
0010
0000
,  // measure 36
1000
0000
0000
0000
,  // measure 37
1000
0000
0001
0000
,  // measure 38
1000
0000
0000
0000
,  // measure 39
0100
0000
0000
0000
,  // measure 40
0010
0010
0010
0000
,  // measure 41
0000
0000
0000
0000
,  // measure 42
0001
0000
0001
0000
,  // measure 43
0001
0000
0000
0000
,  // measure 44
1000
0000
1000
0000
,  // measure 45
1000
0000
0000
0000
,  // measure 46
0010
0000
0100
0000
,  // measure 47
0010
0000
0000
0000
,  // measure 48
1000
0000
0001
0000
,  // measure 49
1000
0000
0000
0000
,  // measure 50
0001
0000
0000
0000
,  // measure 51
0010
0000
0000
0000
,  // measure 52
0100
0100
0100
0000
,  // measure 53
0010
0000
0000
0000
,  // measure 54
0001
0000
0000
0000
,  // measure 55
1000
0000
0000
0000
,  // measure 56
0010
0010
0010
0000
,  // measure 57
1000
0000
0001
0000
,  // measure 58
1000
0000
0000
0000
,  // measure 59
0100
0000
0010
0000
,  // measure 60
0001
0000
0000
0000
,  // measure 61
0001
0000
1000
0000
,  // measure 62
0001
0000
0000
0000
,  // measure 63
0100
0000
0000
0000
,  // measure 64
0010
0010
0010
0010
,  // measure 65
0010
0000
0000
0000
;

//---------------dance-single - Daff_4K----------------
#NOTEDATA:;
#CHARTNAME:Daff_4K;
#STEPSTYPE:dance-single;
#DESCRIPTION:Daff_4K;
#CHARTSTYLE:;
#DIFFICULTY:Easy;
#METER:5;
#RADARVALUES:0.222974,0.236549,0.032349,0.072784,0.000000,193.000000,189.000000,4.000000,9.000000,0.000000,0.000000,0.000000,0.000000,0.000000,0.222974,0.236549,0.032349,0.072784,0.000000,193.000000,189.000000,4.000000,9.000000,0.000000,0.000000,0.000000,0.000000,0.000000;
#CREDIT:Daff_4K;
#NOTES:
0000
0000
0000
0000
,
0000
0000
0000
0000
,
0000
0000
0000
0000
,
0000
0000
0000
0000
,
1000
0000
0001
0000
,
0010
0100
0010
0000
,
0001
0000
1000
0000
,
0010
0200
0000
0000
,
0000
0000
0000
0300
,
0001
0000
0010
0000
,
1000
0010
0001
0000
,
1000
0000
0010
0000
,
0001
0010
1000
0000
,
0001
0000
1000
0000
,
0100
0010
0100
0000
,
1000
0000
0001
0000
,
0100
0010
0110
0000
,
1000
0100
1000
0000
,
1000
0001
0010
0100
,
1000
0010
1000
0000
,
0001
0100
0010
1000
,
0001
0100
0001
0000
,
0001
1000
0010
0100
,
0001
0010
0001
0000
,
1000
0100
0010
0001
,
2000
0000
0010
0000
,
0010
0010
3010
0000
,
1000
0001
1000
1000
,
0001
1000
0010
0100
,
0002
0000
0010
0000
,
0010
0010
0013
0000
,
0100
1000
0010
0010
,
0100
0001
0010
0100
,
1000
1000
0001
0001
,
0100
0010
0100
0010
,
1000
1000
0001
0001
,
0010
0100
0010
0010
,
0001
0100
1000
0100
,
0001
0010
1000
0010
,
0002
0000
2003
0000
,
3010
0100
0010
0110
,
0000
0000
0000
0000
,
1000
0001
1000
0000
,
0100
0000
0010
0000
,
0001
1000
0001
0000
,
0100
0010
1000
0000
,
0100
0010
0001
0000
,
1000
0000
0001
0000
,
0100
0010
0110
0000
,
2000
0000
0100
0000
,
0100
0100
3100
0000
,
1000
0001
1000
1000
,
0001
1000
0100
0010
,
0002
0000
0100
0000
,
0100
0100
0103
0000
,
0010
1000
0100
0100
,
0010
0001
0100
0010
,
1000
1000
0100
0100
,
0001
0001
0100
1000
,
0001
0001
0100
0100
,
1000
1000
0100
0001
,
0010
0100
1000
0010
,
0100
0001
1000
0001
,
0020
0000
0230
0000
,
1300
0001
1000
0001
,
1001
0000
0000
0000
;

//---------------dance-single - Daff_4K----------------
#NOTEDATA:;
#CHARTNAME:Daff_4K;
#STEPSTYPE:dance-single;
#DESCRIPTION:Daff_4K;
#CHARTSTYLE:;
#DIFFICULTY:Medium;
#METER:8;
#RADARVALUES:0.314243,0.394248,0.266876,0.428619,0.064697,272.000000,239.000000,33.000000,53.000000,0.000000,0.000000,0.000000,0.000000,0.000000,0.314243,0.394248,0.266876,0.428619,0.064697,272.000000,239.000000,33.000000,53.000000,0.000000,0.000000,0.000000,0.000000,0.000000;
#CREDIT:Daff_4K;
#NOTES:
0000
0000
0000
0000
,
0000
0000
0000
0000
,
0000
0000
0000
0000
,
0000
0000
0000
0000
,
1000
0100
0001
0100
,
1000
0001
1001
0000
,
1000
0010
0001
0010
,
1000
0001
0010
0200
,
0000
0000
0000
0300
,
2000
3010
0002
0013
,
1000
0001
1001
0000
,
2000
3100
0002
0103
,
1000
0001
1001
0000
,
0002
0013
2000
3010
,
0001
1000
1001
0000
,
0002
0103
2000
3100
,
0001
1000
0110
1001
,
2000
3010
0002
0103
,
2000
3010
0100
1001
,
0002
0103
2000
3010
,
0002
1003
0010
1001
,
0002
0013
2000
3100
,
0002
0013
0100
1001
,
2000
3100
0002
0013
,
2000
3001
0010
1001
,
2000
0010
0010
0001
,
0002
0003
0200
3300
,
1000
0010
0100
0001
,
0010
0110
1000
1001
,
0002
0010
0010
1000
,
2000
3000
0200
0303
,
0001
0010
0100
1000
,
0110
0110
1001
1001
,
1000
0000
0100
1000
0000
0000
0001
0000
0010
0001
0000
0000
,
0200
0310
2000
3001
,
0010
0000
0100
0010
0000
0000
0001
0000
1000
0001
0000
0000
,
0200
0310
1000
1001
,
0001
0000
0100
0001
0000
0000
1000
0000
0010
1000
0000
0000
,
0200
0310
0002
1003
,
0020
0130
0002
1003
,
0100
0000
0010
0100
0000
1000
0001
0000
0000
1000
0000
0000
,
1001
0000
0000
0000
,
0001
1000
1001
0000
,
0002
0013
2000
3010
,
0001
1000
1001
0000
,
2000
3100
0002
0103
,
1000
0001
1001
0000
,
2000
3010
0002
0013
,
1000
0001
0110
1001
,
0002
0100
0100
1000
,
2000
3000
0020
0033
,
0010
0100
1000
0010
,
0100
1001
0010
1001
,
2000
0100
0100
0001
,
0002
0003
0020
3030
,
0010
0100
0001
0010
,
0110
0110
1001
1001
,
0001
0000
0010
0001
0000
0000
0100
0000
0010
0100
0000
0000
,
0002
0013
2000
3100
,
0001
0000
1000
0001
0000
0000
0010
0000
0100
0010
0000
0000
,
0002
1003
0110
1001
,
1000
0000
0010
1000
0000
0000
0100
0000
0010
0100
0000
0000
,
2000
3010
0002
0103
,
2000
3001
0200
0310
,
1000
0000
0001
0010
0000
0100
1000
0000
0000
1001
0000
0000
,
0110
0000
0000
0000
;

//---------------dance-single - Daff_4K----------------
#NOTEDATA:;
#CHARTNAME:Daff_4K;
#STEPSTYPE:dance-single;
#DESCRIPTION:Daff_4K;
#CHARTSTYLE:;
#DIFFICULTY:Hard;
#METER:11;
#RADARVALUES:0.412445,0.499381,0.396270,0.493316,0.311355,357.000000,308.000000,49.000000,61.000000,0.000000,0.000000,0.000000,0.000000,0.000000,0.412445,0.499381,0.396270,0.493316,0.311355,357.000000,308.000000,49.000000,61.000000,0.000000,0.000000,0.000000,0.000000,0.000000;
#CREDIT:Daff_4K;
#NOTES:
0000
0000
0000
0000
,
0000
0000
0000
0000
,
0000
0000
0000
0000
,
0000
0000
0000
0000
,
2000
3100
0002
0103
,
1000
0001
2002
3003
,
2000
3010
0002
0013
,
2000
0002
0000
0000
,
0000
0000
0000
3003
,
1020
0031
2010
3001
,
0011
0000
0010
0100
0000
0100
2000
0000
0000
3010
0000
0000
,
0102
0013
2100
3001
,
0101
0000
0100
0010
0000
0010
2000
0000
0000
3001
0000
0000
,
0021
1030
0012
1003
,
1010
0000
0010
0100
0000
0100
0002
0000
0000
0013
0000
0000
,
2100
3010
0102
1003
,
0110
1001
0110
1001
,
1000
0000
0010
0100
0000
0010
2000
0000
0000
3001
0000
0000
,
1000
0000
0100
0010
0000
0010
0001
0000
1000
0001
0000
0000
,
0100
0000
0010
1000
0000
0001
2000
0000
0000
3100
0000
0000
,
0010
0000
0001
1000
0000
1000
0010
0000
0100
0001
0000
1000
,
0001
0000
0010
0100
0000
0010
0002
0000
0000
1003
0000
0000
,
0001
0000
0100
0010
0000
0010
1000
0000
0001
1000
0000
0000
,
0100
0000
0010
0001
0000
1000
0002
0000
0000
0103
0000
0000
,
0010
0000
1000
0001
0000
0001
0010
0000
0100
1000
0000
0001
,
2000
0010
0001
3100
,
0020
1000
0100
0031
,
2000
3010
0002
0103
,
1001
0110
1001
0110
,
0002
0010
1000
0103
,
0020
0001
0100
1030
,
0100
0000
0010
0100
0000
1000
0002
0000
0000
1003
0000
0000
,
1010
0101
0011
1100
,
1000
0000
0010
1000
0000
0001
0010
0000
0001
0100
0000
0010
,
2000
0100
3002
0010
,
1003
0000
0010
0100
0000
0010
1000
0000
0001
0010
0000
0100
,
2000
0000
0000
0001
0000
0000
3020
0000
0000
0130
0000
0100
,
0001
0000
0010
0001
0000
1000
0010
0000
1000
0100
0000
0010
,
0002
0100
2003
0010
,
3002
0010
2003
0100
,
3001
0000
1000
0010
0000
0001
0010
0000
0000
0110
0000
0000
,
0000
0000
0000
0000
,
1001
0000
0001
0010
0000
0010
0200
0000
0000
1300
0000
0000
,
1002
0013
2100
3001
,
1010
0000
0010
0100
0000
0100
0002
0000
0000
1003
0000
0000
,
1200
0301
0120
0031
,
1001
0000
1000
0010
0000
0010
0200
0000
0000
0301
0000
0000
,
2001
3010
0102
1003
,
0110
1001
0110
1001
,
2000
0100
0001
3010
,
0200
1000
0010
0301
,
2000
3100
0002
0013
,
1100
0011
0110
1001
,
0002
0100
1000
0013
,
0200
0001
0010
1300
,
0100
0000
0010
0100
0000
1000
0002
0000
0000
1003
0000
0000
,
1010
0101
0011
1100
,
1000
0010
1000
0000
0001
0010
0001
1000
0000
0010
0100
0010
,
2000
0100
3002
0010
,
0103
0010
0100
0000
0001
1000
0001
0010
0000
0100
1000
0001
,
0200
0000
0000
1000
0000
0000
0310
0000
0000
1001
0000
1000
,
0001
0010
0001
0000
1000
0010
1000
0001
0000
0010
0100
0010
,
0002
0100
2003
0010
,
3200
0001
0320
1000
,
0031
0000
0100
1000
0000
0100
0001
0000
0000
0110
0000
0000
,
1001
0000
0000
0000
;

//---------------dance-single - Daff_4K -Undercover Love-----------------
#NOTEDATA:;
#CHARTNAME:Daff_4K -Undercover Love-;
#STEPSTYPE:dance-single;
#DESCRIPTION:Daff_4K -Undercover Love-;
#CHARTSTYLE:;
#DIFFICULTY:Challenge;
#METER:13;
#RADARVALUES:0.524509,0.551948,0.590362,0.323486,0.663146,454.000000,381.000000,73.000000,40.000000,0.000000,0.000000,0.000000,0.000000,0.000000,0.524509,0.551948,0.590362,0.323486,0.663146,454.000000,381.000000,73.000000,40.000000,0.000000,0.000000,0.000000,0.000000,0.000000;
#CREDIT:Daff_4K -Undercover Love-;
#NOTES:
0000
0000
0000
0000
,
0000
0000
0000
0000
,
0000
0000
0000
0000
,
0000
0000
0000
0000
,
2001
3100
1002
0103
,
1001
0110
2002
3003
,
2001
3010
1002
0013
,
0001
1000
0001
1000
0001
1000
0020
0000
0000
0200
0000
0000
,
0000
0000
0000
0330
,
2001
3100
0021
0130
,
1001
0000
1000
0010
0000
0010
0100
0000
0100
0001
1000
0001
,
0020
0130
2001
3010
,
0101
0000
0001
1000
0000
1000
0100
0000
0010
0100
0000
1000
,
0002
0103
1020
0130
,
1001
0000
0001
0010
0000
0010
0100
0000
0100
1000
0001
1000
,
0020
0130
1002
0013
,
1001
0110
2002
3003
,
1001
0000
1000
0100
0000
0100
0002
0000
0103
0000
0000
0110
,
0000
0000
1001
0000
0000
1000
0001
0000
0001
0100
0010
0100
,
0010
0000
0010
1000
0000
1000
0002
0000
0013
0000
0000
1100
,
0000
0000
0011
0000
0000
0001
1000
0001
0100
0010
0000
1000
,
0001
0000
0001
0100
0000
0100
2000
0000
3100
0000
0000
0110
,
0000
0000
1001
0000
0000
0001
1000
0000
1000
0100
0010
0100
,
0010
0000
0010
0001
0000
0001
2000
0000
3010
0000
0000
0101
,
0000
0000
1010
0000
0000
1000
0001
1000
0100
0010
0100
0010
,
0002
0100
1000
0013
,
1100
0011
1100
1001
,
0201
1000
0010
0301
,
0110
0000
0000
1001
0000
1000
0100
0000
0010
0001
0000
0001
,
2000
0100
0001
3010
,
0101
1010
0101
1001
,
1000
0000
0010
0100
0000
0010
0001
0000
0000
0110
0000
0000
,
1001
1100
0011
1001
,
1000
0010
1000
0000
0001
1000
0001
0010
0001
0000
1000
0001
,
1000
0000
0010
0100
0000
0010
0001
0000
0010
0100
0000
0010
,
1000
0100
1000
0000
0001
1000
0001
0100
0001
0000
1000
0001
,
1000
0000
0100
0010
0000
0100
1000
0000
1000
0010
0000
0100
,
0001
0010
0001
0000
1000
0001
1000
0010
1000
0000
0001
1000
,
0001
0000
0010
0100
0000
0010
1000
0000
0010
0100
0000
0010
,
0002
0000
0000
0103
0010
0100
2000
0000
0000
3100
0010
0100
,
0001
0000
0001
1000
0000
1000
0100
0000
0000
0110
0000
0000
,
1001
0000
0000
0000
,
1001
0000
0001
0100
0000
0100
0010
0000
0010
1000
0001
1000
,
0200
0301
2100
3001
,
0101
0000
0100
0010
0000
0010
1000
0000
1000
0100
0000
0010
,
0002
0103
2010
3100
,
1001
0000
1000
0100
0000
0100
0010
0000
0010
0001
1000
0001
,
0200
1300
0102
1003
,
0110
1001
0220
0330
,
2001
0100
0010
3001
,
1100
0101
0011
1010
,
1002
0010
0100
1003
,
0101
0000
0000
1010
0000
1000
0100
0000
0100
0010
0000
0010
,
0002
0100
0010
1003
,
0101
1100
1010
0011
,
1001
0000
1000
0010
0000
0100
0010
0000
0001
0010
0000
0000
,
0110
1001
0110
1001
,
1000
0100
0010
0100
1000
0001
1000
0010
0100
0010
1000
0001
,
0010
0000
0010
1000
0000
1000
0100
0000
0100
0001
0000
0001
,
1000
0100
0010
0100
1000
0001
1000
0010
0100
0001
0010
0100
,
1000
0000
1000
0001
0000
0001
0100
0000
0010
1000
0000
1000
,
0001
0100
0010
0100
0001
1000
0001
0010
0100
0010
0001
1000
,
0010
0000
0010
0001
0000
0001
0100
0000
0100
1000
0000
1000
,
0002
0000
0000
0103
0010
0100
2000
0000
0000
3100
0010
0100
,
0001
0000
0001
1000
0000
1000
0100
0000
0000
0110
0000
0000
,
1001
0000
0000
0000
;
