#TITLE:月に叢雲華に風;
#SUBTITLE:;
#ARTIST:幽閉サテライト feat. senya;
#TITLETRANSLIT:TSUKI NI MURAKUMO HANA NI KAZE;
#SUBTITLETRANSLIT:;
#ARTISTTRANSLIT:Yuuhei Satellite feat. senya;
#GENRE:J-POP;
#CREDIT:;
#BANNER:Tsuki ni Murakumo Hana ni Kaze.png;
#BACKGROUND:Tsuki ni Murakumo Hana ni Kaze-bg.png;
#LYRICSPATH:;
#CDTITLE:cdtitle.png;
#MUSIC:Tsuki ni Murakumo Hana ni Kaze.ogg;
#OFFSET:-0.204000;
#SAMPLESTART:62.308998;
#SAMPLELENGTH:15.000000;
#SELECTABLE:YES;
#BPMS:0.000000=160.000000
;
#STOPS:
;
#BGCHANGES:0.000=TSUKI NI MURAKUMO HANA NI KAZE.avi=1.000=0=0=0=StretchNoLoop==CrossFade_Fastest==,
99999=-nosongbg-=1.000=0=0=0 // don't automatically add -songbackground-
;
#KEYSOUNDS:;
#ATTACKS:;

//---------------dance-single - Daff_4K----------------
#NOTES:
     dance-single:
     Daff_4K:
     Beginner:
     1:
     0.071094,0.127401,0.029860,0.000000,0.000000,50.000000,47.000000,3.000000,0.000000,0.000000,0.000000,0.071094,0.127401,0.029860,0.000000,0.000000,50.000000,47.000000,3.000000,0.000000,0.000000,0.000000:
// measure 0
0000
0000
0000
0000
,  // measure 1
0000
0000
0000
0000
,  // measure 2
0000
0000
0000
0000
,  // measure 3
0000
0000
0000
0000
,  // measure 4
0000
0000
0000
0000
,  // measure 5
0000
0000
0000
0000
,  // measure 6
0000
0000
0000
0000
,  // measure 7
0000
0000
0000
0000
,  // measure 8
0000
0000
0000
0000
,  // measure 9
1000
0000
0000
0000
,  // measure 10
0001
0000
0000
0000
,  // measure 11
1000
0000
0000
0000
,  // measure 12
0001
0000
0000
0000
,  // measure 13
0010
0000
0000
0000
,  // measure 14
0100
0000
0000
0000
,  // measure 15
0010
0000
0000
0000
,  // measure 16
0100
0000
0000
0000
,  // measure 17
1000
0000
0000
0000
,  // measure 18
0000
0000
0000
0000
,  // measure 19
0001
0000
0000
0000
,  // measure 20
0000
0000
0000
0000
,  // measure 21
0100
0000
0000
0000
,  // measure 22
0000
0000
0000
0000
,  // measure 23
0010
0000
0000
0000
,  // measure 24
0000
0000
0000
0000
,  // measure 25
1000
0000
0000
0000
,  // measure 26
0100
0000
0000
0000
,  // measure 27
1000
0000
0000
0000
,  // measure 28
0100
0000
0000
0000
,  // measure 29
0010
0000
0000
0000
,  // measure 30
0001
0000
0000
0000
,  // measure 31
0010
0000
0000
0000
,  // measure 32
0001
0000
0000
0000
,  // measure 33
0100
0000
0000
0000
,  // measure 34
0000
0000
0000
0000
,  // measure 35
0010
0000
0000
0000
,  // measure 36
0000
0000
0000
0000
,  // measure 37
1000
0000
0000
0000
,  // measure 38
1000
0000
0000
0000
,  // measure 39
0001
0000
0000
0000
,  // measure 40
0001
0000
0000
0000
,  // measure 41
1001
0000
0000
0000
,  // measure 42
1000
0000
0000
0000
,  // measure 43
0010
0000
0000
0000
,  // measure 44
1000
0000
0000
0000
,  // measure 45
0001
0000
0000
0000
,  // measure 46
1000
0000
0000
0000
,  // measure 47
0100
0000
0000
0000
,  // measure 48
1000
0000
0000
0000
,  // measure 49
1001
0000
0000
0000
,  // measure 50
0001
0000
0000
0000
,  // measure 51
0010
0000
0000
0000
,  // measure 52
0001
0000
0000
0000
,  // measure 53
1000
0000
0000
0000
,  // measure 54
0001
0000
0000
0000
,  // measure 55
0100
0000
0000
0000
,  // measure 56
0001
0000
0000
0000
,  // measure 57
1000
0000
0000
0000
,  // measure 58
1001
0000
0000
0000
,  // measure 59
0000
0000
0000
0000
,  // measure 60
0001
0000
0000
0000
,  // measure 61
0000
0000
0000
0000
,  // measure 62
1000
0000
0000
0000
,  // measure 63
0000
0000
0000
0000
,  // measure 64
0001
0000
0000
0000
;

//---------------dance-single - Daff_4K----------------
#NOTES:
     dance-single:
     Daff_4K:
     Easy:
     3:
     0.145033,0.254802,0.029860,0.149298,0.000000,102.000000,99.000000,3.000000,15.000000,0.000000,0.000000,0.145033,0.254802,0.029860,0.149298,0.000000,102.000000,99.000000,3.000000,15.000000,0.000000,0.000000:
0000
0000
0000
0000
,
0000
0000
0000
0000
,
0000
0000
0000
0000
,
0000
0000
0000
0000
,
0000
0000
0000
0000
,
0000
0000
0000
0000
,
0000
0000
0000
0000
,
0000
0000
0000
0000
,
0000
0000
0000
0000
,
1000
0000
0001
0000
,
1000
0000
0001
0000
,
0010
0000
0100
0000
,
1000
0000
0001
0000
,
1000
0000
0001
0000
,
1000
0000
0010
0000
,
0100
0000
0001
0000
,
0010
0100
0010
0100
,
2000
0000
3000
0000
,
0002
0000
0003
0000
,
0100
0000
0010
0000
,
2000
0000
3000
0000
,
0002
0000
0003
0000
,
2000
0000
3000
0000
,
0100
0000
0010
0000
,
0001
0000
1000
0000
,
0001
0000
0001
0000
,
0001
0000
0100
0000
,
0010
0000
0010
0000
,
1000
0000
0001
0000
,
1000
0000
1000
0000
,
1000
0000
0100
0000
,
0010
0000
0010
0000
,
0001
0000
1000
0000
,
0010
0000
0000
0010
,
0100
0000
0001
0000
,
0010
0000
0000
0010
,
0100
0000
1000
0000
,
0010
0000
0100
0000
,
0001
0000
1000
0000
,
0100
0100
0010
0010
,
0001
0000
1000
0000
,
1001
0000
0000
0000
,
0001
0000
0100
0000
,
0020
0000
0030
0000
,
1000
0000
0001
0000
,
0020
0000
0030
0000
,
0001
0000
0100
0000
,
1000
0000
0010
0000
,
0002
0000
1003
0000
,
0001
0000
1001
0000
,
1000
0000
0100
0000
,
0020
0000
0030
0000
,
0001
0000
1000
0000
,
0020
0000
0030
0000
,
1000
0000
0100
0000
,
0001
0000
0010
0000
,
2000
0000
0000
0000
,
3001
0000
0100
0000
,
0020
0000
0030
0000
,
0200
0000
0300
0000
,
0002
0000
0003
0000
,
2000
0000
3000
0000
,
0100
0000
0010
0000
,
0001
0000
0000
0000
,
1001
0000
0000
0000
;

//---------------dance-single - Daff_4K----------------
#NOTES:
     dance-single:
     Daff_4K:
     Medium:
     7:
     0.275846,0.394147,0.039813,0.298597,0.000000,194.000000,190.000000,4.000000,30.000000,0.000000,0.000000,0.275846,0.394147,0.039813,0.298597,0.000000,194.000000,190.000000,4.000000,30.000000,0.000000,0.000000:
0000
0000
0000
0000
,
0000
0000
0000
0000
,
0000
0000
0000
0000
,
0000
0000
0000
0000
,
0000
0000
0000
0000
,
0000
0000
0000
0000
,
0000
0000
0000
0000
,
0000
0000
0000
0000
,
0000
0000
0000
0000
,
1000
0010
0100
0010
,
1000
0001
1000
0100
,
0010
0001
0010
0100
,
0010
0001
1000
0001
,
0100
0010
1000
0001
,
0010
0001
1000
0010
,
0110
0000
0000
1001
0000
0000
0001
0000
,
1000
0100
0010
0001
,
2000
0000
3020
0000
,
0230
0000
0000
0300
,
0002
0000
0023
0000
,
0230
0000
0000
0300
,
2000
0000
3002
0000
,
0203
0000
0320
0000
,
0230
0000
0000
0300
,
0001
1000
0100
0010
,
0001
0100
0001
0100
,
0010
1000
0010
1000
,
0100
0010
0100
0010
,
0001
1000
0010
0010
,
1000
0100
1000
0100
,
0010
0001
0010
0001
,
0200
0000
0010
0000
,
0310
1000
0100
0010
,
0002
0000
0000
1000
0000
0000
1003
0000
,
0000
0001
0100
0010
,
2000
0000
0000
0001
0000
0000
3001
0000
,
0000
1000
0001
0100
,
0020
0000
0000
0100
0000
0000
0130
0000
,
0000
0001
1000
0100
,
1000
0010
0001
0010
,
0200
0000
0010
0310
,
2002
0000
0000
3003
,
1000
0001
1000
0000
0001
0000
0010
0000
,
0100
0010
0100
0000
1000
0000
0010
0000
,
0100
0001
0100
0000
0001
0000
0010
0000
,
0100
0010
0100
0000
1000
0000
0001
0000
,
0100
0100
0010
0010
,
1000
0001
1000
0000
0100
0010
0100
0000
,
2000
0001
0001
3001
,
1000
0000
0001
0000
0100
0010
0100
0000
,
0001
1000
0001
0000
1000
0000
0010
0000
,
0100
0010
0100
0000
0001
0000
0010
0000
,
0100
1000
0100
0000
1000
0000
0010
0000
,
0100
0010
0100
0000
0001
0000
1000
0000
,
0100
0100
0010
0010
,
0001
1000
0001
0000
0100
0010
0100
0000
,
0001
0010
1000
0010
,
0001
1000
0010
0100
,
0002
0000
0023
0000
,
0230
0000
0000
0300
,
2000
0000
3020
0000
,
0230
0000
0000
0300
,
0002
0000
2003
0000
,
3200
0000
0310
0000
,
2002
0000
0000
0000
,
0000
0000
0000
0000
,
3003
0000
0000
0000
;

//---------------dance-single - Daff_4K----------------
#NOTES:
     dance-single:
     Daff_4K:
     Hard:
     10:
     0.398129,0.525530,0.129392,0.368269,0.009953,280.000000,267.000000,13.000000,37.000000,0.000000,0.000000,0.398129,0.525530,0.129392,0.368269,0.009953,280.000000,267.000000,13.000000,37.000000,0.000000,0.000000:
0000
0000
0000
0000
,
0000
0000
0000
0000
,
0000
0000
0000
0000
,
0000
0000
0000
0000
,
0000
0000
0000
0000
,
0000
0000
0000
0000
,
0000
0000
0000
0000
,
0000
0000
0000
0000
,
0000
0000
0000
0000
,
2000
0000
0010
0000
3010
0000
1000
0001
,
1000
0000
0100
0010
0001
0000
0100
0000
,
0020
0000
1000
0000
1030
0000
0001
1000
,
0001
0000
1000
0100
0010
0001
1000
0000
,
0002
0000
0010
0000
0013
0000
0001
1000
,
0001
0000
0100
0010
1000
0000
0100
0000
,
0110
0000
1001
0000
0001
0100
0010
0000
,
1000
0100
0010
0000
0110
0000
1001
0000
,
0002
0000
0203
0000
,
0320
0000
1030
1000
,
0002
0013
0200
1300
,
0020
0000
0130
0001
,
2000
0000
3002
0000
,
0203
0310
2000
3001
,
0020
0000
0130
0000
,
2000
3010
0200
0301
,
1000
0100
1000
0000
0100
0010
0001
0000
,
0100
0010
0100
0000
0010
1000
0001
0000
,
0010
0100
0010
0000
0100
1000
0001
0000
,
0200
0310
2000
3001
,
0001
0100
0001
0000
0100
0010
1000
0000
,
0100
0010
0100
0000
0010
0001
1000
0000
,
0020
0100
0100
0130
,
0001
0010
0001
0000
1000
0010
1000
0000
,
0100
0010
0000
0100
1000
0000
0001
1000
,
0000
0020
0000
0130
0000
0001
1000
0001
,
0100
0010
0000
0100
0001
0000
1000
0001
,
0000
0020
0000
0130
0000
1000
0001
0100
,
0001
0010
0000
0001
1000
0000
0010
1000
,
0000
0200
0000
0310
0000
0001
1000
0000
,
0001
0000
0000
0100
0000
0000
0001
0000
1000
0000
0000
0100
0000
0000
1000
0000
,
0020
0100
0100
0130
,
2002
0000
0000
3003
,
1000
0100
0010
0100
1000
0010
0100
0000
,
0001
1000
0100
1000
0001
0100
0010
0000
,
1000
0001
0010
0100
0010
0001
1000
0000
,
0010
0100
0001
0010
0100
1000
0001
0000
,
0101
0000
1010
0000
1000
0001
0010
0000
,
0100
1000
0001
0000
0100
0010
1000
0001
,
0020
0100
0100
0130
,
1000
0001
0100
0010
0100
0000
1001
0000
,
0001
0100
0010
0100
0001
0010
0100
0000
,
1000
0001
0100
0001
1000
0100
0010
0000
,
0001
1000
0010
0100
0010
1000
0001
0000
,
0010
0100
1000
0010
0100
0001
1000
0000
,
1100
0000
0011
0000
0001
1000
0010
0000
,
0110
0000
1001
0000
1000
0100
0010
0001
,
2000
0001
0001
3001
,
1000
0010
0100
0001
0010
0100
1000
0000
,
1002
0000
0203
0000
,
0320
0000
0000
0030
,
2000
0000
3200
0000
,
0320
0000
0000
0030
,
0002
0000
2003
0000
,
3020
0000
0130
0001
0000
1000
0001
1000
,
0200
0000
0000
0000
,
0000
0000
0000
0000
,
0300
0000
0000
0000
;
