#VERSION:0.83;
#TITLE:天地ガエシ;
#SUBTITLE:;
#ARTIST:NICO Touches the Walls;
#TITLETRANSLIT:TENCHI GAESHI;
#SUBTITLETRANSLIT:;
#ARTISTTRANSLIT:;
#GENRE:COUNTRY ROCK;
#ORIGIN:;
#CREDIT:;
#BANNER:TENCHI GAESHI.png;
#BACKGROUND:TENCHI GAESHI-bg.png;
#PREVIEWVID:;
#JACKET:TENCHI GAESHI-jacket.png;
#CDIMAGE:;
#DISCIMAGE:;
#LYRICSPATH:;
#CDTITLE:cdtitle.png;
#MUSIC:TENCHI GAESHI.ogg;
#OFFSET:-0.528000;
#SAMPLESTART:43.534000;
#SAMPLELENGTH:15.000000;
#SELECTABLE:YES;
#DISPLAYBPM:120.000000;
#BPMS:0.000=120.000,
168.000=119.500,
174.000=123.750,
176.000=120.000;
#STOPS:;
#DELAYS:;
#WARPS:;
#TIMESIGNATURES:0.000=4=4;
#TICKCOUNTS:0.000=4;
#COMBOS:0.000=1;
#SPEEDS:0.000=1.000=0.000=0;
#SCROLLS:0.000=1.000;
#FAKES:;
#LABELS:0.000=Song Start;
#BGCHANGES:-0.500=TENCHI GAESHI.avi=1.000=0=0=0=StretchNoLoop==CrossFade_Fastest==,
99999=-nosongbg-=1.000=0=0=0 // don't automatically add -songbackground-
;
#KEYSOUNDS:;
#ATTACKS:
;

//---------------dance-single - Daff_4K----------------
#NOTEDATA:;
#CHARTNAME:Daff_4K;
#STEPSTYPE:dance-single;
#DESCRIPTION:Daff_4K;
#CHARTSTYLE:;
#DIFFICULTY:Beginner;
#METER:1;
#RADARVALUES:0.072958,0.116573,0.022204,0.000000,0.000000,46.000000,44.000000,2.000000,0.000000,0.000000,0.000000,0.000000,0.000000,0.000000,0.072958,0.116573,0.022204,0.000000,0.000000,46.000000,44.000000,2.000000,0.000000,0.000000,0.000000,0.000000,0.000000,0.000000;
#CREDIT:Daff_4K;
#DISPLAYBPM:120.000000;
#NOTES:
0000
0000
0000
0000
,
0000
0000
0000
0000
,
0000
0000
0000
0000
,
0000
0000
0000
0000
,
0000
0000
0000
0000
,
1000
0000
0000
0000
,
1000
0000
0000
0000
,
0001
0000
0000
0000
,
0001
0000
0000
0000
,
0100
0000
0000
0000
,
0100
0000
0000
0000
,
0010
0000
0000
0000
,
0010
0000
0000
0000
,
1000
0000
0000
0000
,
1000
0000
0000
0000
,
0100
0000
0000
0000
,
0100
0000
0000
0000
,
0010
0000
0000
0000
,
0010
0000
0000
0000
,
0001
0000
0000
0000
,
0001
0000
0000
0000
,
1001
0000
0000
0000
,
1000
0000
1000
0000
,
1000
0000
0000
0000
,
0010
0000
0000
0000
,
0100
0000
0000
0000
,
0001
0000
0001
0000
,
0001
0000
0000
0000
,
0010
0000
0000
0000
,
0100
0000
0000
0000
,
1000
0000
1000
0000
,
1000
0000
0000
0000
,
0001
0000
0001
0000
,
0001
0000
0000
0000
,
0100
0000
0100
0000
,
0100
0000
0000
0000
,
0010
0000
0010
0000
,
0010
0000
0000
0000
,
1000
0000
0000
0000
,
1000
0000
0000
0000
,
0001
0000
0000
0000
,
0001
0000
0000
0000
,
1001
0000
0000
0000
;

//---------------dance-single - Daff_4K----------------
#NOTEDATA:;
#CHARTNAME:Daff_4K;
#STEPSTYPE:dance-single;
#DESCRIPTION:Daff_4K;
#CHARTSTYLE:;
#DIFFICULTY:Easy;
#METER:3;
#RADARVALUES:0.161775,0.193179,0.022204,0.066613,0.000000,102.000000,100.000000,2.000000,6.000000,0.000000,0.000000,0.000000,0.000000,0.000000,0.161775,0.193179,0.022204,0.066613,0.000000,102.000000,100.000000,2.000000,6.000000,0.000000,0.000000,0.000000,0.000000,0.000000;
#CREDIT:Daff_4K;
#DISPLAYBPM:120.000000;
#NOTES:
0000
0000
0000
0000
,
0000
0000
0000
0000
,
0000
0000
0000
0000
,
0000
0000
0000
0000
,
0000
0000
0000
0000
,
1000
0000
0010
0000
,
1000
0001
1000
0000
,
0001
0000
0010
0000
,
0001
1000
0001
0000
,
1000
0100
0010
0000
,
0001
0000
1000
0000
,
0001
0100
0010
0000
,
1000
0000
0001
0000
,
2000
0000
3000
0010
,
0020
0000
0030
0100
,
0200
0000
0300
0001
,
0002
0000
0003
1000
,
1000
0000
1000
0010
,
0010
0000
0010
0100
,
0100
0000
0100
0001
,
0001
0000
1000
0000
,
1001
0000
0000
0000
,
0001
0100
0001
0000
,
0100
0010
1000
0000
,
1000
0100
1000
0000
,
0100
0010
0001
0000
,
0001
1000
0001
0000
,
0010
0100
1000
0000
,
1000
0001
1000
0000
,
0010
0100
0001
0000
,
0001
0010
0001
0000
,
0010
0100
1000
0000
,
1000
0010
1000
0000
,
0010
0100
0001
0000
,
0001
1000
0001
0000
,
0100
0010
1000
0000
,
1000
0001
1000
0000
,
0100
0010
0001
0000
,
1000
0000
0001
0010
,
0001
0000
1000
0000
,
0001
0000
1000
0010
,
1000
0000
0001
1000
,
2002
0000
0000
0000
,
0000
0000
3003
0000
;

//---------------dance-single - Daff_4K----------------
#NOTEDATA:;
#CHARTNAME:Daff_4K;
#STEPSTYPE:dance-single;
#DESCRIPTION:Daff_4K;
#CHARTSTYLE:;
#DIFFICULTY:Medium;
#METER:6;
#RADARVALUES:0.283900,0.317524,0.044409,0.410782,0.000000,179.000000,175.000000,4.000000,37.000000,0.000000,0.000000,0.000000,0.000000,0.000000,0.283900,0.317524,0.044409,0.410782,0.000000,179.000000,175.000000,4.000000,37.000000,0.000000,0.000000,0.000000,0.000000,0.000000;
#CREDIT:Daff_4K;
#DISPLAYBPM:120.000000;
#NOTES:
0000
0000
0000
0000
,
0000
0000
0000
0000
,
0000
0000
0000
0000
,
0000
0000
0000
0000
,
0000
0000
0000
0000
,
1000
0010
0100
0010
,
1000
0001
1000
0000
0100
0000
0010
0000
,
0001
0100
0010
0100
,
0001
1000
0001
0000
0100
0000
0010
0000
,
2000
0010
3010
0100
,
0002
1000
1003
0000
,
0002
0010
0013
0100
,
2000
0001
3001
0000
,
0002
0100
0103
0001
,
0200
0010
0310
0100
,
0020
1000
1030
0010
,
2000
0001
3001
1000
,
0001
0000
0100
0000
0010
1000
0010
0000
,
0100
0000
0001
0000
1000
0001
1000
0001
,
1000
0000
0100
0000
0010
0001
0010
0000
,
0100
0000
1000
0000
0001
1000
0001
0000
,
2002
3003
0110
1001
,
2000
3010
0002
0013
,
1000
0100
0010
0100
1000
0000
0001
0000
,
2000
3100
0002
0103
,
1000
0000
0010
0100
0001
0000
1000
0000
,
0002
0013
2000
3010
,
0001
0100
0010
0100
0001
0000
1000
0000
,
0002
0103
2000
3100
,
0001
0000
0010
0100
1000
0000
0001
0000
,
2000
3010
0200
0301
,
1000
0010
0100
0001
1000
0000
0100
0000
,
0020
0130
2000
3001
,
1000
0010
0100
0000
0100
0001
1000
0000
,
0002
0013
0200
1300
,
0001
0010
0100
1000
0001
0000
0100
0000
,
0020
0130
0002
1003
,
0001
0000
0010
0100
0000
1000
0001
0000
,
2000
3010
0020
0130
,
0002
0000
1003
0000
1000
0100
0010
0000
,
0002
0013
0020
0130
,
2000
0000
3001
0000
0001
0100
0010
0000
,
2000
0100
3200
0310
,
0020
0001
0031
2002
,
3003
0000
0000
0000
;

//---------------dance-single - Daff_4K----------------
#NOTEDATA:;
#CHARTNAME:Daff_4K;
#STEPSTYPE:dance-single;
#DESCRIPTION:Daff_4K;
#CHARTSTYLE:;
#DIFFICULTY:Hard;
#METER:9;
#RADARVALUES:0.353685,0.415223,0.199840,0.355271,0.000000,223.000000,205.000000,18.000000,32.000000,0.000000,0.000000,0.000000,0.000000,0.000000,0.353685,0.415223,0.199840,0.355271,0.000000,223.000000,205.000000,18.000000,32.000000,0.000000,0.000000,0.000000,0.000000,0.000000;
#CREDIT:Daff_4K;
#DISPLAYBPM:120.000000;
#NOTES:
0000
0000
0000
0000
,
0000
0000
0000
0000
,
0000
0000
0000
0000
,
0000
0000
0000
0000
,
0000
0000
0000
0000
,
2000
0010
0001
0100
,
3001
1000
0100
0000
0010
0001
1000
0000
,
0002
0010
1000
0100
,
1003
0001
0100
0000
0010
1000
0001
0000
,
2000
0000
0100
0000
0001
0000
3010
1000
,
0200
0001
0010
1300
,
0002
0000
0100
0000
1000
0000
0013
0001
,
0200
1000
0010
0301
,
2000
0100
0001
3010
,
0020
1000
0100
0031
,
0002
0010
1000
0103
,
0200
0000
0001
0000
0010
0000
1300
0001
,
2000
0000
3010
0000
0100
0001
1000
0000
,
0002
0000
0013
0000
0100
1000
0001
0000
,
1000
0010
0100
0000
0001
0010
0100
0000
,
1000
0001
0100
0000
0010
1000
0001
0000
,
2002
3003
0110
1001
,
0001
0100
0010
0100
0001
1000
0010
0100
,
0002
0010
0100
1003
,
0001
0100
0010
0000
1000
0100
0010
0000
,
0110
1001
0110
1001
,
1000
0100
0010
0100
1000
0001
0010
0100
,
2000
0010
0100
3001
,
1000
0001
0010
0000
0001
1000
0010
0000
,
0110
0000
0100
0001
1000
0000
1001
0000
,
0001
0100
0010
0100
0001
0100
1000
0100
,
0001
1000
0100
0010
0001
0100
0010
1000
,
0002
0010
2003
3100
,
0110
1001
0110
1001
,
1000
0100
0010
0100
1000
0100
0001
0100
,
1000
0001
0100
0010
1000
0100
0010
0001
,
2000
0010
3002
0103
,
1001
0000
0010
0100
0010
0000
1001
0000
,
1200
0000
0310
0001
2000
0000
3010
0100
,
0002
0000
0013
0100
2000
0000
3001
0000
,
0201
0000
0310
1000
0002
0000
0013
0100
,
2000
0000
3010
0100
0010
1000
0001
0000
,
2001
0100
3002
0100
,
0023
0100
0032
2000
,
3003
0000
0000
0000
;

//---------------dance-single - Daff_4K----------------
#NOTEDATA:;
#CHARTNAME:Daff_4K;
#STEPSTYPE:dance-single;
#DESCRIPTION:Daff_4K;
#CHARTSTYLE:;
#DIFFICULTY:Challenge;
#METER:13;
#RADARVALUES:0.585246,0.682602,0.088818,0.222045,0.593969,369.000000,361.000000,8.000000,20.000000,0.000000,0.000000,0.000000,0.000000,0.000000,0.585246,0.682602,0.088818,0.222045,0.593969,369.000000,361.000000,8.000000,20.000000,0.000000,0.000000,0.000000,0.000000,0.000000;
#CREDIT:Daff_4K;
#DISPLAYBPM:120.000000;
#NOTES:
// measure 0
0000
0000
0000
0000
,  // measure 1
0000
0000
0000
0000
,  // measure 2
0000
0000
0000
0000
,  // measure 3
0000
0000
0000
0000
,  // measure 4
0000
0000
0000
0000
,  // measure 5
2000
0010
0000
0001
0000
0100
0000
3001
,  // measure 6
1000
0000
0010
0000
0100
0000
0001
0000
1000
0000
0100
0000
0010
0100
0010
0000
,  // measure 7
0002
0010
0000
1000
0000
0100
0000
1003
,  // measure 8
0001
0000
0010
0000
0100
0000
1000
0000
0001
0000
0100
0000
0010
0100
0010
0000
,  // measure 9
2000
0001
0000
0100
0000
3010
1000
0100
,  // measure 10
0020
0000
0001
0000
0000
0000
0130
0000
1000
0000
0001
0000
0100
0010
0100
0000
,  // measure 11
0002
1000
0000
0100
0000
0013
0001
0100
,  // measure 12
0020
0000
1000
0000
0000
0000
0130
0000
0001
0000
1000
0000
0100
0010
0100
0000
,  // measure 13
2000
0000
0010
0000
0000
0000
0100
0000
0000
0000
3001
1000
0010
0000
0100
0000
,  // measure 14
0002
0000
0010
0000
0000
0000
0100
0000
0000
0000
1003
0001
0010
0000
0100
0000
,  // measure 15
0020
0000
1000
0000
0000
0000
0001
0000
0000
0000
0130
0010
0001
0000
1000
0000
,  // measure 16
0020
0000
0001
0000
0000
0000
1000
0000
0000
0000
0130
0010
1000
0001
0100
0000
,  // measure 17
0002
0000
0010
0000
0000
0000
0100
0000
0000
0000
1003
0001
0010
0000
0100
0000
,  // measure 18
2000
0000
0010
0000
0000
0000
0100
0000
0000
0000
3001
1000
0010
0000
0100
0000
,  // measure 19
0002
0000
1000
0000
0000
0000
0010
0000
0000
0000
0103
0001
1000
0100
0010
0001
,  // measure 20
2000
0000
0001
0000
0000
0000
3010
0000
1000
0000
0001
0100
0010
1000
0001
0000
,  // measure 21
2002
0000
0000
3003
0220
0330
2002
3003
,  // measure 22
0001
0010
0000
0010
0001
0000
0001
1000
0000
1000
0001
0000
0100
0000
0010
0000
,  // measure 23
1000
0100
0000
0100
0001
0000
0001
0100
0000
0100
1000
0000
0010
0000
0100
0000
,  // measure 24
0001
0010
0000
0010
0100
0000
0100
1000
0000
1000
0010
0000
0100
0000
0001
0000
,  // measure 25
1000
0000
0001
0010
0001
0000
1000
0100
1000
0000
0001
0000
0010
0000
0100
0000
,  // measure 26
1000
0010
0000
0010
1000
0000
1000
0001
0000
0001
1000
0000
0100
0000
0010
0000
,  // measure 27
0001
0100
0000
0100
1000
0000
1000
0100
0000
0100
0001
0000
0010
0000
0100
0000
,  // measure 28
1000
0010
0000
0010
0100
0000
0100
0001
0000
0001
0010
0000
0100
0000
1000
0000
,  // measure 29
1010
0000
0010
0100
0001
0000
0011
0000
0010
0100
1000
0000
0010
0100
0010
0100
,  // measure 30
0001
1000
0001
0000
0010
0000
0001
1000
0001
0000
0100
0000
0010
1000
0010
0000
,  // measure 31
0100
0000
0001
1000
0001
0000
0010
0100
0010
0100
1000
0000
0100
0000
0010
0000
,  // measure 32
0001
0100
0000
0100
1000
0000
1000
0010
0000
0010
0001
0000
0100
0000
0010
0000
,  // measure 33
1000
0000
0010
0100
0010
0000
1000
0001
1000
0000
0100
0000
0010
0100
0010
0001
,  // measure 34
1000
0001
1000
0000
0010
0000
1000
0001
1000
0000
0100
0000
0010
0001
0010
0000
,  // measure 35
0100
1000
0001
1000
0000
0010
0000
0100
0010
0100
0001
0000
0100
0000
0010
0000
,  // measure 36
1000
0100
0000
0100
0001
0000
0001
0010
0000
0010
1000
0000
0100
0000
0010
0000
,  // measure 37
0011
0000
0001
1000
0010
0000
1010
0000
1000
0100
1000
0100
0010
0001
0010
0001
,  // measure 38
1000
0000
0001
0010
0100
0010
0001
0000
0100
0000
0010
1000
0001
1000
0010
0000
,  // measure 39
0100
0000
0001
1000
0010
1000
0001
0000
0010
0100
0010
0100
1000
0001
1000
0000
,  // measure 40
0001
0000
1000
0010
0100
0010
1000
0000
0100
0000
0010
0001
1000
0001
0010
0000
,  // measure 41
0100
0000
1000
0001
0010
0001
1000
0000
0100
0000
0010
0001
0100
0010
1000
0000
,  // measure 42
1001
0000
0001
0010
0100
1000
0001
0000
1000
0010
0100
0001
,  // measure 43
1000
0000
0001
0010
0100
1000
0010
0100
0010
0100
0001
1000
;
