#VERSION:0.83;
#TITLE:Stuck (Thunderpuss Radio Remix);
#SUBTITLE:;
#ARTIST:Stacie Orrico;
#TITLETRANSLIT:;
#SUBTITLETRANSLIT:;
#ARTISTTRANSLIT:;
#GENRE:DANCE POP;
#ORIGIN:;
#CREDIT:;
#BANNER:Stuck (Thunderpuss Radio Remix).png;
#BACKGROUND:Stuck (Thunderpuss Radio Remix)-bg.png;
#PREVIEWVID:;
#JACKET:Stuck (Thunderpuss Radio Remix)-jacket.png;
#CDIMAGE:;
#DISCIMAGE:;
#LYRICSPATH:;
#CDTITLE:cdtitle.png;
#MUSIC:Stuck (Thunderpuss Radio Remix).ogg;
#OFFSET:-0.058000;
#SAMPLESTART:82.231995;
#SAMPLELENGTH:15.000000;
#SELECTABLE:YES;
#DISPLAYBPM:100.000000:127.000000;
#BPMS:0.000=127.000,
112.000=125.280,
114.000=122.080,
116.000=118.640,
118.000=115.050,
120.000=111.960,
122.000=108.320,
124.000=105.850,
125.000=103.950,
126.000=103.050,
127.000=100.350,
128.000=100.030,
136.000=100.000,
140.000=100.038,
144.000=100.000,
152.000=102.170,
154.000=105.990,
155.000=107.770,
156.000=110.420,
157.000=111.910,
158.000=114.526,
159.000=120.000,
160.000=116.000,
161.000=121.570,
162.000=123.470,
163.000=125.900,
164.000=127.000;
#STOPS:;
#DELAYS:;
#WARPS:;
#TIMESIGNATURES:0.000=4=4;
#TICKCOUNTS:0.000=4;
#COMBOS:0.000=1;
#SPEEDS:0.000=1.000=0.000=0;
#SCROLLS:0.000=1.000;
#FAKES:;
#LABELS:0.000=Song Start;
#BGCHANGES:;
#KEYSOUNDS:;
#ATTACKS:
;

//---------------dance-single - Daff_4K----------------
#NOTEDATA:;
#CHARTNAME:Daff_4K;
#STEPSTYPE:dance-single;
#DESCRIPTION:Daff_4K;
#CHARTSTYLE:;
#DIFFICULTY:Beginner;
#METER:2;
#RADARVALUES:0.089220,0.141181,0.017593,0.000000,0.000000,71.000000,69.000000,2.000000,0.000000,0.000000,0.000000,0.000000,0.000000,0.000000,0.089220,0.141181,0.017593,0.000000,0.000000,71.000000,69.000000,2.000000,0.000000,0.000000,0.000000,0.000000,0.000000,0.000000;
#CREDIT:Daff_4K;
#DISPLAYBPM:100.000000:127.000000;
#NOTES:
0000
0000
0000
0000
,
0000
0000
0000
0000
,
0000
0000
0000
0000
,
0000
0000
0000
0000
,
1000
0000
0000
0000
,
0001
0000
0000
0000
,
1000
0000
0100
0000
,
1000
0000
0000
0000
,
0001
0000
0100
0000
,
0001
0000
0000
0000
,
0100
0000
0100
0000
,
0010
0000
0000
0000
,
1000
0000
1000
0000
,
0001
0000
0000
0000
,
0010
0000
0100
0000
,
0010
0000
0000
0000
,
0100
0000
0000
0000
,
0110
0000
0000
0000
,
0100
0000
0100
0000
,
0010
0000
0000
0000
,
0001
0000
0001
0000
,
1000
0000
0000
0000
,
0010
0000
0100
0000
,
0010
0000
0000
0000
,
0100
0000
0000
0000
,
0010
0000
0000
0000
,
1000
0000
0100
0000
,
1000
0000
0000
0000
,
0001
0000
0100
0000
,
0001
0000
0000
0000
,
0010
0000
0100
0000
,
0010
0000
0100
0000
,
1000
0000
0010
0000
,
0100
0000
0000
0000
,
0001
0000
0010
0000
,
0100
0000
0000
0000
,
1000
0000
0001
0000
,
0100
0000
0000
0000
,
0010
0000
0000
0000
,
0000
0000
0000
0000
,
0000
0000
0000
0000
,
1000
0000
0100
0000
,
0010
0000
0000
0000
,
0001
0000
0100
0000
,
0010
0000
0000
0000
,
1000
0000
0001
0000
,
0010
0000
0000
0000
,
0100
0000
0000
0000
,
1000
0000
0000
0000
,
0001
0000
0000
0000
,
0100
0000
0000
0000
,
0010
0000
1000
0000
,
0001
0000
1000
0000
,
0001
0000
1001
0000
;

//---------------dance-single - Daff_4K----------------
#NOTEDATA:;
#CHARTNAME:Daff_4K;
#STEPSTYPE:dance-single;
#DESCRIPTION:Daff_4K;
#CHARTSTYLE:;
#DIFFICULTY:Easy;
#METER:4;
#RADARVALUES:0.185979,0.217709,0.043982,0.184723,0.000000,148.000000,143.000000,5.000000,21.000000,0.000000,0.000000,0.000000,0.000000,0.000000,0.185979,0.217709,0.043982,0.184723,0.000000,148.000000,143.000000,5.000000,21.000000,0.000000,0.000000,0.000000,0.000000,0.000000;
#CREDIT:Daff_4K;
#DISPLAYBPM:100.000000:127.000000;
#NOTES:
0000
0000
0000
0000
,
0000
0000
0000
0000
,
0000
0000
0000
0000
,
0000
0000
0000
0000
,
1000
0000
0100
0000
,
0001
0000
0100
0000
,
1000
0010
1000
0000
,
0010
1000
0001
0000
,
0001
0010
0001
0000
,
0010
0001
1000
0000
,
1000
0010
0100
0000
,
0010
1000
0002
0003
,
1000
0100
0010
0000
,
0100
1000
0002
0003
,
0200
0300
0020
0030
,
1000
0001
1000
0000
,
0100
0010
0100
0000
,
1001
0000
0000
0000
,
0001
0010
0100
0000
,
0010
0001
2000
3000
,
0001
0100
0010
0000
,
0100
0001
2000
3000
,
0200
0300
0020
0030
,
0001
1000
0001
0000
,
1000
0010
0001
0000
,
1000
0100
0001
1000
,
0001
0010
1000
0000
,
0001
0100
1000
0001
,
1000
0010
0100
0000
,
0001
0010
0100
0000
,
1000
0001
1000
0001
,
0100
0100
0010
0010
,
1000
1000
0100
0000
,
0001
0001
0100
1000
,
0001
0001
0010
0000
,
1000
1000
0010
0001
,
1000
0010
0100
0000
,
0001
0010
0100
0000
,
0020
0000
0000
0030
,
0002
0003
2000
3000
,
0010
0100
0010
0100
,
0002
0003
2000
3000
,
0001
0100
0010
0010
,
2000
3000
0002
0003
,
1000
0100
0010
0010
,
0200
0300
0020
0030
,
0001
1000
0010
0100
,
0001
0000
1001
0000
,
1000
0000
1001
0000
,
0010
0000
0110
0000
,
0100
0000
0110
0000
,
0001
1000
0100
0010
,
0002
0003
2000
3000
,
0020
0030
0200
0000
,
0000
0000
0000
0000
,
0300
0000
0000
0000
;

//---------------dance-single - Daff_4K----------------
#NOTEDATA:;
#CHARTNAME:Daff_4K;
#STEPSTYPE:dance-single;
#DESCRIPTION:Daff_4K;
#CHARTSTYLE:;
#DIFFICULTY:Medium;
#METER:6;
#RADARVALUES:0.243784,0.266088,0.008796,0.307871,0.065972,194.000000,193.000000,1.000000,35.000000,0.000000,0.000000,0.000000,0.000000,0.000000,0.243784,0.266088,0.008796,0.307871,0.065972,194.000000,193.000000,1.000000,35.000000,0.000000,0.000000,0.000000,0.000000,0.000000;
#CREDIT:Daff_4K;
#DISPLAYBPM:100.000000:127.000000;
#NOTES:
0000
0000
0000
0000
,
0000
0000
0000
0000
,
0000
0000
0000
0000
,
0000
0000
0000
0000
,
0001
0100
1000
0100
,
0001
1000
0100
0010
,
0000
0000
0000
0001
0000
0000
0001
0000
0000
0000
0000
1000
0000
0000
1000
0000
,
0000
0000
0000
0010
0000
0000
0010
0000
0000
0000
0000
0100
0000
0000
0100
0000
,
0000
0000
0000
0001
0000
0000
0001
0000
0000
0000
0000
1000
0000
0000
1000
0000
,
0000
0000
0000
0100
0000
0000
0100
0000
0020
0000
0000
0000
0031
0000
0000
0000
,
1000
0000
0010
0000
1000
0010
1000
0000
,
0100
0010
0200
0300
,
1000
0000
0001
0000
1000
0010
1000
0000
,
0010
0100
0001
1000
,
0002
0103
0020
0130
,
0001
1000
0000
0001
1000
0000
0100
0000
,
0010
0001
1000
0000
,
1001
0000
0000
0000
,
0001
0000
0010
0000
0001
0010
0001
0000
,
0100
0010
0200
0300
,
0001
0000
1000
0000
0001
0010
0001
0000
,
0010
0100
1000
0001
,
2000
3100
0020
0130
,
1000
0001
0000
1000
0001
0000
0100
0000
,
0010
1000
0200
0300
,
0010
0001
0200
0300
,
0001
0010
0200
0300
,
1000
0010
0200
0300
,
0010
1000
0200
0300
,
0010
0001
0200
0300
,
0001
0010
1000
0010
,
0001
0001
1000
1000
,
0020
0130
0020
1030
,
0010
0100
0100
0001
,
0020
0130
0020
0031
,
0010
0100
1000
0001
,
0000
1000
0000
0010
0100
0010
0100
0000
,
0000
0001
0000
0010
0100
0010
0100
0000
,
0020
0000
0032
0103
,
0020
1030
0200
0310
,
0002
0203
0320
2030
,
3002
0103
2000
3100
,
0001
0000
0010
0000
0001
1000
0001
0000
,
2000
3010
0002
0013
,
1000
0001
0010
0100
,
2000
3100
0002
0103
,
1000
0000
0010
0000
1000
0001
1000
0000
,
0001
0000
0000
0001
0000
0000
0000
0000
1000
0000
0000
1000
0000
0000
0000
0000
,
0010
0000
0000
0010
0000
0000
0000
0000
0100
0000
0000
0100
0000
0000
0000
0000
,
0010
0000
0000
0010
0000
0000
0000
0000
1000
0000
0000
1000
0000
0000
0000
0000
,
0001
0000
0000
0001
0000
0000
0000
0000
0010
0000
0000
0010
0000
0000
0000
0000
,
0100
1000
0001
1000
,
0020
0000
0230
0000
,
0302
0000
2000
0000
,
0000
0000
0000
0000
,
3003
0000
0000
0000
;

//---------------dance-single - Daff_4K----------------
#NOTEDATA:;
#CHARTNAME:Daff_4K;
#STEPSTYPE:dance-single;
#DESCRIPTION:Daff_4K;
#CHARTSTYLE:;
#DIFFICULTY:Hard;
#METER:10;
#RADARVALUES:0.394577,0.411228,0.149537,0.307871,0.114352,314.000000,297.000000,17.000000,35.000000,0.000000,0.000000,0.000000,0.000000,0.000000,0.394577,0.411228,0.149537,0.307871,0.114352,314.000000,297.000000,17.000000,35.000000,0.000000,0.000000,0.000000,0.000000,0.000000;
#CREDIT:Daff_4K;
#DISPLAYBPM:100.000000:127.000000;
#NOTES:
// measure 0
0000
0000
0000
0000
,  // measure 1
0000
0000
0000
0000
,  // measure 2
0000
0000
0000
0000
,  // measure 3
0000
0000
0000
0000
,  // measure 4
1000
0000
0000
0000
0001
0000
0000
0010
0100
0000
0000
0000
1000
0000
0000
0010
,  // measure 5
0100
0000
0000
0000
0001
0000
0000
1000
0001
0000
0000
0010
0000
0000
0100
0000
,  // measure 6
1000
0000
0000
0010
0000
0000
0010
0000
1000
0000
0000
0001
0000
0000
0001
0000
,  // measure 7
0010
0000
0000
0100
0000
0000
0100
0000
1000
0000
0000
0001
0000
0000
1000
0000
,  // measure 8
0001
0000
0000
0100
0000
0000
0100
0000
0001
0000
0000
1000
0000
0000
1000
0000
,  // measure 9
0100
0000
0000
0010
0000
0000
0010
0000
0002
0000
0000
0000
1003
0000
0000
0000
,  // measure 10
0001
0000
0010
0000
0001
0000
0000
0000
0100
0000
0010
0100
0000
0000
0001
0000
,  // measure 11
0010
0100
0010
0001
0200
0000
0310
0000
,  // measure 12
1000
0000
0100
0000
1000
0000
0000
0000
0010
0000
0100
0010
0000
0000
1000
0000
,  // measure 13
0100
0010
0001
0100
0010
1000
0001
0000
,  // measure 14
2000
0100
3100
0000
0020
0001
0031
0000
,  // measure 15
1000
0020
0000
0130
0010
1000
0001
1000
,  // measure 16
0100
0001
0100
1000
0020
0000
0130
0001
,  // measure 17
0010
1000
0010
0002
0000
1000
1003
0000
,  // measure 18
1000
0000
0010
0000
1000
0000
0000
0000
0100
0000
0010
0100
0000
0000
1000
0000
,  // measure 19
0010
0100
0010
1000
0200
0000
0310
0000
,  // measure 20
0001
0000
0100
0000
0001
0000
0000
0000
0010
0000
0100
0010
0000
0000
0001
0000
,  // measure 21
0100
0010
1000
0100
0010
0001
1000
0000
,  // measure 22
0002
0100
0103
0000
0020
1000
1030
0000
,  // measure 23
0001
0020
0000
0130
0010
0001
1000
0001
,  // measure 24
0100
1000
0100
0001
0020
0000
0130
1000
,  // measure 25
0010
0001
0010
2000
0000
0001
3001
0000
,  // measure 26
1000
0100
0001
0100
2000
0000
3001
1000
,  // measure 27
0001
0100
1000
0100
0002
0000
1003
0000
,  // measure 28
0001
0010
0100
0020
0000
0001
0031
0000
,  // measure 29
1000
0010
0100
0020
0000
1000
1030
0000
,  // measure 30
0001
0010
0200
0000
1300
0010
0100
0000
,  // measure 31
0101
0011
1100
1010
,  // measure 32
1000
0001
0011
0000
0001
1000
1010
0000
,  // measure 33
1000
0100
0001
0100
1000
0001
0100
0000
,  // measure 34
0010
1000
1100
0000
0010
0001
0101
0000
,  // measure 35
0001
0010
1000
0001
1000
0010
0001
0000
,  // measure 36
1000
0010
0001
1000
0001
0010
1000
0000
,  // measure 37
0100
0001
0100
1000
0010
0100
0001
0000
,  // measure 38
0020
0100
0032
0103
,  // measure 39
2000
3100
0002
0013
,  // measure 40
2000
3010
0002
1003
,  // measure 41
0002
0100
1003
0000
0020
1000
0130
0000
,  // measure 42
0001
0100
1000
0100
0001
0010
0100
1000
,  // measure 43
0002
0010
1003
0000
2000
0010
3001
0000
,  // measure 44
0001
0010
0100
1000
0001
0100
0010
0010
,  // measure 45
2000
0100
3001
0000
0020
0001
0130
0000
,  // measure 46
1000
0100
0001
0100
1000
0010
0100
0001
,  // measure 47
1000
0000
0000
1010
0000
0000
0000
0000
0001
0000
0000
0011
0000
0000
0000
0000
,  // measure 48
1000
0000
0000
1100
0000
0000
0000
0000
0001
0000
0000
0101
0000
0000
0000
0000
,  // measure 49
0010
0000
0000
0110
0000
0000
0000
0000
1000
0000
0000
1001
0000
0000
0000
0000
,  // measure 50
0100
0000
0000
0110
0000
0000
0000
0000
0001
0000
0000
1001
0000
0000
0000
0000
,  // measure 51
1000
0000
0000
0001
1000
0000
0000
1000
0010
0000
0000
0010
0100
0000
0000
0000
,  // measure 52
0202
0300
2000
0003
,  // measure 53
0200
3000
0020
0000
,  // measure 54
0000
0000
0000
0000
,  // measure 55
0330
0000
0000
0000
;
