#TITLE:サイレントマジョリティー;
#SUBTITLE:;
#ARTIST:欅坂46;
#TITLETRANSLIT:Silent Majority;
#SUBTITLETRANSLIT:;
#ARTISTTRANSLIT:Keyakizaka46;
#GENRE:J-POP;
#CREDIT:;
#BANNER:Silent Majority.png;
#BACKGROUND:Silent Majority-bg.png;
#LYRICSPATH:;
#CDTITLE:cdtitle.png;
#MUSIC:Silent Majority.ogg;
#OFFSET:-0.081000;
#SAMPLESTART:67.886002;
#SAMPLELENGTH:15.000000;
#SELECTABLE:YES;
#BPMS:0.000000=123.000000
;
#STOPS:
;
#BGCHANGES:0.000=Silent Majority.avi=1.000=0=0=0=StretchNoLoop==CrossFade_Fastest==,
99999=-nosongbg-=1.000=0=0=0 // don't automatically add -songbackground-
;
#KEYSOUNDS:;
#ATTACKS:;

//---------------dance-single - Daff_4K----------------
#NOTES:
     dance-single:
     Daff_4K:
     Beginner:
     1:
     0.079583,0.117368,0.017970,0.000000,0.000000,62.000000,60.000000,2.000000,0.000000,0.000000,0.000000,0.079583,0.117368,0.017970,0.000000,0.000000,62.000000,60.000000,2.000000,0.000000,0.000000,0.000000:
// measure 0
0000
0000
0000
0000
,  // measure 1
0000
0000
0000
0000
,  // measure 2
0000
0000
0000
0000
,  // measure 3
0000
0000
0000
0000
,  // measure 4
1000
0000
0000
0000
,  // measure 5
1000
0000
0000
0000
,  // measure 6
0001
0000
0000
0000
,  // measure 7
0001
0000
0000
0000
,  // measure 8
0010
0000
0000
0000
,  // measure 9
0100
0000
0000
0000
,  // measure 10
1000
0000
0000
0000
,  // measure 11
1000
0000
0000
0000
,  // measure 12
0010
0000
0000
0000
,  // measure 13
0100
0000
0000
0000
,  // measure 14
0001
0000
0000
0000
,  // measure 15
0001
0000
0000
0000
,  // measure 16
0010
0000
0000
0000
,  // measure 17
0100
0000
0000
0000
,  // measure 18
1000
1000
0000
0000
,  // measure 19
0001
0001
0000
0000
,  // measure 20
0100
0000
0000
0000
,  // measure 21
0100
0000
0000
0000
,  // measure 22
0001
0001
0000
0000
,  // measure 23
1000
1000
0000
0000
,  // measure 24
0100
0000
0000
0000
,  // measure 25
0100
0000
0000
0000
,  // measure 26
1000
0000
0000
0000
,  // measure 27
0001
0000
0000
0000
,  // measure 28
0100
0000
0000
0000
,  // measure 29
0110
0000
0000
0000
,  // measure 30
0010
0010
0000
0000
,  // measure 31
0100
0100
0000
0000
,  // measure 32
0001
0000
0000
0000
,  // measure 33
1001
0000
0000
0000
,  // measure 34
0000
0000
0000
1000
,  // measure 35
0000
1000
0000
1000
,  // measure 36
0000
0000
0000
0100
,  // measure 37
0000
0000
0000
0010
,  // measure 38
0000
0000
0000
0100
,  // measure 39
0000
0100
0000
0100
,  // measure 40
0000
0000
0000
0010
,  // measure 41
0000
0000
0000
0001
,  // measure 42
0000
0000
0000
0001
,  // measure 43
0000
0001
0000
0001
,  // measure 44
0000
0000
0000
0100
,  // measure 45
0000
0000
0000
0010
,  // measure 46
0000
0000
0000
0100
,  // measure 47
0000
0100
0000
0100
,  // measure 48
0000
0000
0000
0010
,  // measure 49
0000
0000
0000
1000
,  // measure 50
0000
0000
0000
0001
,  // measure 51
0000
0000
0000
0100
,  // measure 52
0100
0100
0000
0000
;

//---------------dance-single - Daff_4K----------------
#NOTES:
     dance-single:
     Daff_4K:
     Easy:
     3:
     0.163016,0.187789,0.026955,0.125792,0.000000,127.000000,124.000000,3.000000,14.000000,0.000000,0.000000,0.163016,0.187789,0.026955,0.125792,0.000000,127.000000,124.000000,3.000000,14.000000,0.000000,0.000000:
0000
0000
0000
0000
,
0000
0000
0000
0000
,
0000
0000
0000
0000
,
0000
0000
0000
0000
,
1000
0100
1000
0000
,
0001
0100
0001
0000
,
1000
0010
1000
0000
,
0001
0010
0001
0000
,
0200
0000
0000
0300
,
0020
0000
0000
0030
,
2000
0000
3000
0000
,
0002
0000
0003
0000
,
0020
0000
0030
0000
,
0100
0000
1000
0000
,
0002
0000
0003
0000
,
2000
0000
3000
0000
,
0020
0000
0030
0000
,
0100
0000
0001
0000
,
1000
0100
0000
1000
,
0001
1000
0000
0010
,
1000
0100
0000
0010
,
0001
0100
0010
1000
,
0001
0100
0000
0001
,
1000
0001
0000
0010
,
0001
0100
0000
0010
,
1000
0100
0010
0001
,
2000
0000
3000
0010
,
0200
0000
0300
0100
,
0002
0000
0003
0010
,
0200
0000
0300
1001
,
0000
1000
0010
1000
,
0000
0001
0010
0001
,
0100
0000
0010
0000
,
2002
0000
0000
0000
,
0000
3003
0000
1000
,
0010
0100
0000
0001
,
0100
0010
0000
1000
,
0100
0001
0100
1000
,
0100
0001
0000
0100
,
1000
0010
0000
0100
,
0001
0010
0000
0001
,
0100
0010
0100
0001
,
1000
0001
0000
0001
,
0010
0100
0000
1000
,
0100
0010
0000
0001
,
0100
1000
0100
0001
,
0100
1000
0000
0100
,
0001
0010
0000
0100
,
1000
0010
0000
1000
,
0100
0010
0100
1000
,
0001
1000
0000
0010
,
0000
0100
0000
0001
,
1000
1001
0000
0000
;

//---------------dance-single - Daff_4K----------------
#NOTES:
     dance-single:
     Daff_4K:
     Medium:
     7:
     0.264420,0.322678,0.080866,0.179703,0.000000,206.000000,197.000000,9.000000,20.000000,0.000000,0.000000,0.264420,0.322678,0.080866,0.179703,0.000000,206.000000,197.000000,9.000000,20.000000,0.000000,0.000000:
0000
0000
0000
0000
,
0000
0000
0000
0000
,
0000
0000
0000
0000
,
0000
0000
0000
0000
,
1000
0100
1000
1000
,
0001
0100
0001
0001
,
1000
0010
1000
1000
,
0001
0010
0001
0001
,
0200
0000
0000
0010
0000
0000
0310
0000
,
2002
0000
0000
3003
,
2000
0000
3100
0100
,
0020
0000
0031
1000
,
0020
0000
0130
0100
,
0001
1000
0100
0010
,
0002
0000
0103
0100
,
0020
0000
1030
0001
,
0020
0000
0130
0100
,
1000
0001
0100
0010
,
1000
0001
1000
0000
0001
0000
0000
0000
,
0010
0100
0010
0000
0100
0000
1000
0000
,
0010
0100
0010
0000
0100
0000
0000
0000
,
0001
1000
0100
0010
,
0001
1000
0001
0000
1000
0000
0000
0000
,
0010
0100
0010
0000
0100
0000
0001
0000
,
0010
0100
0010
0000
0100
0000
0000
0000
,
1000
0001
0100
0010
,
1000
0001
0202
0303
,
0001
1000
2200
3300
,
0100
0010
0220
0330
,
0100
1000
2002
3003
,
0000
0001
0100
0010
,
1000
0100
0010
0001
,
1000
0100
1000
0000
0001
0100
0001
0000
,
1000
0001
1001
1000
,
0001
0000
0100
0000
0110
0000
0010
1000
,
0010
0000
0010
0100
0010
0000
1000
0000
,
0100
0000
0001
0000
0100
0000
1000
0010
,
1000
0000
1000
0001
1000
0000
0100
0000
,
0010
0000
0001
0000
1000
0000
0010
0100
,
0010
0000
1000
0001
1000
0000
0100
0000
,
0010
0001
1000
0010
,
0100
0010
0100
0000
0001
0000
0010
0000
,
1000
0000
0100
0000
0001
0000
0010
0001
,
0010
0000
0010
0100
0010
0000
0001
0000
,
0100
0000
1000
0000
0100
0000
0001
0010
,
0001
0000
0001
1000
0001
0000
0100
0000
,
0010
0000
1000
0000
0001
0000
0010
0100
,
0010
0000
0001
1000
0001
0000
0100
0000
,
0010
1000
0001
0010
,
0100
0010
0100
0000
1000
0000
0010
0000
,
0001
0100
1000
0020
,
0100
0130
0001
1000
,
0110
2002
0000
0000
,
0000
0000
0000
0000
,
0000
0000
0000
0000
,
0000
3003
0000
0000
;

//---------------dance-single - Daff_4K----------------
#NOTES:
     dance-single:
     Daff_4K:
     Hard:
     9:
     0.337584,0.397143,0.044926,0.152747,0.179703,263.000000,258.000000,5.000000,17.000000,0.000000,0.000000,0.337584,0.397143,0.044926,0.152747,0.179703,263.000000,258.000000,5.000000,17.000000,0.000000,0.000000:
0000
0000
0000
0000
,
0000
0000
0000
0000
,
0000
0000
0000
0000
,
0000
0000
0000
0000
,
0001
1000
0100
0100
0010
0001
0000
0000
,
1000
0010
0100
0010
1000
0001
0000
0000
,
1000
0001
0100
0100
0010
1000
0000
0000
,
0001
0010
0100
0010
0001
1000
0000
0000
,
0020
0000
0000
0230
0000
0000
0302
0000
,
2000
0000
0000
3003
,
0001
0000
0000
0010
0000
0000
0000
0000
0001
0000
0000
1000
0000
0000
0000
0000
,
0001
0000
0000
0100
0000
0000
0000
0000
0001
0000
0000
1000
0000
0000
0000
0000
,
0100
0000
0000
0010
0000
0000
0000
0000
0100
0000
0000
0001
0000
0000
0000
0000
,
0100
0000
0000
1000
0000
0000
0010
0000
0100
0000
0000
0000
0001
0000
0000
0000
,
1000
0000
0000
0010
0000
0000
0000
0000
1000
0000
0000
0001
0000
0000
0000
0000
,
1000
0000
0000
0100
0000
0000
0000
0000
1000
0000
0000
0001
0000
0000
0000
0000
,
0100
0000
0000
0010
0000
0000
0000
0000
0100
0000
0000
1000
0000
0000
0000
0000
,
0100
0000
0000
0001
0000
0000
0010
0000
0100
0000
0000
0000
1000
0000
0000
0000
,
0001
0000
0100
0001
0000
0000
0000
0000
1000
0000
0000
0100
0000
0000
0000
0000
,
0010
0000
0001
0010
0000
0000
0000
0000
0100
0000
0000
1000
0000
0000
0000
0000
,
0010
0000
0100
0010
0000
0000
0000
0000
1000
0000
0000
0001
0000
0000
0000
0000
,
0010
0000
0100
0010
0000
0000
0001
0000
1000
0000
0000
0010
1000
0000
0000
0000
,
1000
0000
0100
1000
0000
0000
0000
0000
0001
0000
0000
0100
0000
0000
0000
0000
,
0010
0000
1000
0010
0000
0000
0000
0000
0100
0000
0000
0001
0000
0000
0000
0000
,
0010
0000
0100
0010
0000
0000
0000
0000
0001
0000
0000
1000
0000
0000
0000
0000
,
0010
0000
0100
0010
0000
0000
1000
0000
0001
0000
0000
0010
0001
0000
0000
0000
,
0001
0000
0000
0100
0000
0000
0010
0000
2000
0000
0000
0000
3001
0000
0000
0000
,
1000
0000
0000
0100
0000
0000
0010
0000
0002
0000
0000
0000
1003
0000
0000
0000
,
0010
0000
0000
0100
0000
0000
0001
0000
2000
0000
0000
0000
3001
0000
0000
0000
,
0010
0000
0000
0100
0000
0000
0220
0000
0000
0000
0000
0000
0330
0000
0000
0000
,
0000
0000
1001
0000
0001
0000
0100
0010
,
1000
0000
0001
0000
1000
0000
0100
0010
,
0001
0000
0000
0001
0000
0000
0001
0000
1000
0000
0000
1000
0000
0000
1000
0000
,
0010
0000
0000
0100
0000
0000
0220
0000
0000
0000
0330
0000
0001
0000
0000
1000
,
0000
0000
0100
0000
0000
0010
0000
0000
0110
0000
0000
0000
1000
0000
0010
0000
,
1000
0010
0001
0010
1000
0000
0100
0010
,
0100
0010
0001
1000
0010
0000
0100
0001
,
0010
0000
0100
1000
0010
0000
0100
0001
,
1000
0001
0010
0000
0100
0000
1000
0010
,
0100
0000
0001
0100
0010
0000
1000
0100
,
0010
0001
1000
0000
0010
0100
0010
1000
,
0001
1000
0000
0100
0010
0001
0200
0000
,
0320
0000
1030
0001
1000
0000
0001
0010
,
0001
0010
1000
0010
0001
0000
0100
0010
,
0100
0010
1000
0001
0010
0000
0100
1000
,
0010
0000
0100
0001
0010
0000
0100
1000
,
0001
1000
0010
0000
0100
0000
0001
0010
,
0100
0000
1000
0100
0010
0000
0001
0100
,
0010
1000
0001
0000
0010
0100
0010
0001
,
1000
0001
0000
0100
0010
1000
0200
0000
,
0320
0000
0031
1000
0001
0000
0100
0010
,
0100
0000
0000
0000
0001
0000
1000
0000
0001
0000
0000
0000
0010
0000
0000
0100
,
0000
2002
0000
0000
0000
0000
0000
0000
,
0000
0000
0000
0000
,
0000
0000
0000
0000
,
0000
3003
0000
0000
;

//---------------dance-single - Daff_4K----------------
#NOTES:
     dance-single:
     Daff_4K:
     Challenge:
     12:
     0.477495,0.521250,0.548093,0.359405,0.372883,372.000000,311.000000,61.000000,40.000000,0.000000,0.000000,0.477495,0.521250,0.548093,0.359405,0.372883,372.000000,311.000000,61.000000,40.000000,0.000000,0.000000:
0000
0000
0000
0000
,
0000
0000
0000
0000
,
0000
0000
0000
0000
,
0000
0000
0000
0000
,
1000
0000
0100
0000
1000
0000
0010
0100
0010
0000
1000
0000
0001
0000
0000
0000
,
0001
0000
1000
0000
0100
0000
1000
0001
1000
0000
0010
0000
0100
0000
0000
0000
,
0001
0000
0100
0000
0001
0000
0010
0100
0010
0000
0001
0000
1000
0000
0000
0000
,
1000
0000
0001
0000
0100
0000
0001
1000
0001
0000
0010
0000
0100
0000
0000
0000
,
2000
0000
0000
0010
0000
0000
0010
0000
0000
0000
0001
0000
3001
0000
0000
0000
,
0002
0000
0000
0010
0000
0000
0010
0000
0000
0000
1000
0000
1003
0000
0000
0000
,
0201
0000
0000
1300
0000
0000
0000
0000
0201
0000
0000
0310
0000
0000
0000
0000
,
2010
0000
0000
3100
0000
0000
0000
0000
2010
0000
0000
3001
0000
0000
0000
0000
,
1200
0000
0000
0310
0000
0000
0000
0000
0012
0000
0000
1003
0000
0000
0000
0000
,
1020
0000
0000
0130
0000
0000
0001
0000
0020
0000
0000
0130
0000
0000
0000
0000
,
1200
0000
0000
0301
0000
0000
0000
0000
1200
0000
0000
0310
0000
0000
0000
0000
,
0012
0000
0000
0103
0000
0000
0000
0000
0012
0000
0000
1003
0000
0000
0000
0000
,
0201
0000
0000
0310
0000
0000
0000
0000
2010
0000
0000
3001
0000
0000
0000
0000
,
0021
0000
0000
0130
0000
0000
1000
0000
0010
0100
0000
0010
0100
0000
0000
0000
,
0011
0000
1000
0010
0000
0000
0000
0000
0101
0000
0000
1010
0000
0000
0000
0000
,
1100
0000
0001
0100
0000
0000
0000
0000
1010
0000
0000
0101
0000
0000
0000
0000
,
1100
0000
0010
0001
0000
0000
0000
0000
0110
0000
0000
1001
0000
0000
0000
0000
,
0011
0000
1000
0010
0000
0000
0100
0000
0001
1000
0000
0000
0100
0000
0000
0000
,
1010
0000
0001
0010
0000
0000
0000
0000
1100
0000
0000
0011
0000
0000
0000
0000
,
0101
0000
1000
0100
0000
0000
0000
0000
0011
0000
0000
1100
0000
0000
0000
0000
,
0101
0000
0010
1000
0000
0000
0000
0000
0110
0000
0000
1001
0000
0000
0000
0000
,
1010
0000
0001
0010
0000
0000
0100
0000
1000
0001
0000
0000
0100
0000
0000
0000
,
1001
0000
0000
1100
0000
0000
0202
0000
0000
0000
0003
0000
0310
0000
0000
0000
,
0110
0000
0000
1001
0000
0000
2200
0000
0000
0000
3000
0000
0310
0000
0000
0000
,
1001
0000
0000
0101
0000
0000
2200
0000
0000
0000
3000
0000
0310
0000
0000
0000
,
1001
0000
0000
0110
0000
0000
2002
0000
0000
0000
3003
0000
0220
0000
0000
0000
,
0330
0000
0000
0000
1001
0000
0000
1000
0100
0000
0000
0001
0100
0000
0010
0000
,
0100
0000
0000
1000
0001
0000
0000
0001
0100
0000
0000
1000
0100
0000
0010
0000
,
1000
0000
0000
0001
0000
0000
1100
0000
0001
0000
0000
1000
0000
0000
0101
0000
,
1001
0000
0000
0110
0000
0000
2002
0000
0000
0000
3003
0000
1010
0000
0000
0101
,
0000
0000
0011
0000
0000
1100
0000
0000
1001
0000
0000
0000
0001
0100
0001
0000
,
1000
0100
0000
0010
0000
0001
0000
1000
0000
0000
0010
0100
0000
0010
0000
1000
,
0001
1000
0100
0010
0001
1000
0010
0001
,
0100
2000
0000
3010
0100
0010
0001
1000
,
0100
0002
0000
0013
0100
1000
0010
0100
,
0001
0000
1000
0001
1000
0000
0100
0000
0010
0000
0001
0000
1000
0000
0010
0100
,
0000
0010
1000
0000
0001
0000
0010
0100
0010
0000
0001
0000
0100
0000
0010
1000
,
0010
2000
0000
3100
0010
0001
0200
0000
,
0310
0000
1000
0000
0100
0000
0010
0100
0010
0000
0001
0000
1000
0100
1000
0000
,
0001
0100
0000
0010
0000
1000
0000
0001
0000
0000
0010
0100
0000
0010
0000
0001
,
1000
0001
0100
0010
1000
0001
0010
1000
,
0100
0002
0000
0013
0100
0010
1000
0001
,
0100
2000
0000
3010
0100
0001
0010
0100
,
1000
0000
0001
1000
0001
0000
0100
0000
0010
0000
1000
0000
0001
0000
0010
0100
,
0000
0010
0001
0000
1000
0000
0010
0100
0010
0000
1000
0000
0100
0000
0010
0001
,
0010
0000
0002
0000
0000
0000
0103
0000
0010
0000
1000
0000
0200
0000
0000
0320
,
0000
0000
0031
0000
1000
0000
0010
0100
0010
0000
0100
0000
0001
0000
0010
0000
,
1000
0000
0001
0000
0100
0000
1000
0000
0010
0000
0100
0000
1001
0000
0000
0110
,
0000
2002
0000
0000
0000
0000
0000
0000
,
0000
0000
0000
0000
,
0000
0000
0000
0000
,
0000
3003
0000
0000
;
