#TITLE:Sense 2007;
#SUBTITLE:;
#ARTIST:good-cool;
#TITLETRANSLIT:;
#SUBTITLETRANSLIT:;
#ARTISTTRANSLIT:;
#GENRE:RAVE;
#CREDIT:;
#BANNER:Sense 2007.png;
#BACKGROUND:Sense 2007-bg.png;
#LYRICSPATH:;
#CDTITLE:cdtitle.png;
#MUSIC:Sense 2007.ogg;
#OFFSET:-0.019000;
#SAMPLESTART:73.733002;
#SAMPLELENGTH:15.000000;
#SELECTABLE:YES;
#BPMS:0.000000=140.000000
;
#STOPS:
;
#BGCHANGES:0.000=Sense 2007.avi=1.000=0=0=0=StretchNoLoop==CrossFade_Fastest==,
99999=-nosongbg-=1.000=0=0=0 // don't automatically add -songbackground-
;
#KEYSOUNDS:;
#ATTACKS:;

//---------------dance-single - Daff_4K----------------
#NOTES:
     dance-single:
     Daff_4K:
     Beginner:
     3:
     0.140315,0.198557,0.050804,0.000000,0.000000,116.000000,110.000000,6.000000,0.000000,0.000000,0.000000,0.140315,0.198557,0.050804,0.000000,0.000000,116.000000,110.000000,6.000000,0.000000,0.000000,0.000000:
0000
0000
0000
0000
,
0000
0000
0000
0000
,
0000
0000
0000
0000
,
1000
0000
0010
0000
,
0010
0000
0000
0000
,
0001
0000
0010
0000
,
1000
0000
0000
0000
,
0001
0000
0010
0000
,
0010
0000
0000
0000
,
1000
0000
0010
0000
,
0001
0000
0000
0000
,
1001
0000
0000
1000
,
1000
0000
0000
0001
,
0001
0000
0010
0000
,
0100
0000
0000
0000
,
1001
0000
0000
0001
,
0001
0000
0000
1000
,
1000
0000
0010
0000
,
1001
0000
0000
0000
,
0001
0000
0100
0000
,
1000
0000
0010
0000
,
1000
0000
0100
0000
,
0001
0000
0000
0000
,
1000
0000
0100
0000
,
0001
0000
0010
0000
,
0001
0000
0100
0000
,
1000
0000
0000
0000
,
0000
0001
0000
0100
,
0000
0010
0000
0010
,
0000
1000
0000
0100
,
0100
0000
0010
0000
,
0000
0001
0000
1000
,
0000
0100
0000
0100
,
0000
0010
0000
0001
,
0001
0000
1000
0000
,
1001
0000
0000
0000
,
0000
0000
0000
0000
,
0000
0000
0000
0000
,
0000
0000
0000
0000
,
0000
0001
0000
0000
,
0000
1000
0000
0000
,
0000
0010
0000
0000
,
1001
0000
0000
0000
,
0000
0001
0001
0000
,
0010
0000
0000
0000
,
0000
1000
1000
0000
,
0010
0000
0100
0000
,
0000
1000
1000
0000
,
0010
0000
0000
0000
,
0000
0001
0001
0000
,
0010
0000
0100
0000
,
0001
0000
0000
0010
,
0010
0000
0000
1000
,
1000
0000
0000
0010
,
0010
0000
0001
0000
,
1000
0000
0000
0010
,
0010
0000
0000
0001
,
0001
0000
0000
0010
,
0010
0000
1000
0000
,
0001
0000
0000
0000
,
0100
0100
0100
0000
,
0010
0010
0010
0000
,
1000
0000
0001
0000
,
1000
0000
0000
0000
,
0100
0100
0100
0000
,
0010
0010
0010
0000
,
0001
0000
1000
0000
,
1001
0000
0000
0000
;

//---------------dance-single - Daff_4K----------------
#NOTES:
     dance-single:
     Daff_4K:
     Easy:
     6:
     0.261275,0.283653,0.042336,0.042336,0.000000,216.000000,211.000000,5.000000,5.000000,0.000000,0.000000,0.261275,0.283653,0.042336,0.042336,0.000000,216.000000,211.000000,5.000000,5.000000,0.000000,0.000000:
0000
0000
0000
0000
,
0000
0000
0000
0000
,
0000
0000
0000
0000
,
1000
0000
0001
0100
,
1000
0000
1000
0010
,
0001
0000
0001
0010
,
1000
0100
0001
1000
,
0001
0000
1000
0100
,
0001
0000
0001
0010
,
1000
0000
1000
0010
,
0001
0100
1000
0001
,
1001
0000
1000
0010
,
0001
0000
1000
0100
,
0001
0000
0010
0000
,
1000
0010
0001
1000
,
1001
0000
0001
0010
,
1000
0000
0001
0100
,
1000
0000
0001
0000
,
1001
0000
0000
0000
,
1000
0010
1000
0010
,
0001
0010
0001
0010
,
1000
0100
0001
0100
,
1000
1000
0010
0100
,
0001
0010
0001
0010
,
1000
0010
1000
0010
,
0001
0100
1000
0100
,
0001
0001
0010
0100
,
1000
0001
0100
0001
,
1000
0001
0010
0001
,
0000
1000
0100
1000
,
0010
0100
0001
1000
,
0001
1000
0100
1000
,
0001
1000
0010
1000
,
0000
0001
0100
0001
,
0010
0100
1000
0001
,
1001
0000
0000
0000
,
0000
0000
0000
0000
,
0000
0000
0000
0000
,
0000
0000
0000
0000
,
1000
0010
0000
0010
,
0001
0010
0000
0010
,
1000
0100
0000
0001
,
0200
0000
0000
0300
,
1000
0100
0001
0100
,
1000
0000
0010
0100
,
0001
0010
1000
0010
,
0001
0001
1000
1000
,
0001
0100
1000
0100
,
0001
0000
0010
0100
,
1000
0010
0001
0010
,
1000
1000
0001
0001
,
1000
0100
0001
0001
,
0100
1000
0010
0010
,
0001
0010
1000
1000
,
0002
0003
2000
3000
,
0001
0100
1000
1000
,
0100
0001
0010
0010
,
1000
0010
0001
0001
,
2000
3000
0002
0003
,
1000
0100
0001
0001
,
0010
1000
0100
0100
,
0010
0001
0100
0100
,
1000
0100
0001
1000
,
0001
0100
1000
1000
,
0010
0001
0100
0100
,
0010
1000
0100
0100
,
0001
0100
1000
0001
,
1001
0000
0000
0000
;

//---------------dance-single - Daff_4K----------------
#NOTES:
     dance-single:
     Daff_4K:
     Medium:
     10:
     0.466909,0.518196,0.186280,0.050804,0.160878,386.000000,364.000000,22.000000,6.000000,0.000000,0.000000,0.466909,0.518196,0.186280,0.050804,0.160878,386.000000,364.000000,22.000000,6.000000,0.000000,0.000000:
0000
0000
0000
0000
,
0000
0000
0000
0000
,
0000
0000
0000
0000
,
1000
0000
0010
0000
0000
0100
0000
0000
0010
0000
0001
0000
0010
0000
1000
0000
,
0001
0000
0010
0000
0000
1000
0000
0000
0010
0000
0001
0000
0100
0000
0010
0000
,
0000
0000
1000
0000
0000
0100
0000
0000
0001
0000
0100
0000
0010
0000
0001
0000
,
1000
0010
0100
0000
0001
0010
0100
1000
,
0001
0000
0010
0000
0000
0100
0000
0000
0010
0000
1000
0000
0010
0000
0001
0000
,
1000
0000
0010
0000
0000
0001
0000
0000
0010
0000
1000
0000
0100
0000
0010
0000
,
0000
0000
0001
0000
0000
0100
0000
0000
1000
0000
0100
0000
0010
0000
1000
0000
,
0001
0010
0100
0000
1000
0010
0100
0000
,
1001
0000
0001
0010
1000
0010
0001
1000
,
0000
1000
0001
0100
1000
0100
0001
0000
,
0100
0001
0010
0000
0100
1000
0010
0000
,
1010
0000
0101
0000
0001
1000
0100
0000
,
1001
0000
1000
0010
0001
0010
1000
0001
,
0000
0001
1000
0100
0001
0100
1000
0000
,
0100
1000
0010
0000
0100
0001
0010
0000
,
2002
0000
0000
3003
,
1000
0000
0000
0100
0000
0000
0001
0000
0000
0100
0000
0000
1000
0000
0010
0000
,
0100
0000
0000
0001
0000
0000
0010
0000
0000
1000
0000
0000
0010
0000
0000
0000
,
0001
0000
0000
0100
0000
0000
0010
0000
0000
1000
0000
0000
0001
0000
0000
0000
,
0110
0000
1001
0000
0001
0010
0100
1000
,
0001
0000
0000
0100
0000
0000
1000
0000
0000
0100
0000
0000
0001
0000
0010
0000
,
0100
0000
0000
1000
0000
0000
0010
0000
0000
0001
0000
0000
0010
0000
0000
0000
,
1000
0000
0000
0100
0000
0000
0010
0000
0000
0001
0000
0000
1000
0000
0000
0000
,
0110
0000
1001
0000
1000
0010
0100
0001
,
1000
0000
1100
0000
0010
0001
0100
0000
,
0010
1000
0100
0000
0001
0100
1000
0010
,
0100
0000
1001
0000
0001
0010
1000
0000
,
0010
0001
0100
0010
1000
0100
0010
0000
,
0001
0000
0101
0000
0010
1000
0100
0000
,
0010
0001
0100
0000
1000
0100
0001
0000
,
1000
0100
1000
0100
0010
0001
0010
0001
,
1000
0010
0100
0001
0010
0100
1000
0001
,
1001
0000
0000
0000
,
0000
0000
0000
0000
,
0000
0000
0000
0000
,
0000
0000
0000
0000
,
0001
0100
0001
0000
0000
0100
0010
0000
,
1000
0100
1000
0000
0000
0100
0010
0000
,
0001
1000
0001
0000
0000
1000
0001
0000
,
2002
0000
0000
3003
,
1000
0000
0100
0000
0000
0001
0000
0000
0100
0000
0000
0010
0000
0000
0001
0000
,
1000
0010
0001
0000
0010
1000
0100
0000
,
0010
0000
0001
0000
0000
0100
0000
0000
1000
0000
0000
0100
0000
0000
0010
0000
,
1000
1000
0001
0001
0010
0010
0100
1000
,
0001
0000
0100
0000
0000
1000
0000
0000
0100
0000
0000
0010
0000
0000
1000
0000
,
0001
0010
1000
0000
0010
0001
0100
0000
,
0010
0000
1000
0000
0000
0100
0000
0000
0001
0000
0000
0100
0000
0000
0010
0000
,
0001
0001
1000
1000
0010
0010
0100
0001
,
1000
0100
0001
0100
1000
0000
0011
0000
,
0001
0100
0010
1000
0001
0000
1100
0000
,
1000
0010
0001
0010
1000
0000
0101
0000
,
0001
0001
1000
1000
0100
0100
0010
0010
,
0001
0100
1000
0100
0001
0000
1010
0000
,
1000
0100
0010
0001
1000
0000
0101
0000
,
0001
0010
1000
0010
0001
0000
1100
0000
,
1000
1000
0001
0001
0100
0100
0010
0010
,
1000
0000
0000
0100
0000
0000
0001
0000
0000
0100
0000
0000
1000
0000
0010
0000
,
0100
0000
0000
0001
0000
0000
0010
0000
0000
1000
0000
0000
0001
0000
0100
0000
,
1000
0000
0000
0010
0000
0000
0001
0000
0000
0100
0000
0000
1000
0000
0010
0000
,
0100
0001
1000
0100
0010
0000
1001
0000
,
0001
0000
0000
0100
0000
0000
1000
0000
0000
0100
0000
0000
0001
0000
0010
0000
,
0100
0000
0000
1000
0000
0000
0010
0000
0000
0001
0000
0000
1000
0000
0100
0000
,
0001
0000
0000
0010
0000
0000
1000
0000
0000
0100
0000
0000
0001
0000
0010
0000
,
0100
1000
0010
0100
0001
0010
0100
1000
,
2002
0000
0000
0000
,
3003
0000
0000
0000
;

//---------------dance-single - Daff_4K----------------
#NOTES:
     dance-single:
     Daff_4K:
     Hard:
     15:
     0.693106,0.748505,0.101607,0.050804,0.677381,573.000000,561.000000,12.000000,6.000000,0.000000,0.000000,0.693106,0.748505,0.101607,0.050804,0.677381,573.000000,561.000000,12.000000,6.000000,0.000000,0.000000:
0000
0000
0000
0000
,
0000
0000
0000
0000
,
0000
0000
0000
0000
,
1000
0000
0001
0100
0000
0001
0100
0000
0010
0000
1000
0000
0100
0000
0001
0000
,
0100
0000
1000
0010
0000
0100
0010
0000
0001
0000
0010
0000
1000
0000
0100
0000
,
0010
0000
0001
1000
0000
0001
1000
0000
0010
0000
1000
0000
0100
0000
0010
0000
,
0001
0000
0100
0001
0100
0000
0010
1000
0010
0000
1000
0000
0100
0000
0010
0000
,
0001
0000
1000
0100
0000
1000
0100
0000
0010
0000
0001
0000
0100
0000
1000
0000
,
0100
0000
0001
0010
0000
0100
0010
0000
1000
0000
0010
0000
0001
0000
0100
0000
,
0010
0000
1000
0001
0000
1000
0001
0000
0010
0000
0001
0000
0100
0000
0010
0000
,
1000
0000
0100
0000
0010
0000
0001
0000
1000
0001
1000
0001
1000
0000
0001
0000
,
1001
0000
0000
1000
0010
0000
0001
0000
0100
0000
0001
0000
0010
0000
1000
0000
,
0001
0000
0000
0001
0100
0000
1000
0000
0010
0000
1000
0000
0100
0000
0001
0000
,
0010
0000
1000
0000
0010
0000
0001
0000
1000
0000
0010
0100
0010
0000
0100
0000
,
0001
0000
1000
0000
0100
0010
0000
0100
0010
0000
0001
1000
0001
0000
1000
0000
,
1001
0000
0000
0001
0010
0000
1000
0000
0100
0000
1000
0000
0010
0000
0001
0000
,
1000
0000
0000
1000
0100
0000
0001
0000
0010
0000
0001
0000
0100
0000
1000
0000
,
0001
0100
0001
0100
0001
0000
1000
0100
1000
0100
1000
0000
0001
0000
1000
0000
,
2002
0000
0000
3003
,
0001
0100
0000
0001
0100
0000
0010
1000
0000
0010
1000
0000
0001
0000
0010
0000
,
0100
1000
0000
0100
0010
0000
0001
0010
0000
0100
1000
0000
0010
0000
0001
0000
,
0010
1000
0000
0001
1000
0000
0100
0010
0000
0001
1000
0000
0001
0000
0100
0000
,
0110
0000
0000
0000
1001
0000
0000
1000
0100
0000
0010
0000
0001
1000
0001
0000
,
1000
0100
0000
1000
0100
0000
0010
0001
0000
0010
0001
0000
1000
0000
0010
0000
,
0100
0001
0000
0100
0010
0000
1000
0010
0000
0100
0001
0000
0010
0000
1000
0000
,
0010
0001
0000
1000
0001
0000
0100
0010
0000
1000
0001
0000
1000
0000
0100
0000
,
0010
0000
0001
0000
0100
0000
0010
0000
1000
0001
1000
0001
1000
0000
0001
0000
,
1001
0000
0000
0000
1000
0000
0100
0000
0010
0000
0001
0100
0000
0010
0100
0000
,
0001
0000
1000
0010
0000
0100
0010
0000
1000
0000
0100
0000
0001
0000
0010
0000
,
1000
0000
0100
0000
0001
0000
0100
0000
1000
0000
0001
0100
0000
0010
0100
0000
,
0001
0000
0010
0000
0100
0000
1000
0000
0010
0100
0010
0100
0001
0000
1000
0000
,
1001
0000
0000
0000
0001
0000
0100
0000
0010
0000
1000
0100
0000
0010
0100
0000
,
1000
0000
0001
0010
0000
0100
0010
0000
0001
0000
0100
0000
1000
0000
0010
0000
,
0001
0100
0010
1000
0100
0010
0001
1000
,
0010
0100
0010
0100
0010
0100
0010
0100
0010
0100
0010
0100
0001
0000
1000
0000
,
1001
0000
0000
0000
,
0000
0000
0000
0000
,
0000
0000
0000
0000
,
0000
0000
0000
0000
,
0001
0010
0100
0000
0000
1000
0001
0000
,
1000
0010
0100
0000
0000
0001
1000
0000
,
0001
0010
0100
0000
1000
0010
0100
0000
,
2002
0000
0000
0000
3003
0000
0000
0000
0100
0010
0100
0000
1001
0000
0000
0000
,
1000
0000
0100
0010
0000
0100
0001
0000
0100
1000
0000
0010
0100
0000
0001
0000
,
1000
0000
0001
0010
0001
0000
0100
0000
0010
0000
1000
0100
0000
0100
0010
0000
,
0001
0000
1000
0010
0000
1000
0001
0000
1000
0100
0000
0010
0001
0000
1000
0000
,
0010
0000
0001
0000
0010
0000
1000
0000
0100
0010
0100
0010
0100
0000
1000
0000
,
0001
0000
0100
0010
0000
0100
1000
0000
0100
0001
0000
0010
0100
0000
1000
0000
,
0001
0000
1000
0010
1000
0000
0100
0000
0010
0000
0001
0100
0000
0100
0010
0000
,
1000
0000
0001
0010
0000
0001
1000
0000
0001
0100
0000
0010
1000
0000
0001
0000
,
0010
0000
1000
0000
0010
0000
0001
0000
0100
0010
0100
0010
1000
0001
1000
0001
,
1000
0000
0010
0000
0100
0010
0100
0000
0001
0000
1000
0100
0000
1000
0100
0000
,
0010
0000
0001
0000
1000
0010
1000
0000
0010
0000
0100
0001
0000
0100
0001
0000
,
1000
0000
0100
0000
0010
0001
0010
0000
0001
0000
1000
0010
0000
1000
0010
0000
,
0001
0000
0010
0000
1000
0000
0100
0000
0010
0100
0010
0100
1000
0001
1000
0000
,
0001
0000
0010
0000
0100
0010
0100
0000
1000
0000
0001
0100
0000
0001
0100
0000
,
0010
0000
1000
0000
0001
0010
0001
0000
0010
0000
0100
1000
0000
0100
1000
0000
,
0001
0000
0100
0000
0010
1000
0010
0000
1000
0000
0001
0010
0000
0001
0010
0000
,
1000
0000
0010
0000
0001
0000
0100
0000
0010
0100
0010
0100
0001
1000
0001
0000
,
1000
0100
0000
0100
1000
0000
1000
0001
0000
0001
1000
0000
0010
0000
0100
0000
,
0001
0010
0000
0010
1000
0000
1000
0100
0000
0100
0001
0000
0010
0000
0100
0000
,
1000
0010
0000
0010
0001
0000
0001
0010
0000
0010
1000
0000
0100
0000
0010
0000
,
0001
0100
0000
0010
1000
0000
0100
0010
0001
0000
1000
0000
1001
0000
0000
0000
,
0001
0100
0000
0100
0001
0000
0001
1000
0000
1000
0001
0000
0010
0000
0100
0000
,
1000
0010
0000
0010
0001
0000
0001
0100
0000
0100
1000
0000
0010
0000
0100
0000
,
0001
0010
0000
0010
1000
0000
1000
0010
0000
0010
0001
0000
0100
0000
0010
0000
,
1000
0100
1000
0100
0010
0001
0010
0001
0100
0010
0100
0010
1000
0000
0001
0000
,
2002
0000
0000
0000
,
3003
0000
0000
0000
;

//---------------dance-single - King of Sense "Daff_4K"----------------
#NOTES:
     dance-single:
     King of Sense "Daff_4K":
     Challenge:
     16:
     0.793503,0.834872,0.101607,0.025402,0.952566,656.000000,644.000000,12.000000,3.000000,0.000000,0.000000,0.793503,0.834872,0.101607,0.025402,0.952566,656.000000,644.000000,12.000000,3.000000,0.000000,0.000000:
// measure 0
0000
0000
0000
0000
,  // measure 1
0000
0000
0000
0000
,  // measure 2
0000
0000
0000
0000
,  // measure 3
1000
0000
0001
0100
0000
0010
0100
0000
0001
1000
0001
0000
0010
0000
0100
0000
,  // measure 4
1000
0001
1000
0001
0000
0100
0010
0000
1000
0100
1000
0000
0100
0000
0001
0000
,  // measure 5
0100
0000
1000
0010
0000
0100
0010
0000
1000
0001
1000
0000
0100
0000
0010
0000
,  // measure 6
0001
0100
0010
0100
0010
1000
0000
0100
0000
0001
0100
0000
1000
0000
0001
0010
,  // measure 7
0001
0000
1000
0100
0000
0010
0100
0000
1000
0001
1000
0000
0010
0000
0100
0000
,  // measure 8
0001
1000
0001
1000
0000
0100
0010
0000
0001
0100
0001
0000
0100
0000
1000
0000
,  // measure 9
0100
0000
0001
0010
0000
0100
0010
0000
0001
1000
0001
0000
0100
0000
0010
0000
,  // measure 10
1000
0100
1000
0100
0010
0001
0010
0001
0100
0010
0100
0010
1000
0000
0001
0000
,  // measure 11
1001
0000
0000
1000
0100
0000
0001
0000
0010
0000
0001
0000
0100
0000
1000
0000
,  // measure 12
0001
0000
0100
0001
0100
0000
1000
0000
0010
0000
1000
0000
0100
0000
0001
0000
,  // measure 13
1000
0000
0100
0000
0001
0000
0010
0000
1000
0000
0100
0010
0100
0000
0010
0000
,  // measure 14
0001
0000
1000
0001
0000
1000
0010
0000
0100
0001
0100
0001
1000
0001
1000
0000
,  // measure 15
1001
0000
0000
0001
0010
0000
1000
0000
0100
0000
1000
0000
0010
0000
0001
0000
,  // measure 16
1000
0000
0010
1000
0010
0000
0001
0000
0100
0000
0001
0000
0010
0000
1000
0000
,  // measure 17
0100
0010
0100
0010
0001
0000
0100
0010
0100
0010
1000
0000
0001
1000
0001
2000
,  // measure 18
0002
0000
0000
0000
0000
0000
0000
0000
0000
0000
0000
0000
3003
0000
0001
1000
,  // measure 19
0001
0010
0000
0001
1000
0000
0001
0100
0000
0010
1000
0000
0100
0000
0001
0000
,  // measure 20
0100
1000
0000
0001
1000
0000
0010
0100
0000
0001
0010
0000
0100
0010
0100
0000
,  // measure 21
1000
0010
0000
0100
0001
0000
0010
0100
0000
1000
0001
0000
0100
0010
1000
0000
,  // measure 22
0001
0010
0001
0000
1000
0100
1000
0000
0001
0100
0001
0000
1000
0001
1000
0001
,  // measure 23
1000
0010
0000
1000
0001
0000
1000
0100
0000
0010
0001
0000
0100
0000
1000
0000
,  // measure 24
0100
0001
0000
1000
0001
0000
0010
0100
0000
1000
0010
0000
0100
0010
0100
0000
,  // measure 25
0001
1000
0001
1000
0010
0000
0100
0001
1000
0001
1000
0000
0100
0010
0001
0000
,  // measure 26
1000
0001
1000
0001
1000
0001
0100
0010
0100
0010
0100
0010
1000
0000
0001
0000
,  // measure 27
0101
0000
0000
0100
0010
0000
1000
0000
0100
0000
0001
0100
0000
0010
0100
0000
,  // measure 28
1000
0000
0010
0100
0000
0010
0001
0000
1000
0000
0100
0010
0100
0000
0001
0000
,  // measure 29
1000
0000
0100
0000
0001
0000
0100
0000
1000
0000
0010
0100
0000
0001
1000
0000
,  // measure 30
0001
0100
0001
0000
1000
0010
1000
0000
0001
1000
0001
1000
0001
0000
1000
0000
,  // measure 31
1100
0000
0000
0100
0010
0000
0001
0000
0100
0000
1000
0100
0000
0010
0100
0000
,  // measure 32
0001
0000
0010
0100
0000
0010
1000
0000
0001
0000
0100
0010
0100
0000
1000
0000
,  // measure 33
0001
0100
0001
0100
0001
0000
0100
0000
0010
1000
0010
1000
0010
0000
1000
0000
,  // measure 34
0001
1000
0001
1000
0100
0010
0100
0010
0001
1000
0010
0100
0001
0000
1000
0000
,  // measure 35
1001
0000
0000
0000
,  // measure 36
0000
0000
0000
0000
,  // measure 37
0000
0000
0000
0000
,  // measure 38
0000
0000
0000
0000
,  // measure 39
0001
0100
0010
0000
0000
0010
1000
0000
,  // measure 40
1000
0100
0010
0000
0000
0010
0001
0000
,  // measure 41
1000
0010
0100
0000
0001
0010
0100
0000
,  // measure 42
1000
0100
1000
0000
0001
0100
0001
0000
1000
0100
0010
0100
0010
0001
1000
0000
,  // measure 43
1001
0000
0001
0100
0000
0100
1000
0000
1000
0001
0000
0001
0010
0000
1000
0000
,  // measure 44
0100
0010
0100
0010
0001
0000
1000
0000
0010
0000
0100
0001
0000
1000
0100
0000
,  // measure 45
0010
0000
0001
1000
0000
1000
0010
0000
0010
0001
0000
0001
0010
0000
1000
0000
,  // measure 46
1100
0000
0110
0000
0011
0000
1001
0000
1000
0010
0100
0001
1000
0000
0001
0000
,  // measure 47
1001
0000
1000
0100
0000
0100
0001
0000
0001
1000
0000
1000
0010
0000
0001
0000
,  // measure 48
0100
0010
0100
0010
1000
0000
0001
0000
0010
0000
0100
1000
0000
0001
0100
0000
,  // measure 49
0010
0000
1000
0001
0000
0001
0010
0000
0010
1000
0000
1000
0010
0000
0001
0000
,  // measure 50
1000
0100
1000
0100
0010
0001
0010
0001
0100
0010
0100
0010
1000
0001
1000
0000
,  // measure 51
0001
0000
0100
0000
0010
1000
0001
0000
0010
0000
1000
0001
0000
0001
0100
0000
,  // measure 52
1000
0000
0010
0000
0100
0001
1000
0000
0100
0000
0001
1000
0000
1000
0010
0000
,  // measure 53
0001
0000
1000
0000
0010
0100
0001
0000
1000
0000
0100
0001
0000
0001
0100
0000
,  // measure 54
1000
0010
1000
0010
0100
0001
0100
0001
1000
0100
0010
0001
1000
0001
0100
0010
,  // measure 55
1000
0000
0100
0000
0010
0001
1000
0000
0010
0000
0001
1000
0000
1000
0100
0000
,  // measure 56
0001
0000
0010
0000
0100
1000
0001
0000
0100
0000
1000
0001
0000
0001
0010
0000
,  // measure 57
1000
0000
0001
0000
0010
0100
1000
0000
0001
0000
0100
1000
0000
1000
0100
0000
,  // measure 58
0001
0010
0001
0010
0100
1000
0100
1000
0001
0100
0010
1000
0001
1000
0100
0010
,  // measure 59
0001
0100
0000
1000
0100
0000
0001
0010
0000
0100
0010
0000
0001
0000
1000
0000
,  // measure 60
0010
0100
0010
1000
0001
0000
0010
0100
0010
0001
1000
0000
0010
0000
0100
0000
,  // measure 61
0001
0010
0001
1000
0010
0000
0100
0001
1000
0100
1000
0000
0010
0000
0100
0000
,  // measure 62
0001
0010
0100
0010
0001
1000
0010
0100
0010
1000
0001
0000
1001
0000
0000
0000
,  // measure 63
1000
0100
0000
0001
0100
0000
1000
0010
0000
0100
0010
0000
1000
0000
0001
0000
,  // measure 64
0010
0100
0010
0001
1000
0000
0010
0100
0010
1000
0001
0000
0010
0000
0100
0000
,  // measure 65
1000
0010
1000
0001
0010
0000
0100
1000
0001
0100
0001
0000
0010
0000
0100
0000
,  // measure 66
1000
0010
0100
0010
1000
0001
0010
0100
0010
0001
0100
0010
1000
0100
0010
0001
,  // measure 67
0200
0000
0000
0000
,  // measure 68
0300
0000
0000
0000
;
