#TITLE:Scheiße;
#SUBTITLE:;
#ARTIST:Lady Gaga;
#TITLETRANSLIT:Scheisse;
#SUBTITLETRANSLIT:;
#ARTISTTRANSLIT:;
#GENRE:ELECTRO-POP;
#CREDIT:;
#BANNER:Scheisse.png;
#BACKGROUND:Scheisse-bg.png;
#LYRICSPATH:;
#CDTITLE:cdtitle.png;
#MUSIC:Scheisse.ogg;
#OFFSET:-0.860000;
#SAMPLESTART:55.785000;
#SAMPLELENGTH:15.000000;
#SELECTABLE:YES;
#BPMS:0.000000=131.000000
;
#STOPS:
;
#BGCHANGES:;
#KEYSOUNDS:;
#ATTACKS:;

//---------------dance-single - Daff_4K----------------
#NOTES:
     dance-single:
     Daff_4K:
     Beginner:
     1:
     0.096231,0.133113,0.019812,0.000000,0.000000,68.000000,66.000000,2.000000,0.000000,0.000000,0.000000,0.096231,0.133113,0.019812,0.000000,0.000000,68.000000,66.000000,2.000000,0.000000,0.000000,0.000000:
0000
0000
0000
0000
,
0000
0000
0000
0000
,
0000
0000
0000
0000
,
0000
0000
0000
0000
,
0000
0000
0000
0000
,
0000
0000
0000
0000
,
1000
0000
0000
0000
,
1000
0000
0000
0000
,
0001
0000
0000
0000
,
0001
0000
0000
0000
,
0100
0000
0000
0000
,
0010
0000
0000
0000
,
1000
0000
0000
0000
,
0001
0000
1000
0000
,
0100
0000
0000
0000
,
0010
0000
0000
0000
,
0001
0000
0000
0000
,
1000
0000
0000
0000
,
0001
0000
0100
0000
,
0001
0000
0000
0000
,
0010
0000
0010
0000
,
0100
0000
0000
0000
,
1000
0000
0100
0000
,
1000
0000
0000
0000
,
0010
0000
0010
0000
,
0100
0000
0000
0000
,
0001
0000
0000
0000
,
0001
0000
0000
0000
,
1000
0000
0000
0000
,
1000
0000
0000
0000
,
1001
0000
0000
0000
,
0001
0000
0100
0000
,
0001
0000
0000
0000
,
1000
0000
0000
0000
,
1001
0000
0000
0000
,
1000
0000
0100
0000
,
1000
0000
0000
0000
,
0001
0000
0000
0000
,
0100
0100
0100
0100
,
0000
0000
0000
0000
,
0010
0010
0010
0010
,
0000
0000
0000
0000
,
1000
1000
1000
1000
,
0000
0000
0000
0000
,
0001
0001
0001
0001
,
0000
0000
0000
0000
,
1000
0000
0000
0000
,
1000
0000
0000
0000
,
0010
0000
0000
0000
,
0100
0000
0100
0000
,
0001
0000
0000
0000
,
0001
0000
0000
0000
,
0010
0000
0000
0000
,
0100
0000
0100
0100
;

//---------------dance-single - Daff_4K----------------
#NOTES:
     dance-single:
     Daff_4K:
     Easy:
     3:
     0.193876,0.239604,0.039624,0.118873,0.000000,137.000000,133.000000,4.000000,12.000000,0.000000,0.000000,0.193876,0.239604,0.039624,0.118873,0.000000,137.000000,133.000000,4.000000,12.000000,0.000000,0.000000:
0000
0000
0000
0000
,
0000
0000
0000
0000
,
0000
0000
0000
0000
,
0000
0000
0000
0000
,
0000
0000
0000
0000
,
0000
0000
0000
0000
,
2000
0000
3000
0000
,
0002
0000
0003
0000
,
0200
0000
0300
0000
,
0020
0000
0030
0000
,
1000
0100
1000
0000
,
1000
0001
1000
0000
,
0010
0100
0001
0000
,
0010
0100
1000
0000
,
0001
0100
0001
0000
,
0001
1000
0001
0000
,
0010
0100
1000
0000
,
0010
0100
0001
0000
,
1000
0100
0001
0000
,
0001
0100
1000
0000
,
0010
0100
0001
0100
,
0010
1000
0001
0000
,
0001
0100
1000
0000
,
1000
0100
0001
0000
,
0010
0100
1000
0100
,
0010
0001
1000
0000
,
2000
0000
0000
3000
,
0020
0000
0000
0030
,
0200
0000
0000
0300
,
0002
0000
0000
0003
,
1001
0000
1000
0100
,
0010
0001
0100
0000
,
0110
0000
0010
1000
,
0100
0010
0001
0000
,
1001
0000
0001
0100
,
0010
1000
0100
0000
,
0110
0000
0010
0001
,
0100
0010
1000
0000
,
0001
0100
1000
0100
,
0002
0000
1003
0000
,
1000
0100
0010
0001
,
0200
0000
0310
0000
,
1000
0100
0001
0100
,
2000
0000
3001
0000
,
0001
0100
0010
1000
,
0200
0000
0310
0000
,
0001
0100
0010
0000
,
0100
0001
1000
0000
,
0001
0010
1000
0010
,
0001
1000
0001
0000
,
1000
0100
0010
0000
,
0100
1000
0001
0000
,
1000
0010
0001
0010
,
1000
0001
1000
0001
;

//---------------dance-single - Daff_4K----------------
#NOTES:
     dance-single:
     Daff_4K:
     Medium:
     6:
     0.291522,0.320214,0.039624,0.336807,0.000000,206.000000,202.000000,4.000000,34.000000,0.000000,0.000000,0.291522,0.320214,0.039624,0.336807,0.000000,206.000000,202.000000,4.000000,34.000000,0.000000,0.000000:
0000
0000
0000
0000
,
0000
0000
0000
0000
,
0000
0000
0000
0000
,
0000
0000
0000
0000
,
0000
0000
0000
0000
,
0000
0000
0000
0000
,
2000
0000
3000
0000
,
0002
0000
0003
0000
,
0200
0000
0300
0000
,
0001
1000
0001
1000
0000
0000
0000
0000
,
0001
0000
0010
0100
0000
0100
0010
0000
,
0001
0000
1000
0010
0000
0100
0010
0000
,
1000
0000
0001
0010
0000
0010
0100
0000
,
1000
0000
0001
1000
0000
0000
0000
0000
,
1000
0000
0010
0100
0000
0100
0010
0000
,
1000
0000
0001
0010
0000
0100
0010
0000
,
0001
0000
1000
0010
0000
0010
0100
0000
,
0001
1000
0100
0010
,
0001
0100
0010
0100
,
0001
0000
1000
0000
0100
0010
0100
0010
,
0001
0000
1000
0000
0010
0100
0010
0000
,
2000
3000
0002
0003
,
1000
0100
0010
0100
,
1000
0000
0001
0000
0100
0010
0100
0010
,
1000
0000
0001
0000
0010
0100
0010
0000
,
0002
0003
2000
3000
,
0002
0100
0100
0003
,
2000
0100
0100
3000
,
0020
0100
0100
0030
,
1000
0001
1000
0001
,
2002
3003
1000
0010
,
0001
0000
0010
0000
1000
0100
1000
0000
,
0220
0000
0330
0000
0001
0010
0001
0000
,
1000
0010
0100
0001
,
2002
3003
0001
0010
,
1000
0000
0010
0000
0001
0100
0001
0000
,
0220
0000
0330
0000
1000
0010
1000
0000
,
0001
0010
0100
1000
,
0002
0203
0320
2030
,
3100
0000
0010
0000
0001
1000
0001
0000
,
0200
0320
2030
3002
,
0013
0100
0010
0000
0100
1000
0001
0000
,
2000
3200
0320
0032
,
0103
0000
0010
0000
1000
0001
1000
0000
,
0200
0320
0032
2003
,
3010
0100
0010
0000
0100
0001
1000
0000
,
0001
0000
0010
0100
0000
0010
0001
0000
,
1000
0000
0001
0100
0000
0010
1000
0000
,
0100
0000
0010
0001
0000
0001
1000
0000
,
0010
0100
0010
0000
1000
0000
0001
0000
,
1000
0000
0010
0100
0000
0010
1000
0000
,
0001
0000
1000
0100
0000
0010
0001
0000
,
0100
0000
0010
1000
0000
1000
0001
0000
,
0010
0100
0010
0000
0001
0000
1000
0001
;

//---------------dance-single - Daff_4K----------------
#NOTES:
     dance-single:
     Daff_4K:
     Hard:
     11:
     0.438698,0.453637,0.079249,0.396244,0.287277,310.000000,302.000000,8.000000,40.000000,0.000000,0.000000,0.438698,0.453637,0.079249,0.396244,0.287277,310.000000,302.000000,8.000000,40.000000,0.000000,0.000000:
// measure 0
0000
0000
0000
0000
,  // measure 1
0000
0000
0000
0000
,  // measure 2
0000
0000
0000
0000
,  // measure 3
0000
0000
0000
0000
,  // measure 4
0000
0000
0000
0000
,  // measure 5
0000
0000
0000
0000
,  // measure 6
1000
0000
0000
0100
0000
0000
2000
0000
0000
0000
3000
0000
0000
0000
0000
0000
,  // measure 7
0001
0000
0000
0100
0000
0000
0002
0000
0000
0000
0003
0000
0000
0000
0000
0000
,  // measure 8
0010
0000
0000
0100
0000
0000
0020
0000
0000
0000
0030
0000
0000
0000
0000
0000
,  // measure 9
0001
1000
0010
0200
0000
0301
0010
0100
,  // measure 10
1000
0000
0000
0010
0000
0000
0200
0000
0000
0000
0301
0000
0010
0000
0100
0000
,  // measure 11
0010
0000
0000
0001
0000
0000
2000
0000
0000
0000
3010
0000
0100
0000
0010
0000
,  // measure 12
0001
0000
0000
0010
0000
0000
2000
0000
0000
0000
3001
0000
0010
0000
0100
0000
,  // measure 13
0010
0000
0001
1000
0000
0001
1000
0000
0000
0000
0000
0000
0000
0000
0000
0000
,  // measure 14
0001
0000
0000
0010
0000
0000
0200
0000
0000
0000
1300
0000
0010
0000
0100
0000
,  // measure 15
0010
0000
0000
1000
0000
0000
0002
0000
0000
0000
0013
0000
0100
0000
0010
0000
,  // measure 16
1000
0000
0000
0010
0000
0000
0002
0000
0000
0000
1003
0000
0010
0000
0100
0000
,  // measure 17
0010
0000
1000
0001
0000
1000
0001
0000
0010
0000
0100
0000
1000
0000
0001
0000
,  // measure 18
1000
0000
0000
0100
0000
0000
0020
0000
0000
0000
0130
0000
1000
0000
0001
0000
,  // measure 19
1000
0000
0000
0010
0000
0000
0200
0000
0000
0000
0301
0000
0010
0000
1000
0000
,  // measure 20
0010
0000
0000
0001
0000
0000
0200
0000
0000
0000
0301
0000
1000
0000
0100
1000
,  // measure 21
0000
0000
1000
0000
0001
0000
0100
0001
0000
0000
0010
0000
0100
0000
1000
0000
,  // measure 22
0001
0000
0000
0100
0000
0000
0020
0000
0000
0000
0130
0000
0001
0000
1000
0000
,  // measure 23
0001
0000
0000
0010
0000
0000
0200
0000
0000
0000
1300
0000
0010
0000
0001
0000
,  // measure 24
0010
0000
0000
1000
0000
0000
0200
0000
0000
0000
1300
0000
0001
0000
0100
0001
,  // measure 25
0000
0000
0001
0000
1000
0000
0100
1000
0000
0000
0010
0000
0100
0000
0001
0000
,  // measure 26
2000
0000
0000
0000
0100
0000
0000
0100
0000
0000
3100
0000
0010
0000
0000
0000
,  // measure 27
0002
0000
0000
0000
0100
0000
0000
0100
0000
0000
0103
0000
0010
0000
0000
0000
,  // measure 28
2000
0000
0000
0000
0001
0000
0000
0001
0000
0000
3001
0000
0010
0000
0000
0000
,  // measure 29
0200
0000
0000
0000
0010
0000
0000
0010
0000
0000
0010
0000
0000
0310
0000
0000
,  // measure 30
2002
0000
0000
0000
3003
0000
0001
0000
0100
0010
0100
0000
0001
0000
0010
0000
,  // measure 31
0100
0000
0000
1000
0001
0000
0000
0001
0100
0000
0010
0000
1000
0000
0000
0000
,  // measure 32
2200
0000
0000
0000
3300
0000
0010
0000
0001
0010
0001
0000
1000
0000
0020
0000
,  // measure 33
0000
0130
0001
0010
0100
1000
0001
0000
,  // measure 34
2002
0000
0000
0000
3003
0000
1000
0000
0100
0010
0100
0000
1000
0000
0010
0000
,  // measure 35
0100
0000
0000
0001
1000
0000
0000
1000
0100
0000
0010
0000
0001
0000
0000
0000
,  // measure 36
0202
0000
0000
0000
0303
0000
0010
0000
1000
0010
1000
0000
0001
0000
0020
0000
,  // measure 37
0000
0130
1000
0010
0100
0001
1000
0000
,  // measure 38
1001
0000
0000
0001
0010
0000
0000
0010
0100
0000
0000
0100
1000
0000
0002
0000
,  // measure 39
0000
0103
0010
0100
0001
1000
0001
0000
,  // measure 40
0011
0000
0000
0010
0100
0000
0000
0100
1000
0000
0000
1000
0001
0000
0200
0000
,  // measure 41
0000
0310
1000
0100
0001
0100
1000
0000
,  // measure 42
1001
0000
0000
1000
0010
0000
0000
0010
0100
0000
0000
0100
0001
0000
2000
0000
,  // measure 43
0000
3100
0010
0100
1000
0001
1000
0000
,  // measure 44
1010
0000
0000
0010
0100
0000
0000
0100
0001
0000
0000
0001
1000
0000
0200
0000
,  // measure 45
0000
0310
0001
0100
1000
0100
0001
0000
,  // measure 46
1000
0000
0000
0100
0000
0000
0020
0000
0000
0000
0031
0000
0100
0000
0010
0000
,  // measure 47
1000
0000
0000
0001
0000
0000
0020
0000
0000
0000
0130
0000
1000
0000
0001
0000
,  // measure 48
1000
0000
0000
0010
0000
0000
0200
0000
0000
0000
0301
0000
1000
0000
0100
0000
,  // measure 49
0010
0000
0001
1000
0000
0001
1000
0000
0010
0000
0100
0000
0010
0000
1000
0000
,  // measure 50
0001
0000
0000
0100
0000
0000
0020
0000
0000
0000
1030
0000
0100
0000
0010
0000
,  // measure 51
0001
0000
0000
1000
0000
0000
0020
0000
0000
0000
0130
0000
0001
0000
1000
0000
,  // measure 52
0001
0000
0000
0010
0000
0000
0200
0000
0000
0000
1300
0000
0001
0000
0100
0000
,  // measure 53
0010
0000
1000
0001
0000
1000
0001
0000
0010
0000
0100
0000
1000
0000
0001
0000
;

//---------------dance-single - Daff doesn't speak German but he can if you like.----------------
#NOTES:
     dance-single:
     Daff doesn't speak German but he can if you like.:
     Challenge:
     13:
     0.556156,0.560375,0.307089,0.376431,0.336807,393.000000,362.000000,31.000000,38.000000,0.000000,0.000000,0.556156,0.560375,0.307089,0.376431,0.336807,393.000000,362.000000,31.000000,38.000000,0.000000,0.000000:
0000
0000
0000
0000
,
0000
0000
0000
0000
,
0000
0000
0000
0000
,
0000
0000
0000
0000
,
0000
0000
0000
0000
,
0000
0000
0000
0000
,
1000
0000
0000
0100
0000
0000
0002
0000
0000
0000
0003
0000
0100
0000
0010
0000
,
0001
0000
0000
0100
0000
0000
2000
0000
0000
0000
3000
0000
0100
0000
0010
0000
,
1000
0000
0000
0001
0000
0000
0020
0000
0000
0000
0030
0000
0100
0000
1000
0000
,
0001
0000
0100
0010
0000
0100
0010
0000
1000
0000
1000
0000
0001
0000
0001
0000
,
1000
0000
0100
0010
0000
0100
2000
0000
0000
0000
3001
0000
0100
0000
1000
0000
,
0100
0000
0001
1000
0000
0001
0020
0000
0000
0000
1030
0000
0010
0000
0001
0000
,
1000
0000
0001
0100
0000
0010
0100
0000
0010
0000
1000
0000
0100
0000
0001
0000
,
0100
0000
1000
0001
0000
1000
0001
0000
0000
0000
1000
0000
0100
0000
0010
0000
,
0001
0000
0100
0010
0000
0100
0002
0000
0000
0000
1003
0000
0100
0000
0001
0000
,
0100
0000
1000
0001
0000
1000
0020
0000
0000
0000
0031
0000
0010
0000
1000
0000
,
0001
0000
1000
0100
0000
0010
0100
0000
0002
0000
0000
0000
0103
0000
1000
0000
,
0001
0000
0100
0010
0000
0100
0010
0000
1000
0000
0100
0000
0010
0000
0001
0000
,
0101
0000
0000
0110
0000
0000
2010
0000
0000
0000
3001
0000
1000
0000
0100
0000
,
0110
0000
0000
0011
0000
0000
0201
0000
0000
0000
0310
0000
1001
0000
0010
0000
,
1001
0000
0000
1100
0000
0000
0012
0000
0000
0000
1003
0000
0001
0000
0100
0020
,
0000
0000
1030
0000
0001
0000
0100
0020
0000
0000
1030
0000
0001
0000
1000
0000
,
1100
0000
0000
0110
0000
0000
0012
0000
0000
0000
1003
0000
0001
0000
0100
0000
,
0110
0000
0000
1010
0000
0000
1200
0000
0000
0000
0310
0000
1001
0000
0010
0000
,
1001
0000
0000
0101
0000
0000
2010
0000
0000
0000
3001
0000
1000
0000
0100
0020
,
0000
0000
0031
0000
1000
0000
0100
0020
0000
0000
0031
0000
1000
0000
0001
0000
,
0200
0000
0000
0000
0010
0000
0000
0010
0000
0000
0310
0000
1000
0000
1001
0000
,
0002
0000
0000
0000
0010
0000
0000
0010
0000
0000
0013
0000
0100
0000
1100
0000
,
2000
0000
0000
0000
0010
0000
0000
0010
0000
0000
3010
0000
0100
0000
0101
0000
,
0002
0000
0000
0000
1000
0000
0000
1000
0000
0000
1000
0000
0000
1003
0000
0000
,
2001
0000
0000
0000
3100
0000
1000
0000
0001
1000
0001
0000
0100
0000
1000
0000
,
0200
0000
0310
1000
0100
0010
0001
0000
,
1002
0000
0000
0000
0103
0000
0010
0000
1000
0010
1000
0000
0100
0000
0020
0000
,
0000
0000
0031
1000
0010
0000
0100
0001
1000
0000
0100
0000
0010
0000
0000
0000
,
1002
0000
0000
0000
0103
0000
0001
0000
1000
0001
1000
0000
0100
0000
0001
0000
,
0200
0000
0310
0001
0100
0010
1000
0000
,
2001
0000
0000
0000
3100
0000
0010
0000
0001
0010
0001
0000
0100
0000
0020
0000
,
0000
0000
1030
0001
0010
0000
0100
1000
0001
0000
0100
0000
0010
0000
1000
0000
,
0001
0000
1000
0100
1000
0000
0001
0100
0001
0000
0010
0000
0100
0000
1002
0000
,
0000
0103
1000
0010
1000
0100
0001
1000
,
0001
0000
0010
0100
0010
0000
0001
1000
0001
0000
0100
0000
0010
0000
2001
0000
,
0000
3100
0001
1000
0010
0100
1000
0001
,
1000
0000
0001
0100
0001
0000
1000
0100
1000
0000
0010
0000
0100
0000
2001
0000
,
0000
3100
0001
0010
0001
0100
1000
0001
,
1000
0000
0010
0100
0010
0000
1000
0001
1000
0000
0100
0000
0010
0000
1002
0000
,
0000
0103
1000
0001
0010
0100
0001
1000
,
0001
0000
0010
0100
0000
0010
2000
0000
0000
0000
3010
0000
0100
0000
1000
0000
,
0001
0000
0100
0010
0000
0100
2000
0000
0000
0000
3100
0000
0001
0000
1000
0000
,
0001
0000
0010
0100
0000
0010
0001
0000
1000
0000
0010
0000
0001
0000
1000
0000
,
0100
0000
0001
1000
0000
1000
0100
0000
0010
0000
0001
0000
0100
0000
0010
0000
,
1000
0000
0010
0100
0000
0010
0002
0000
0000
0000
0013
0000
0100
0000
0001
0000
,
1000
0000
0100
0010
0000
0100
0002
0000
0000
0000
0103
0000
1000
0000
0001
0000
,
1000
0000
0010
0100
0000
0010
1000
0000
0001
0000
0010
0000
1000
0000
0001
0000
,
0100
0000
1000
0001
0000
0001
0100
0000
0010
0000
1000
0000
0100
0000
0001
0000
;
