#TITLE:Salsa Tequila;
#SUBTITLE:;
#ARTIST:Anders Nilsen;
#TITLETRANSLIT:;
#SUBTITLETRANSLIT:;
#ARTISTTRANSLIT:;
#GENRE:FAUX SPANISH POP;
#CREDIT:;
#BANNER:Salsa Tequila.png;
#BACKGROUND:Salsa Tequila-bg.png;
#LYRICSPATH:;
#CDTITLE:cdtitle.png;
#MUSIC:Salsa Tequila.ogg;
#OFFSET:-0.085000;
#SAMPLESTART:30.059999;
#SAMPLELENGTH:15.000000;
#SELECTABLE:YES;
#BPMS:0.000000=128.000000
;
#STOPS:
;
#BGCHANGES:0.000=Salsa Tequila.avi=1.000=0=0=0=StretchNoLoop==CrossFade_Fastest==,
99999=-nosongbg-=1.000=0=0=0 // don't automatically add -songbackground-
;
#KEYSOUNDS:;
#ATTACKS:;

//---------------dance-single - Daff_4K----------------
#NOTES:
     dance-single:
     Daff_4K:
     Beginner:
     1:
     0.065340,0.102711,0.000000,0.000000,0.000000,57.000000,57.000000,0.000000,0.000000,0.000000,0.000000,0.065340,0.102711,0.000000,0.000000,0.000000,57.000000,57.000000,0.000000,0.000000,0.000000,0.000000:
// measure 0
0000
0000
0000
0000
,  // measure 1
0000
0000
0000
0000
,  // measure 2
0000
0000
0000
0000
,  // measure 3
0000
0000
0000
0000
,  // measure 4
0000
0000
0000
0000
,  // measure 5
0000
0000
0000
0000
,  // measure 6
0000
0000
0000
0000
,  // measure 7
0000
0000
0000
0000
,  // measure 8
1000
0000
0000
0000
,  // measure 9
1000
0000
0000
0000
,  // measure 10
0001
0000
0000
0000
,  // measure 11
0001
0000
0000
0000
,  // measure 12
0010
0000
0000
0000
,  // measure 13
0010
0000
0000
0000
,  // measure 14
0100
0000
0000
0000
,  // measure 15
0100
0000
0000
0000
,  // measure 16
1000
0000
1000
0000
,  // measure 17
1000
0000
0000
0000
,  // measure 18
0001
0000
0001
0000
,  // measure 19
0001
0000
0000
0000
,  // measure 20
0100
0000
0100
0000
,  // measure 21
0100
0000
0000
0000
,  // measure 22
0010
0000
0010
0000
,  // measure 23
0010
0000
0000
0000
,  // measure 24
1000
0000
0000
0000
,  // measure 25
0100
0000
0000
0000
,  // measure 26
1000
0000
0000
0000
,  // measure 27
0001
0000
0000
0000
,  // measure 28
0100
0000
0000
0000
,  // measure 29
0001
0000
0000
0000
,  // measure 30
0010
0000
0000
0000
,  // measure 31
0100
0000
0000
0000
,  // measure 32
1000
0000
0000
0000
,  // measure 33
0000
0000
0000
0000
,  // measure 34
0001
0000
0000
0000
,  // measure 35
0000
0000
0000
0000
,  // measure 36
0010
0000
0000
0000
,  // measure 37
0000
0000
0000
0000
,  // measure 38
0100
0000
0000
0000
,  // measure 39
0000
0000
0000
0000
,  // measure 40
1000
0000
0000
0000
,  // measure 41
1000
0000
0000
0000
,  // measure 42
0001
0000
0000
0000
,  // measure 43
0001
0000
0000
0000
,  // measure 44
0100
0000
0000
0000
,  // measure 45
0100
0000
0000
0000
,  // measure 46
0010
0000
0000
0000
,  // measure 47
0010
0000
0000
0000
,  // measure 48
1000
0000
1000
0000
,  // measure 49
1000
0000
0000
0000
,  // measure 50
0001
0000
0001
0000
,  // measure 51
0001
0000
0000
0000
,  // measure 52
0010
0000
0010
0000
,  // measure 53
0010
0000
0000
0000
,  // measure 54
0100
0000
0100
0000
,  // measure 55
0100
0000
0000
0000
,  // measure 56
1000
0000
0000
0000
,  // measure 57
0000
0000
0000
0000
,  // measure 58
0001
0000
0000
0000
,  // measure 59
0000
0000
0000
0000
,  // measure 60
0100
0000
0000
0000
,  // measure 61
0000
0000
0000
0000
,  // measure 62
0010
0000
0000
0000
,  // measure 63
0000
0000
0000
0000
,  // measure 64
0010
0000
0000
0000
;

//---------------dance-single - Daff_4K----------------
#NOTES:
     dance-single:
     Daff_4K:
     Easy:
     4:
     0.171949,0.205421,0.000000,0.048146,0.000000,150.000000,150.000000,0.000000,6.000000,0.000000,0.000000,0.171949,0.205421,0.000000,0.048146,0.000000,150.000000,150.000000,0.000000,6.000000,0.000000,0.000000:
0000
0000
0000
0000
,
0000
0000
0000
0000
,
0000
0000
0000
0000
,
0000
0000
0000
0000
,
0000
0000
0000
0000
,
0000
0000
0000
0000
,
0000
0000
0000
0000
,
0000
0000
0000
0000
,
1000
0000
0010
0100
,
0001
0000
0010
0100
,
1000
0000
0001
0100
,
0010
0000
0010
1000
,
0001
0000
0010
0100
,
1000
0000
0010
0100
,
0001
0000
1000
0100
,
0010
0000
0001
1000
,
0010
0000
0100
0000
,
0001
1000
0001
1000
,
0100
0000
0010
0000
,
0001
1000
0001
1000
,
0010
0000
0100
0000
,
0001
0010
0100
1000
,
0010
0000
0100
0000
,
0020
0030
0100
0001
,
1000
0000
0100
0000
,
1000
0010
0001
0000
,
0010
0000
1000
0000
,
0100
0010
0001
0000
,
0001
0000
0100
0000
,
0001
0010
1000
0000
,
0010
0000
0001
0000
,
0100
0010
1000
0000
,
0100
0000
0100
0000
,
0010
0000
0010
0000
,
0001
0000
1000
0000
,
0010
0000
0100
0000
,
0001
0000
0001
0000
,
1000
0000
1000
0000
,
0100
0010
0001
0000
,
0100
0010
1000
0001
,
0010
0000
0010
0100
,
1000
0000
0001
0100
,
0010
0000
0010
1000
,
0001
0000
0001
1000
,
0010
0000
0010
0100
,
0001
0000
1000
0100
,
0010
0000
0010
0001
,
1000
0000
1000
0001
,
1000
0000
0010
0010
,
0100
0100
0001
1000
,
0001
0000
0010
0010
,
0100
0100
1000
0001
,
1000
0000
0100
0100
,
0010
0010
0001
1000
,
0001
0000
0100
0010
,
0200
0300
0001
1000
,
0002
0000
0003
0000
,
0010
0000
0100
0000
,
2000
0000
3000
0000
,
0010
0000
0100
0000
,
0020
0000
0030
0000
,
1000
0000
0001
0000
,
0020
0000
0030
0000
,
0001
0000
1000
0000
,
0001
0000
0000
0000
;

//---------------dance-single - Daff_4K----------------
#NOTES:
     dance-single:
     Daff_4K:
     Medium:
     6:
     0.270532,0.308132,0.024073,0.208631,0.000000,236.000000,233.000000,3.000000,26.000000,0.000000,0.000000,0.270532,0.308132,0.024073,0.208631,0.000000,236.000000,233.000000,3.000000,26.000000,0.000000,0.000000:
0000
0000
0000
0000
,
0000
0000
0000
0000
,
0000
0000
0000
0000
,
0000
0000
0000
0000
,
0000
0000
0000
0000
,
0000
0000
0000
0000
,
0000
0000
0000
0000
,
0000
0000
0000
0000
,
1000
0000
0010
0000
1000
0001
1000
0000
,
0100
0000
1000
0000
0010
0100
0010
0000
,
0001
0010
1000
0001
,
0010
0000
0100
0000
1000
0001
1000
0000
,
0001
0000
0010
0000
0001
1000
0001
0000
,
0100
0000
0001
0000
0010
0100
0010
0000
,
1000
0010
0001
1000
,
0020
0100
0100
0130
,
0001
0001
1000
1000
,
0010
0000
0100
0000
0001
1000
0001
0000
,
0010
0010
0100
0100
,
1000
0010
1000
0000
0001
0010
0001
0000
,
1000
1000
0001
0001
,
0010
0000
0100
0000
1000
0001
1000
0000
,
0010
0010
0100
0100
,
2002
3003
0001
1000
,
0001
0000
0100
0000
0010
1000
0010
0000
,
1000
0000
0100
0000
0010
0001
0010
0000
,
0001
0000
1000
0000
0010
0100
0010
0000
,
1000
0000
0001
0000
0010
0100
0010
0000
,
0001
0000
1000
0000
0010
0100
0001
0000
,
1000
0000
0001
0000
0010
0100
1000
0000
,
0001
0000
1000
0000
0010
0100
0010
0000
,
1000
0001
1000
0000
0100
0000
0010
0000
,
0002
0000
2003
0000
,
3020
0000
0130
0001
,
2000
0000
3002
0000
,
0023
0000
0130
1000
,
0020
0000
0230
0000
,
0302
0000
2003
0000
,
3100
0010
0100
0000
1000
0000
0001
0000
,
2002
0000
0000
3003
,
1000
0000
0100
0000
1000
0001
1000
0000
,
0010
0000
0001
0000
0010
0100
0010
0000
,
1000
0000
0001
0000
0010
0100
1000
0000
,
0010
0000
0100
0000
0001
1000
0100
1000
,
0001
0000
0100
0000
0001
1000
0001
0000
,
0010
0000
1000
0000
0010
0100
0010
0000
,
0001
0000
1000
0000
0010
0100
0001
0000
,
0020
0100
0100
0130
,
1000
0000
1000
0000
0001
0100
0001
0000
,
1000
0100
1000
0000
0020
0000
0230
0000
,
0301
0000
0001
0000
0010
0100
0010
0000
,
0001
1000
0001
0000
0100
0010
0100
0000
,
0001
0000
0001
0000
1000
0100
1000
0000
,
0001
0100
0001
0000
0020
0000
0230
0000
,
1300
0000
1000
0000
0010
0100
0010
0000
,
2002
3003
0001
1000
,
0002
0000
0013
0000
,
0100
1000
0001
0000
,
2000
0000
3010
0000
,
0100
0001
1000
0000
,
0200
0000
0310
0000
,
0001
1000
0001
0000
,
0200
0000
0310
0000
,
1000
0001
1000
0100
,
0010
0000
0000
0000
;

//---------------dance-single - Daff_4K----------------
#NOTES:
     dance-single:
     Daff_4K:
     Hard:
     10:
     0.358799,0.410842,0.176534,0.200607,0.000000,313.000000,291.000000,22.000000,25.000000,0.000000,0.000000,0.358799,0.410842,0.176534,0.200607,0.000000,313.000000,291.000000,22.000000,25.000000,0.000000,0.000000:
0000
0000
0000
0000
,
0000
0000
0000
0000
,
0000
0000
0000
0000
,
0000
0000
0000
0000
,
0000
0000
0000
0000
,
0000
0000
0000
0000
,
0000
0000
0000
0000
,
0000
0000
0000
0000
,
1001
0000
1100
0000
0100
0010
0001
0000
,
1001
0000
0101
0000
0100
0010
1000
0000
,
0001
0010
0001
0000
0001
0100
0010
0000
,
1000
0010
1000
0000
1000
0100
0010
0000
,
0001
0010
0100
0010
0001
0000
1000
0000
,
0001
0100
1000
0000
1000
0100
0001
0000
,
1000
0010
0100
0010
1000
0000
0001
0000
,
0020
0100
0130
1001
,
0101
0000
1010
0000
1000
0100
0010
0000
,
0100
1000
0001
0000
0200
0000
0320
0000
,
1030
0000
0101
0000
0001
1000
0100
0000
,
0010
0001
0100
0000
0002
0000
2003
0000
,
3100
0000
0011
0000
0001
0100
0010
0000
,
0100
0001
1000
0000
0200
0000
0320
0000
,
0031
0000
1100
0000
1000
0001
0100
0000
,
0020
0000
0100
0000
0130
0001
1000
0001
,
1000
0000
0100
0000
0001
0010
1000
0000
,
1000
0010
0001
0000
0100
0000
1000
0000
,
0001
0000
0100
0000
1000
0010
0001
0000
,
0001
0010
1000
0000
0100
0000
0001
0000
,
1000
0100
0010
0000
0100
0000
0001
0000
,
0010
0000
1000
0000
0100
0010
0001
0000
,
0001
0100
0010
0000
0100
0000
1000
0000
,
0010
0000
0001
0000
0100
0010
1000
0001
,
0010
0001
0000
0010
1000
0010
0000
1000
,
0100
1000
0000
0100
0001
0100
0001
1000
,
0010
1000
0000
0010
0001
0010
0000
0001
,
0100
0001
0000
0100
1000
0100
1000
0001
,
0100
0010
0000
1000
0100
0010
0000
0001
,
0010
0100
0000
1000
0010
0100
0000
0000
,
0001
0010
0100
1000
0010
0100
0001
0000
,
1000
0100
0010
0001
0100
0010
1000
0000
,
1001
0000
0011
0000
0100
1000
0001
0000
,
1001
0000
1010
0000
0100
0001
1000
0000
,
0001
0010
0100
0010
0001
0000
1100
0000
,
1000
0010
0100
0010
1000
0000
0101
0000
,
0001
0010
0100
1000
0010
0100
0001
0000
,
1000
0100
0010
0000
0001
0100
0010
0000
,
1000
0010
0100
0001
0010
0100
1000
0000
,
0020
0100
0130
1001
,
0011
0000
1100
0000
1000
0001
0100
0000
,
1000
0100
0001
0000
0020
0000
0230
0000
,
1300
0000
0011
0000
0001
0100
1000
0000
,
0001
0010
1000
0000
0002
0000
2003
0000
,
3010
0000
0101
0000
0001
1000
0100
0000
,
0001
0100
1000
0000
0020
0000
0230
0000
,
0301
0000
1010
0000
1000
0100
0001
0100
,
0020
0000
0100
0000
0130
1000
0001
1000
,
0002
0000
0103
0010
,
2000
0000
3100
0010
,
0200
0000
1300
0001
,
0020
0000
0031
1000
,
0020
0000
1030
0001
,
0200
0000
0301
1000
,
0002
0000
0013
0100
,
2000
0000
0000
0000
3010
0100
0002
0000
,
1003
0000
0000
0000
;

//---------------dance-single - Daff_4K----------------
#NOTES:
     dance-single:
     Daff_4K:
     Challenge:
     12:
     0.487188,0.513051,0.064194,0.112340,0.324983,425.000000,417.000000,8.000000,14.000000,0.000000,0.000000,0.487188,0.513051,0.064194,0.112340,0.324983,425.000000,417.000000,8.000000,14.000000,0.000000,0.000000:
0000
0000
0000
0000
,
0000
0000
0000
0000
,
0000
0000
0000
0000
,
0000
0000
0000
0000
,
0000
0000
0000
0000
,
0000
0000
0000
0000
,
0000
0000
0000
0000
,
0000
0000
0000
0000
,
0011
0000
0000
0000
1100
0000
0000
1000
0001
0000
0100
0000
0010
0000
0000
0000
,
1000
0000
0100
0000
0001
0000
0000
0100
0010
0000
0100
0000
1000
0000
0000
0000
,
1010
0000
0000
0000
0101
0000
0000
0001
1000
0000
0100
0000
0010
0000
0000
0000
,
0001
0000
0100
0000
1000
0000
0000
0100
0010
0000
0100
0000
0001
0000
1000
0000
,
0100
0010
0000
0100
0000
0000
1000
0000
0001
0000
0100
0000
0010
0000
0000
0000
,
1000
0000
0100
0000
0001
0000
0000
0000
0100
0000
1000
0000
0001
1000
0000
0001
,
0100
0010
0000
0100
0000
0000
0001
0000
1000
0000
0100
0000
0010
0000
0000
0000
,
0002
0000
0000
0000
1000
0000
0000
0000
1003
0000
0010
0000
0100
0010
0000
0100
,
0001
0000
0000
0010
0000
0000
1000
0000
0010
0000
0001
0000
1000
0000
0010
0000
,
0001
1000
0100
0001
0010
1000
0010
0100
,
0010
0000
0000
0001
0000
0000
0100
0000
1000
0000
0010
0000
1000
0000
0100
0000
,
0001
0010
0100
1000
0010
0010
0100
0001
,
1000
0000
0000
0010
0000
0000
0001
0000
0010
0000
1000
0000
0001
0000
0010
0000
,
1000
0001
0100
1000
0010
0001
0010
0100
,
0010
0000
0000
1000
0000
0000
0100
0000
0001
0000
0010
0000
0001
0000
0100
0000
,
2000
0000
3002
0000
1003
0100
0010
0001
,
0100
0000
0010
0000
0000
1000
0000
0001
1000
0000
0100
0000
0010
0000
0000
0000
,
0001
0000
1000
0001
0000
1000
0000
0010
0100
0000
0001
0000
0000
0000
1000
0000
,
0100
0000
0010
0100
0000
0000
0001
0000
0010
0000
1000
0000
0000
0000
0001
0000
,
0100
0010
0000
0100
0000
0000
1000
0000
0010
0000
0001
0000
0000
0000
1000
0000
,
0010
0100
0000
1000
0000
0000
0001
0000
0010
0000
1000
0000
0000
0000
0001
0000
,
0010
0100
0000
0001
0000
0000
1000
0000
0010
0000
0001
0000
0000
0000
0100
0000
,
0010
0000
1000
0100
0000
0000
0100
0000
0010
0001
0000
0100
0000
0000
0100
0000
,
0010
0000
1000
0001
0000
0000
1000
0000
0001
0000
0010
0000
0000
0000
0001
0100
,
0010
0000
1000
0000
0000
0000
0001
0010
0100
0000
1000
0000
0000
0000
1000
0010
,
0100
0000
0001
0000
0000
0000
1000
0100
0010
0000
0001
0000
0000
0000
0100
0010
,
1000
0000
0001
0000
0000
0000
0001
0010
0100
0000
1000
0000
0000
0000
0100
0010
,
0001
0000
1000
0000
0000
0000
1000
0010
0100
0000
0001
0000
0000
0000
1000
0100
,
0001
0000
0100
0000
0000
0000
0001
0100
1000
0000
0100
0000
0000
0000
1000
0010
,
0001
0000
0010
0000
0000
0000
0001
0010
1000
0000
0010
0000
0000
0000
0000
0000
,
1000
0001
0010
0100
0010
0000
0001
0000
1000
0000
0010
0000
0000
0000
0100
0000
,
0001
1000
0000
0100
0000
0000
0010
0000
0001
0000
1000
0000
0010
0000
0100
0000
,
0101
0000
0000
0000
1010
0000
0000
1000
0001
0000
0010
0000
0100
0000
1000
0000
,
0001
0100
0000
0010
0000
0100
0010
0000
1000
0000
0001
0000
1000
0000
0100
0000
,
1100
0000
0000
0000
0011
0000
0000
0001
1000
0000
0010
0000
0100
0000
0001
0000
,
1000
0100
0000
0010
0000
0100
0010
0000
0001
0000
1000
0000
0001
0000
0100
0000
,
0010
0100
0000
0010
0000
1000
0001
0000
0010
0000
0100
0000
1000
0000
0001
0000
,
0100
0001
0000
1000
0000
0100
1000
0000
0010
0000
0010
0000
0100
0000
0001
0000
,
0010
0100
0000
0010
0000
0001
1000
0000
0010
0000
0100
0000
0001
0000
1000
0000
,
0200
0000
0000
0000
0010
0000
0000
0000
0310
0000
0001
0000
1000
0001
0000
1000
,
0010
0000
0000
0100
0000
0000
0001
0000
0010
0000
1000
0000
0001
0000
0100
0000
,
0010
0001
0100
1000
0100
0100
0010
0010
,
1000
0000
0000
0100
0000
0000
0001
0000
1000
0000
0010
0000
0001
0000
0100
0000
,
1000
0100
0010
1000
0100
0100
0010
0001
,
0010
0000
0000
0100
0000
0000
1000
0000
0010
0000
0001
0000
1000
0000
0100
0000
,
0010
1000
0100
0001
0100
0100
0010
0010
,
0001
0000
0000
0100
0000
0000
1000
0000
0001
0000
0010
0000
1000
0000
0100
0000
,
0020
0000
0230
0000
1300
0001
0100
0010
,
2000
0000
0000
0100
0000
0000
3100
0000
1000
0000
0010
0000
0100
0000
0100
0000
,
0002
0000
0000
1000
0000
0000
1003
0000
0001
0000
0010
0000
0100
0000
1000
0000
,
0002
0000
0000
0100
0000
0000
0103
0000
0001
0000
0010
0000
0100
0000
0100
0000
,
2000
0000
0000
0001
0000
0000
3001
0000
1000
0000
0010
0000
0100
0000
0001
0000
,
0020
0000
0000
0100
0000
0000
0130
0000
1000
0000
0001
0000
0100
0000
0100
0000
,
0002
0000
0000
1000
0000
0000
1003
0000
0001
0000
0010
0000
0100
0000
1000
0000
,
0020
0000
0000
0100
0000
0000
0130
0000
0001
0000
1000
0000
0100
0000
0100
0000
,
2000
0000
0000
0001
0000
0000
3001
0000
1000
0000
0010
0000
0100
0001
0000
1000
;
