#TITLE:SUSHI食べたい feat.ソイソース;
#SUBTITLE:;
#ARTIST:ORANGE RANGE;
#TITLETRANSLIT:SUSHI TABETAI feat. SOY SAUCE;
#SUBTITLETRANSLIT:;
#ARTISTTRANSLIT:;
#GENRE:SUSHI ELECTROPOP;
#CREDIT:;
#BANNER:SUSHI TABETAI feat. SOY SAUCE.png;
#BACKGROUND:SUSHI TABETAI feat. SOY SAUCE-bg.png;
#LYRICSPATH:;
#CDTITLE:cdtitle.png;
#MUSIC:SUSHI TABETAI feat. SOY SAUCE.ogg;
#OFFSET:-0.387000;
#SAMPLESTART:89.236000;
#SAMPLELENGTH:15.000000;
#SELECTABLE:YES;
#BPMS:0.000000=135.000000
;
#STOPS:
;
#BGCHANGES:0.000=SUSHI TABETAI feat. SOY SAUCE.avi=1.000=0=0=0=StretchNoLoop==CrossFade_Fastest==,
99999=-nosongbg-=1.000=0=0=0 // don't automatically add -songbackground-
;
#KEYSOUNDS:;
#ATTACKS:;

//---------------dance-single - Daff_4K----------------
#NOTES:
     dance-single:
     Daff_4K:
     Beginner:
     2:
     0.095013,0.138409,0.007309,0.000000,0.000000,91.000000,90.000000,1.000000,0.000000,0.000000,0.000000,0.095013,0.138409,0.007309,0.000000,0.000000,91.000000,90.000000,1.000000,0.000000,0.000000,0.000000:
0000
0000
0000
0000
,
0000
0000
0000
0000
,
0000
0000
0000
0000
,
0000
0000
0000
0000
,
0100
0000
0100
0000
,
0000
0000
0000
0000
,
0010
0000
0010
0000
,
0000
0000
0000
0000
,
1000
0000
0000
0000
,
0001
0000
0000
0000
,
1000
0000
0000
0000
,
0001
0000
0001
0000
,
0010
0000
0000
0000
,
0100
0000
0000
0000
,
0010
0000
0010
0000
,
0010
0000
0000
0000
,
0001
0000
0000
0000
,
1000
0000
0000
0000
,
0001
0000
0000
0000
,
1000
0000
0000
0000
,
0010
0000
0010
0000
,
0010
0000
0000
0000
,
0100
0000
0100
0000
,
0100
0000
0000
0000
,
0001
0000
0001
0000
,
0001
0000
0000
0000
,
1000
0000
1000
0000
,
1000
0000
0000
0000
,
0000
0000
0000
0000
,
0000
0000
0000
0000
,
0100
0000
0000
0000
,
0100
0000
0000
0000
,
1000
0000
0000
0000
,
0001
0000
0000
0000
,
0100
0000
0000
0000
,
0100
0000
0000
0000
,
0010
0000
0010
0000
,
0010
0000
0000
0000
,
1000
0000
0000
0001
,
0001
0000
0000
0010
,
0010
0000
0000
0100
,
0100
0000
0000
1000
,
1000
0000
0000
0001
,
0001
0000
0000
0100
,
0100
0000
0000
0010
,
0010
0000
0000
0000
,
1000
0000
0000
0000
,
0001
0000
0000
0000
,
1000
0000
0000
0000
,
0001
0000
0000
0000
,
0100
0000
0010
0000
,
0100
0000
0000
0000
,
0001
0000
0010
0000
,
0001
0000
0000
0000
,
1000
0000
0010
0000
,
1000
0000
0000
0000
,
0100
0000
0010
0000
,
0100
0000
0000
0000
,
1000
0000
1000
0000
,
1000
0000
1000
0000
,
1000
0000
0000
0000
,
0000
0000
0000
0000
,
0001
0000
0001
0000
,
0001
0000
0001
0000
,
0001
0000
0000
0000
,
0000
0000
0000
0000
,
0100
0000
0000
0000
,
0100
0000
0000
0000
,
0010
0000
0000
0000
,
0010
0000
0000
0000
,
1000
0000
0000
0000
,
1000
0000
0000
0000
,
0001
0000
0000
0000
,
0001
0000
0000
0000
,
0000
0000
0000
0000
,
1000
0000
0000
1001
;

//---------------dance-single - Daff_4K----------------
#NOTES:
     dance-single:
     Daff_4K:
     Easy:
     5:
     0.203600,0.249136,0.000000,0.146174,0.000000,195.000000,195.000000,0.000000,20.000000,0.000000,0.000000,0.203600,0.249136,0.000000,0.146174,0.000000,195.000000,195.000000,0.000000,20.000000,0.000000,0.000000:
0000
0000
0000
0000
,
0000
0000
0000
0000
,
0000
0000
0000
0000
,
0000
0000
0000
0000
,
1000
0010
1000
0000
,
0000
0000
0000
0000
,
0001
0010
0001
0000
,
0000
0000
0000
0000
,
1000
1000
0100
0000
,
0001
0001
0100
0000
,
1000
0010
0100
0000
,
0001
0010
0100
1000
,
0001
0100
1000
0000
,
1000
0100
0001
0000
,
0010
0010
0100
0100
,
1000
0001
1000
0000
,
0020
0000
0030
0000
,
0200
0000
0300
0000
,
0020
0000
0030
0000
,
1000
0001
1000
0000
,
0001
0010
1000
0000
,
1000
0010
0001
0000
,
0001
0100
0010
0000
,
1000
0100
0010
0001
,
1000
0010
0001
0000
,
0001
0010
1000
0000
,
1000
0100
0010
0000
,
0001
0100
0010
1000
,
0200
0000
0000
0300
,
0020
0000
0000
0030
,
0001
0000
1000
0000
,
0001
1000
0001
0000
,
0100
0000
0010
0000
,
0100
0010
0100
0000
,
0001
0000
1000
0000
,
0001
1000
0001
0000
,
0010
0010
0010
0000
,
0100
0100
0100
0000
,
1000
0010
0001
0000
,
0001
0010
1000
0000
,
1000
0100
0001
0000
,
0001
0100
1000
0000
,
1000
0010
0100
0000
,
0001
0010
0100
0000
,
1000
0010
1000
0000
,
0001
0010
0001
0000
,
0200
0000
0300
0000
,
0020
0000
0030
0000
,
0200
0000
0300
0000
,
0001
1000
0001
0000
,
1000
0100
0001
0100
,
1000
0010
0100
0010
,
1000
0100
0001
0100
,
1000
1000
0010
0100
,
0001
0010
1000
0010
,
0001
0100
0010
0100
,
0001
0010
1000
0010
,
0001
0001
0100
0010
,
2000
3000
0200
0300
,
0020
0030
0002
0003
,
0200
0000
0000
0300
,
0020
0030
0010
1000
,
0002
0003
0020
0030
,
0200
0300
2000
3000
,
0020
0000
0000
0030
,
0200
0300
0100
0001
,
1000
0100
1000
0100
,
0000
0001
0100
0001
,
0000
0100
1000
0100
,
0000
1000
0001
1000
,
0001
0100
0001
0100
,
0000
1000
0100
1000
,
0000
0100
0001
0100
,
0000
0001
1000
0001
,
0000
0000
0000
0000
,
0010
0100
1000
0001
;

//---------------dance-single - Daff_4K----------------
#NOTES:
     dance-single:
     Daff_4K:
     Medium:
     8:
     0.303834,0.332181,0.095013,0.241188,0.095013,291.000000,278.000000,13.000000,33.000000,0.000000,0.000000,0.303834,0.332181,0.095013,0.241188,0.095013,291.000000,278.000000,13.000000,33.000000,0.000000,0.000000:
0000
0000
0000
0000
,
0000
0000
0000
0000
,
0000
0000
0000
0000
,
0000
0000
0000
0000
,
1000
0000
0000
0000
0010
0000
0000
0010
0000
0000
0000
0000
0000
0000
0000
0000
,
0100
0001
1000
0000
,
0001
0000
0000
0000
0010
0000
0000
0010
0000
0000
0000
0000
0000
0000
0000
0000
,
0100
0000
1000
0000
,
0001
0000
0000
0000
0100
0000
0000
0000
0010
0000
0000
0010
0000
0000
0000
0000
,
1000
0000
0000
0000
0001
0000
0000
0000
0010
0000
0000
0010
0000
0000
0000
0000
,
0100
0000
0000
0000
1000
0000
0000
0000
0001
0000
0000
0001
0000
0000
0000
0000
,
0100
0000
0000
0000
0010
0000
0000
1000
0000
0000
0000
0000
0001
0000
0000
0000
,
1000
0000
0000
0000
0100
0000
0000
0000
0010
0000
0000
0010
0000
0000
0000
0000
,
0001
0000
0000
0000
1000
0000
0000
0000
0010
0000
0000
0010
0000
0000
0010
0000
,
0000
0100
0000
0001
0000
1000
0000
0100
,
0000
0010
0002
0000
1003
0000
1001
0000
,
0001
0000
0100
0010
0000
1000
0000
0000
,
1000
0000
0100
0010
0000
0001
0000
0000
,
0001
0000
1000
0001
0000
0100
0000
0000
,
0010
0000
0000
0000
1000
0000
0000
0001
0000
0000
0000
0000
0000
0000
0000
0000
,
1000
0000
0000
0000
0100
0000
0000
0010
0000
0000
0000
0000
0001
0000
0000
0000
,
0100
0000
0000
0000
1000
0000
0000
0000
0100
0000
0000
0010
0000
0000
0000
0000
,
0100
0000
0000
0000
0001
0000
0000
1000
0000
0000
0000
0000
0100
0000
0000
0000
,
0010
0000
0000
0000
0001
0000
0000
1000
0000
0001
0000
1000
0000
0000
0000
0000
,
0001
0000
0000
0000
0100
0000
0000
0010
0000
0000
0000
0000
1000
0000
0000
0000
,
0100
0000
0000
0000
0001
0000
0000
0000
0100
0000
0000
0010
0000
0000
0000
0000
,
0100
0000
0000
0000
1000
0000
0000
0001
0000
0000
0000
0000
0100
0000
0000
0000
,
0010
0000
0000
0000
1000
0000
0000
0000
0001
0000
0000
1000
0000
0000
0000
0000
,
0100
0000
0000
0100
0000
0000
0100
0000
0000
0000
0000
0000
0100
0000
0000
0000
,
0010
0000
0000
0010
0000
0000
0010
0000
0000
0000
0000
0000
0010
0000
0000
0000
,
0001
1000
0000
0001
0000
0100
0000
0010
,
0000
0100
0000
0001
0000
1000
0000
0100
,
0000
0010
0000
0001
0000
0100
0000
0010
,
0000
1000
0000
0100
0000
0010
0000
0001
,
1000
0001
0000
1000
0000
0100
0000
0010
,
0000
0100
0000
1000
0000
0001
0000
0100
,
0020
0000
1030
0000
0001
1000
0001
0000
,
0020
0000
0031
0000
1000
0001
1000
0000
,
0010
0000
0010
0000
0100
0010
0100
0000
,
0001
0000
0001
0000
1000
0001
1000
0000
,
0100
0000
0010
0000
0001
1000
0001
0000
,
0100
0000
0010
0000
1000
0001
1000
0000
,
0100
0010
0100
0000
1000
0000
0001
0000
,
0100
0010
0100
0000
0001
0000
1000
0000
,
0100
0001
0010
0001
,
0100
1000
0010
1000
,
0001
0000
0000
0000
0010
0000
0000
0001
0000
0000
0000
0000
0000
0000
0000
0000
,
1000
0000
0000
0000
0010
0000
0000
1000
0000
0000
0000
0000
0000
0000
0000
0000
,
0001
0000
0000
0000
0100
0000
0000
0001
0000
0000
0000
0000
0000
0000
0000
0000
,
1000
0000
0001
0000
1000
0000
0000
0100
0000
0000
0000
0000
0010
0000
0000
0000
,
0001
0100
0000
0010
0000
0100
0000
1000
,
0000
0100
0000
0001
0000
1000
0000
0001
,
0000
0010
0000
1000
0000
0010
0000
0100
,
0000
0010
0000
0001
0000
0100
0000
0010
,
1000
0100
0000
0010
0000
0100
0000
0001
,
0000
0100
0000
1000
0000
0001
0000
1000
,
0000
0010
0000
0001
0000
0010
0000
0100
,
0010
1000
0001
0010
,
0022
0033
2200
3300
,
2020
3030
0202
0303
,
0220
0000
0000
0330
,
2002
3003
0002
1003
,
2020
3030
0202
0303
,
0022
0033
2200
3300
,
0220
0000
0000
0330
,
2002
3003
2000
3001
,
0002
0100
1000
0100
,
0013
0100
1000
0001
,
0200
0010
1000
0010
,
0301
0000
0010
0100
0010
0000
0001
0000
,
2000
0100
0001
0100
,
3010
0100
0001
1000
,
0200
0010
0001
0010
,
1300
0000
0010
0100
0010
0000
1000
0001
,
0000
0000
0000
0000
,
0010
0000
0000
0000
0100
0000
0000
0010
0000
0000
0001
0000
1000
0000
0000
0000
;

//---------------dance-single - Daff_4K----------------
#NOTES:
     dance-single:
     Daff_4K:
     Hard:
     12:
     0.482375,0.498272,0.116939,0.197335,0.237533,462.000000,446.000000,16.000000,27.000000,0.000000,0.000000,0.482375,0.498272,0.116939,0.197335,0.237533,462.000000,446.000000,16.000000,27.000000,0.000000,0.000000:
// measure 0
0000
0000
0000
0000
,  // measure 1
0000
0000
0000
0000
,  // measure 2
0000
0000
0000
0000
,  // measure 3
0000
0000
0000
0000
,  // measure 4
1000
0000
0010
0000
0100
0000
0001
1000
0000
0000
0000
0000
0000
0000
0000
0000
,  // measure 5
0100
0100
0100
0000
0010
0010
0010
0000
,  // measure 6
0001
0000
0100
0000
0010
0000
1000
0001
0000
0000
0000
0000
0000
0000
0000
0000
,  // measure 7
0010
0010
0000
0100
0100
0100
0000
0000
,  // measure 8
1000
0000
0010
0000
0100
0000
0000
0000
0010
1000
0000
1000
0000
0000
0000
0000
,  // measure 9
0001
0000
1000
0000
0100
0000
0000
0000
0010
0001
0000
0001
0000
0000
0000
0000
,  // measure 10
1000
0000
0010
0000
0001
0000
0000
0000
0010
1000
0000
1000
0000
0000
0000
0000
,  // measure 11
0100
0000
0010
0000
0001
1000
0000
0100
0000
0000
0000
0000
0010
0000
0000
0000
,  // measure 12
0001
0000
0100
0000
0010
0000
0000
0000
0100
0001
0000
0001
0000
0000
0000
0000
,  // measure 13
1000
0000
0001
0000
0010
0000
0000
0000
0100
1000
0000
1000
0000
0000
0001
0000
,  // measure 14
1000
0020
0000
0230
0000
0302
0000
2003
,  // measure 15
0000
3100
0010
0000
0110
0000
1001
0000
,  // measure 16
0001
0100
1000
0200
0000
0310
0000
0000
,  // measure 17
1000
0100
0001
0200
0000
0310
0000
0000
,  // measure 18
0001
1000
0010
0200
0000
0301
0000
0000
,  // measure 19
1000
0000
0001
0000
0010
0100
0000
0010
0000
0000
0000
0000
1001
0000
0000
0000
,  // measure 20
1000
0000
0010
0000
0100
0000
0001
1000
0000
0000
1000
0100
0000
0000
0000
0000
,  // measure 21
0010
0000
0001
0000
1000
0000
0001
0000
0100
0010
0000
0010
0000
0000
0000
0000
,  // measure 22
1000
0000
0001
0000
0010
0000
0100
1000
0000
0000
1000
0001
0000
0000
0000
0000
,  // measure 23
0100
0000
0010
0000
1000
0100
0000
0010
0000
0001
0000
1000
0000
0000
0000
0000
,  // measure 24
0001
0000
0100
0000
0010
0000
1000
0001
0000
0000
0001
0010
0000
0000
0000
0000
,  // measure 25
0100
0000
1000
0000
0001
0000
1000
0000
0010
0100
0000
0100
0000
0000
0000
0000
,  // measure 26
0001
0000
1000
0000
0100
0000
0010
0001
0000
0000
0001
1000
0000
0000
0000
0000
,  // measure 27
0010
0000
0100
0000
0001
0000
1000
0000
0100
0010
0000
0100
0000
0000
0000
0000
,  // measure 28
1000
0000
0000
0001
0000
0000
0100
0000
0000
0000
0010
0000
1000
0000
0000
0000
,  // measure 29
0001
0000
0000
1000
0000
0000
0100
0000
0000
0000
0000
0000
1001
0000
0000
0000
,  // measure 30
0001
0100
0010
0100
0000
0001
1000
0001
,  // measure 31
0000
0010
0100
0010
0000
0001
0100
0010
,  // measure 32
1000
0001
1000
0100
0000
0010
0001
1000
,  // measure 33
0000
0010
0100
0001
0100
0010
1000
0001
,  // measure 34
1000
0100
0010
0100
0000
1000
0001
1000
,  // measure 35
0000
0010
0100
0010
0000
1000
0100
0010
,  // measure 36
0001
0000
0000
0100
0000
0000
0010
0000
1000
0000
0000
0100
0000
0000
0010
0000
,  // measure 37
0001
0000
0000
1000
0000
0000
0010
0000
0100
0000
0001
0000
1000
0000
0000
0000
,  // measure 38
0001
0010
0100
0010
0002
1000
1003
0000
,  // measure 39
1000
0010
0100
0010
2000
0001
3001
0000
,  // measure 40
0010
1000
0010
0001
0200
0010
0310
0000
,  // measure 41
0010
0001
0010
1000
0200
0010
0310
0000
,  // measure 42
0001
0100
1000
0010
1000
0100
0001
0000
,  // measure 43
1000
0100
0001
0010
0001
0100
1000
0000
,  // measure 44
0010
0000
0000
0100
0000
0000
0001
0000
1000
0000
0001
0000
0010
0000
0000
0000
,  // measure 45
0100
0000
0000
0010
0000
0000
0001
0000
1000
0000
0001
0000
0100
0000
0000
0000
,  // measure 46
0010
0000
1000
0000
0100
0000
0010
0001
0000
0000
0000
0000
0000
0000
0000
0000
,  // measure 47
0010
0000
0001
0000
0100
0010
0000
1000
0000
0000
0000
0000
0000
0000
0000
0000
,  // measure 48
0001
0000
0010
0000
1000
0000
0010
0001
0000
0000
0000
0000
0000
0000
0000
0000
,  // measure 49
0100
0000
0010
0000
1000
0001
0000
1000
0000
0000
0100
0000
0010
0000
0001
0000
,  // measure 50
0200
1000
0000
0010
0000
0301
0100
0010
,  // measure 51
1000
0100
1000
0001
1000
0010
1000
0100
,  // measure 52
0020
0001
0000
0100
0000
1030
0010
0001
,  // measure 53
0100
0000
1000
0000
0100
0000
0010
0000
0100
0000
0001
0000
1000
0000
0100
1000
,  // measure 54
0200
0001
0000
0010
0000
1300
0100
0010
,  // measure 55
0001
0100
0001
1000
0001
0010
0001
0100
,  // measure 56
0020
1000
0000
0100
0000
0031
0010
1000
,  // measure 57
1100
0011
0101
1010
,  // measure 58
1002
0000
0103
0010
2000
0000
3100
0010
,  // measure 59
0002
0000
1003
0010
0200
0000
0301
1000
,  // measure 60
0200
0001
0010
1300
,  // measure 61
1002
0103
1010
0101
,  // measure 62
2001
0000
3100
0010
0002
0000
0103
0010
,  // measure 63
2000
0000
3001
0010
0200
0000
1300
0001
,  // measure 64
0200
1000
0010
0301
,  // measure 65
2001
3100
0011
1100
,  // measure 66
1000
0000
0010
0000
0100
0000
0010
0000
1000
0001
0000
1000
0000
0000
0100
0000
,  // measure 67
0000
0000
0010
0000
0001
0000
1000
0000
0010
0100
0000
0010
0000
0000
1000
0000
,  // measure 68
0001
0000
0100
0000
0010
0000
0100
0000
0001
1000
0000
0001
0000
0000
0010
0000
,  // measure 69
0000
0000
0100
0000
1000
0000
0001
0000
0100
0010
0000
0100
0000
0000
0001
0000
,  // measure 70
1000
0000
0010
0000
0100
0000
0001
0000
0010
0100
0000
0010
0100
0000
1000
0000
,  // measure 71
0000
0000
0010
0000
0001
0000
0010
0000
1000
0001
0000
1000
0100
0000
0010
0000
,  // measure 72
0001
0000
0100
0000
0010
0000
1000
0000
0100
0010
0000
0100
0010
0000
0001
0000
,  // measure 73
0000
0000
0100
0000
1000
0000
0100
0000
0001
1000
0000
0001
0010
0000
0100
0000
,  // measure 74
0000
0000
0000
0000
,  // measure 75
1000
0000
0001
0000
0010
0000
0100
0010
0000
0000
0001
0000
1000
0000
0000
0000
;

//---------------dance-single - Daff_4K----------------
#NOTES:
     dance-single:
     Daff_4K:
     Challenge:
     13:
     0.508478,0.498272,0.095013,0.168100,0.372744,487.000000,474.000000,13.000000,23.000000,252.000000,0.000000,0.508478,0.498272,0.095013,0.168100,0.372744,487.000000,474.000000,13.000000,23.000000,252.000000,0.000000:
// measure 0
0000
0000
0000
0000
,  // measure 1
0000
0000
0000
0000
,  // measure 2
0000
0000
0000
0000
,  // measure 3
0000
0000
0000
0000
,  // measure 4
1000
0000
0001
0000
0100
0000
0010
1000
0000
0000
0000
0000
MMMM
0000
0000
0000
,  // measure 5
0100
0010
0100
0010
0000
0000
0001
1000
0001
1000
0001
0000
MMMM
0000
0000
0000
,  // measure 6
0001
0000
1000
0000
0100
0000
0010
0001
0000
0000
0000
0000
MMMM
0000
0000
0000
,  // measure 7
0100
0010
0100
0010
0000
0000
1000
0001
1000
0001
1000
0000
0000
0000
0000
0000
,  // measure 8
0001
0000
0010
0000
1000
0000
0010
0000
0100
0010
0000
MMMM
0000
0000
0000
0000
,  // measure 9
0001
0000
0100
0000
0010
0000
1000
0000
0100
0010
0000
MMMM
0000
0000
0000
0000
,  // measure 10
0001
0000
1000
0000
0001
0000
0100
0000
0010
1000
0000
MMMM
0000
0000
0000
0000
,  // measure 11
0001
0000
0010
0000
0100
1000
0000
0001
0000
0000
0000
0000
MMMM
0000
0000
0000
,  // measure 12
1000
0000
0010
0000
0001
0000
0010
0000
0100
0010
0000
MMMM
0000
0000
0000
0000
,  // measure 13
1000
0000
0100
0000
0010
0000
0001
0000
0100
0010
0000
MMMM
0000
0000
0000
0000
,  // measure 14
1010
MMMM
1100
MMMM
0011
MMMM
0101
MMMM
,  // measure 15
0100
0010
1000
0000
1001
0000
MMMM
0000
,  // measure 16
0001
0000
1000
0010
1000
0000
0001
1000
0000
0000
MMMM
0000
0000
0000
0000
0000
,  // measure 17
1000
0000
0001
0010
0001
0000
1000
0001
0000
0000
MMMM
0000
0000
0000
0000
0000
,  // measure 18
0001
0000
1000
0100
1000
0000
0001
1000
0000
0000
MMMM
0000
0000
0000
0000
0000
,  // measure 19
1000
0000
0001
0000
0100
0010
0000
0100
0000
0000
0000
0000
MMMM
0000
0000
0000
,  // measure 20
0001
0000
0010
0000
0100
0000
1000
0001
0000
0000
0100
0010
0000
0000
0000
0000
,  // measure 21
1000
0000
0100
0000
0001
0000
0100
0000
0010
0100
0000
1000
0000
0000
MMMM
0000
,  // measure 22
0001
0000
1000
0000
0010
0000
0100
0001
0000
0000
1000
0100
0000
0000
0000
0000
,  // measure 23
0010
0000
0001
0000
1000
0001
0000
0100
0000
0010
0000
1000
0000
0000
MMMM
0000
,  // measure 24
1000
0000
0010
0000
0100
0000
0001
1000
0000
0000
0100
0010
0000
0000
0000
0000
,  // measure 25
0001
0000
0100
0000
1000
0000
0100
0000
0010
0100
0000
0001
0000
0000
MMMM
0000
,  // measure 26
1000
0000
0001
0000
0010
0000
0100
1000
0000
0000
0001
0100
0000
0000
0000
0000
,  // measure 27
0010
0000
1000
0000
0001
0000
1000
0000
0100
0010
0000
0100
0000
0000
0000
0000
,  // measure 28
MMMM
0000
0000
MMMM
0000
0000
MMMM
0000
0000
0000
MMMM
0000
MMMM
0000
0000
0000
,  // measure 29
MMMM
0000
0000
MMMM
0000
0000
MMMM
0000
0000
0000
0000
0000
MMMM
0000
0000
0000
,  // measure 30
1000
0010
1000
0001
1000
0100
1000
0001
,  // measure 31
1000
0010
1000
0001
1000
0100
0010
0001
,  // measure 32
0100
0001
1000
0001
0010
0001
1000
0001
,  // measure 33
0100
0001
1000
0001
0010
0100
1000
0010
,  // measure 34
0100
0001
0100
0010
0100
1000
0100
0010
,  // measure 35
0100
0001
0100
0010
1000
0001
0010
0100
,  // measure 36
2000
0000
0000
0010
0000
0000
3010
0000
0200
0000
0000
0001
0000
0000
0301
0000
,  // measure 37
0020
0000
0000
0100
0000
0000
0130
0000
1000
0000
0001
0000
0100
0000
0010
0000
,  // measure 38
1000
0000
0100
0010
0100
0000
1000
0000
0001
0000
MMMM
0000
MMMM
0000
0000
0000
,  // measure 39
0001
0000
0100
0010
0100
0000
0001
0000
1000
0000
MMMM
0000
MMMM
0000
0000
0000
,  // measure 40
0100
0001
0000
0100
1000
0000
0010
0000
0100
0000
MMMM
0000
MMMM
0000
0000
0000
,  // measure 41
0010
0000
1000
0001
1000
0000
0100
0000
0010
0000
MMMM
0000
MMMM
0000
0000
0000
,  // measure 42
0001
0100
0010
0100
0001
0000
0010
0000
0100
0000
MMMM
0000
1000
0000
MMMM
0000
,  // measure 43
1000
0100
0010
0100
1000
0000
0010
0000
0100
0000
MMMM
0000
0001
0000
MMMM
0000
,  // measure 44
1000
0000
0100
0001
0000
0100
1000
0000
0010
0000
MMMM
0000
0100
0000
MMMM
0000
,  // measure 45
0001
0000
0100
1000
0000
0100
0001
0000
0010
0000
MMMM
0000
0100
0000
MMMM
0000
,  // measure 46
1000
0000
0100
0000
0001
0000
0100
0010
0000
0000
MMMM
0000
MMMM
0000
MMMM
0000
,  // measure 47
0001
0000
0100
0000
0010
1000
0000
0001
0000
0000
MMMM
0000
MMMM
0000
MMMM
0000
,  // measure 48
0001
0000
0010
0000
1000
0000
0010
0100
0000
0000
MMMM
0000
MMMM
0000
MMMM
0000
,  // measure 49
1000
0000
0010
0000
0100
0001
0000
1000
0000
0000
MMMM
0000
MMMM
0000
MMMM
0000
,  // measure 50
0001
0000
0100
0000
1000
0000
0100
0000
0010
0000
0100
0000
1000
0000
0100
0001
,  // measure 51
2000
0100
3020
0100
2030
0100
3020
0100
,  // measure 52
1030
0000
0100
0000
0001
0000
0100
0000
0010
0000
0100
0000
0001
0000
0100
1000
,  // measure 53
0002
0100
0023
0100
0032
0100
0023
0100
,  // measure 54
0031
0000
0100
0000
1000
0000
0100
0000
0010
0000
0100
0000
1000
0000
0100
0001
,  // measure 55
0020
1000
0230
0001
0320
1000
0230
0001
,  // measure 56
1300
0000
0100
0000
0001
0000
0100
0000
0010
0000
0100
0000
0001
0000
0100
1000
,  // measure 57
0020
0001
0230
1000
0320
0001
0130
0000
,  // measure 58
1001
0000
0000
1000
0100
0000
0010
0000
0001
0000
0000
0001
1000
0000
0010
0000
,  // measure 59
0100
0000
0000
0100
0001
0000
1000
0000
0100
0000
0000
0010
0100
0000
1000
0000
,  // measure 60
0020
0001
0000
0100
0000
1030
0001
0000
,  // measure 61
1002
0000
0013
0100
1000
0010
0100
0000
,  // measure 62
1001
0000
0000
0001
0100
0000
0010
0000
1000
0000
0000
1000
0001
0000
0010
0000
,  // measure 63
0100
0000
0000
0100
1000
0000
0001
0000
0100
0000
0000
0010
0100
0000
0001
0000
,  // measure 64
0020
1000
0000
0100
0000
0031
1000
0000
,  // measure 65
2002
3003
0101
1010
,  // measure 66
1000
0000
0010
0000
0001
0000
0010
0000
1000
0100
0000
0100
0010
0000
MMMM
0000
,  // measure 67
0000
0000
0001
0000
0100
0000
0010
0000
1000
0001
0000
1000
0100
0000
0010
0000
,  // measure 68
0001
0000
0100
0000
1000
0000
0100
0000
0001
0010
0000
0010
0100
0000
MMMM
0000
,  // measure 69
0000
0000
1000
0000
0010
0000
0100
0000
0001
1000
0000
0001
0010
0000
0100
0000
,  // measure 70
0010
0000
1000
0000
0001
0000
0100
0000
1000
0001
0000
1000
0010
0000
MMMM
0000
,  // measure 71
0000
0000
0100
0000
0001
0000
1000
0000
0100
0010
0000
0010
0001
0000
1000
0000
,  // measure 72
0010
0000
0001
0000
1000
0000
0100
0000
0001
1000
0000
0001
0010
0000
MMMM
0000
,  // measure 73
0000
0000
0100
0000
1000
0000
0001
0000
0100
0010
0000
0010
0100
0000
MMMM
0000
,  // measure 74
0000
0000
0000
0000
,  // measure 75
0001
0000
1000
0000
0100
0010
0100
0010
0000
0000
1001
0000
1001
0000
0000
0000
;
