#TITLE:リクライム;
#SUBTITLE:;
#ARTIST:ROOKiEZ is PUNK'D;
#TITLETRANSLIT:RECLIMB;
#SUBTITLETRANSLIT:;
#ARTISTTRANSLIT:;
#GENRE:J-ROCK;
#CREDIT:;
#BANNER:RECLIMB.png;
#BACKGROUND:RECLIMB-bg.png;
#LYRICSPATH:;
#CDTITLE:cdtitle.png;
#MUSIC:RECLIMB.ogg;
#OFFSET:-0.155000;
#SAMPLESTART:54.196999;
#SAMPLELENGTH:15.000000;
#SELECTABLE:YES;
#BPMS:0.000000=188.000000
;
#STOPS:
;
#BGCHANGES:0.000=RECLIMB.avi=1.000=0=0=0=StretchNoLoop==CrossFade_Fastest==,
99999=-nosongbg-=1.000=0=0=0 // don't automatically add -songbackground-
;
#KEYSOUNDS:;
#ATTACKS:;

//---------------dance-single - Daff_4K----------------
#NOTES:
     dance-single:
     Daff_4K:
     Beginner:
     3:
     0.126789,0.262465,0.033703,0.000000,0.000000,79.000000,76.000000,3.000000,0.000000,0.000000,0.000000,0.126789,0.262465,0.033703,0.000000,0.000000,79.000000,76.000000,3.000000,0.000000,0.000000,0.000000:
// measure 0
0000
0000
0000
0000
,  // measure 1
0000
0000
0000
0000
,  // measure 2
0000
0000
0000
0000
,  // measure 3
0000
0000
0000
0000
,  // measure 4
0000
0000
0000
0000
,  // measure 5
0000
0000
0000
0000
,  // measure 6
0000
0000
0000
0000
,  // measure 7
0000
0000
0000
0000
,  // measure 8
0000
0000
0000
0000
,  // measure 9
0000
0000
0000
0000
,  // measure 10
0000
0000
0000
0000
,  // measure 11
0000
1000
1000
0000
,  // measure 12
0000
0010
0000
0010
,  // measure 13
0000
0100
0000
0000
,  // measure 14
0000
0000
0000
0000
,  // measure 15
0000
0001
0001
0000
,  // measure 16
0000
0010
0000
0010
,  // measure 17
0000
0100
0000
0000
,  // measure 18
0000
0000
0000
0000
,  // measure 19
1001
0000
0000
0000
,  // measure 20
0000
0000
0000
0000
,  // measure 21
0001
0000
0000
0000
,  // measure 22
1000
0000
1000
0000
,  // measure 23
0001
0000
0000
0000
,  // measure 24
0100
0000
0000
0000
,  // measure 25
0010
0000
0000
0000
,  // measure 26
1000
0000
0000
0000
,  // measure 27
1000
0000
0000
0000
,  // measure 28
0001
0000
0001
0000
,  // measure 29
0001
0000
0000
0000
,  // measure 30
1000
0000
1000
0000
,  // measure 31
1000
0000
0000
0000
,  // measure 32
0100
0000
0000
0000
,  // measure 33
0010
0000
0000
0000
,  // measure 34
0001
0000
0000
0000
,  // measure 35
1000
0000
0000
0000
,  // measure 36
0100
0000
0000
0000
,  // measure 37
0010
0000
0010
0000
,  // measure 38
0001
0000
0000
0000
,  // measure 39
0001
0000
0000
0000
,  // measure 40
0100
0000
0000
0000
,  // measure 41
0010
0010
0010
0010
,  // measure 42
0010
0000
0000
0000
,  // measure 43
1001
0000
1000
0000
,  // measure 44
0010
0000
0000
0000
,  // measure 45
0010
0000
0000
0000
,  // measure 46
0001
0000
0000
0000
,  // measure 47
0001
0000
0001
0000
,  // measure 48
0100
0000
0000
0000
,  // measure 49
0100
0000
0000
0000
,  // measure 50
1000
0000
0000
0000
,  // measure 51
1001
0000
0001
0000
,  // measure 52
0010
0000
0000
0000
,  // measure 53
0010
0000
0000
0000
,  // measure 54
1000
0000
0000
0000
,  // measure 55
1000
0000
1000
0000
,  // measure 56
0100
0000
0000
0000
,  // measure 57
0100
0000
0000
0000
,  // measure 58
0001
0000
0000
0000
,  // measure 59
0000
1000
1000
0000
,  // measure 60
0000
0010
0000
0010
,  // measure 61
0000
0001
0001
0000
,  // measure 62
0000
0010
0000
0010
,  // measure 63
0000
1000
1000
0000
,  // measure 64
0000
0100
0000
0100
,  // measure 65
0000
0001
0001
0000
,  // measure 66
0000
0100
0000
0100
;

//---------------dance-single - Daff_4K----------------
#NOTES:
     dance-single:
     Daff_4K:
     Easy:
     5:
     0.272836,0.384077,0.258392,0.224689,0.000000,170.000000,147.000000,23.000000,20.000000,0.000000,0.000000,0.272836,0.384077,0.258392,0.224689,0.000000,170.000000,147.000000,23.000000,20.000000,0.000000,0.000000:
0000
0000
0000
0000
,
0000
0000
0000
0000
,
0000
0000
0000
0000
,
0000
0000
0000
0000
,
0000
0000
0000
0000
,
0000
0000
0000
0000
,
0000
0000
0000
0000
,
0000
0000
0000
0000
,
0000
0000
0000
0000
,
0000
0000
0000
0000
,
0000
0000
0000
0000
,
0000
1001
2002
3003
,
0000
0100
0010
0110
,
0000
0001
0000
1000
,
0000
0100
0000
0010
,
0000
1001
2002
3003
,
0000
0010
0100
0110
,
0000
1000
0000
0001
,
0000
0010
0000
0100
,
2002
0000
0000
0000
,
0000
0000
0000
3003
,
0001
0010
1000
0000
,
1000
0010
0001
0000
,
1000
0000
1000
0100
,
0001
0000
0001
0100
,
1000
0000
1000
0010
,
0001
0000
0001
0010
,
1000
0000
0100
0000
,
1000
0001
0100
0000
,
0001
0000
0010
0000
,
0001
1000
0010
1000
,
0001
0000
0001
0100
,
1000
0000
1000
0100
,
0001
0000
0001
0010
,
1000
0000
1000
0010
,
0001
0000
1000
0000
,
0100
0000
1000
0001
,
1000
0000
0001
0000
,
0100
0000
0001
1000
,
0001
0000
1000
0000
,
0010
0000
1000
0000
,
2002
3003
0220
0330
,
1001
1001
0000
0000
,
0001
0000
0010
0000
,
1000
0010
0001
0000
,
0001
0100
0010
0000
,
1000
0100
0010
0001
,
1000
0000
0010
0000
,
0001
0010
1000
0000
,
1000
0100
0010
0001
,
1000
0000
0001
1000
,
0001
0000
0100
0000
,
1000
0100
0001
0000
,
0001
0010
1000
0000
,
1000
0010
0001
0001
,
1000
0000
0100
0000
,
0001
0100
1000
0000
,
1000
0010
0001
0000
,
0001
0010
1000
1000
,
0000
1001
2002
3003
,
0000
0010
0100
0110
,
0000
1001
2002
3003
,
0000
0100
0010
0110
,
0000
1001
2002
3003
,
0000
0010
0100
0110
,
0000
1001
2002
3003
,
0000
0100
0010
0100
,
0000
0000
0000
2002
0000
0000
0000
0000
,
0000
0000
0000
3003
0000
0000
0000
0000
;

//---------------dance-single - Daff_4K----------------
#NOTES:
     dance-single:
     Daff_4K:
     Medium:
     10:
     0.452587,0.576116,0.370737,0.449378,0.000000,282.000000,249.000000,33.000000,40.000000,0.000000,0.000000,0.452587,0.576116,0.370737,0.449378,0.000000,282.000000,249.000000,33.000000,40.000000,0.000000,0.000000:
0000
0000
0000
0000
,
0000
0000
0000
0000
,
0000
0000
0000
0000
,
0000
0000
0000
0000
,
0000
0000
0000
0000
,
0000
0000
0000
0000
,
0000
0000
0000
0000
,
0000
0000
0000
0000
,
0000
0000
0000
0000
,
0000
0000
0000
0000
,
0000
0000
1000
0001
,
1000
0110
2002
3003
,
1000
0000
0001
0000
0100
0010
0100
0000
,
0001
0000
0011
0000
0100
1000
0100
0000
,
1000
0000
1010
0000
0100
0001
0100
0000
,
0001
0110
2002
3003
,
0001
0000
1000
0000
0100
0010
0100
0000
,
1000
0000
1010
0000
0100
0001
0100
0000
,
0001
0000
0011
0000
0100
1000
0100
0000
,
2002
0000
0000
0000
,
0000
0000
0000
3003
,
1000
0001
1000
0000
0100
0000
0010
0000
,
0001
1000
0001
0000
0100
0000
0010
0000
,
2000
0000
3001
0000
1000
0010
1000
0000
,
0002
0000
1003
0000
0001
0100
0001
0000
,
0020
0000
0130
0000
0010
0001
0010
0000
,
0200
0000
0310
0000
0100
1000
0100
0000
,
1000
0000
0001
0000
0100
0010
0100
0000
,
0001
1000
0100
0010
,
0001
1000
0001
0000
0100
0000
0010
0000
,
1000
0001
1000
0000
0100
0000
0010
0000
,
0002
0000
1003
0000
0001
0010
0001
0000
,
2000
0000
3001
0000
1000
0100
1000
0000
,
0020
0000
0130
0000
0010
1000
0010
0000
,
0200
0000
0310
0000
0100
0001
0100
0000
,
0002
1000
1000
0100
,
0100
1000
1000
0010
,
2003
0001
0001
0100
,
0100
0001
0001
0010
,
3002
1000
1000
0100
,
2003
0001
0001
0100
,
3020
0230
0302
2003
,
3001
0000
2002
0000
0000
3003
0000
2100
,
0000
0000
3001
0000
1000
0000
0001
0100
,
0001
0000
1010
0000
1000
0000
0001
0010
,
0001
0000
1100
0000
1000
0000
0010
0100
,
0010
0000
1001
0000
0001
0000
1000
0100
,
1000
0000
0001
0000
1000
0000
0001
0010
,
0001
0000
1100
0000
1000
0000
0001
0100
,
0001
1010
1000
0001
,
1001
0000
1000
0000
0010
0100
0000
0102
,
0000
0000
1003
0000
0001
0000
1000
0100
,
1000
0000
0011
0000
0001
0000
1000
0010
,
1000
0000
0101
0000
0001
0000
0010
0100
,
0010
0000
1001
0000
1000
0000
0001
0100
,
0001
0000
1000
0000
0001
0000
1000
0010
,
1000
0000
0101
0000
0001
0000
1000
0100
,
1000
0000
0011
0000
0001
0000
0100
0010
,
0100
0000
1001
0000
1000
0001
1000
0001
,
1000
0110
2002
3003
,
2000
0000
3001
0000
0010
0100
0010
0000
,
0001
0110
2002
3003
,
0002
0000
1003
0000
0010
0100
0010
0000
,
1000
0110
2002
3003
,
2000
0000
3001
0000
0100
0010
0100
0010
,
1000
0110
2002
3003
,
0000
1000
0000
0001
0000
0200
0000
0000
,
0000
0300
0000
2002
0000
0000
0000
0000
,
0000
0000
0000
3003
0000
0000
0000
0000
;

//---------------dance-single - Daff_4K----------------
#NOTES:
     dance-single:
     Daff_4K:
     Hard:
     13:
     0.646783,0.883378,0.674066,0.258392,0.067407,403.000000,343.000000,60.000000,23.000000,0.000000,0.000000,0.646783,0.883378,0.674066,0.258392,0.067407,403.000000,343.000000,60.000000,23.000000,0.000000,0.000000:
0000
0000
0000
0000
,
0000
0000
0000
0000
,
0000
0000
0000
0000
,
0000
0000
0000
0000
,
0000
0000
0000
0000
,
0000
0000
0000
0000
,
0000
0000
0000
0000
,
0000
0000
0000
0000
,
0000
0000
0000
0000
,
0000
0000
0000
0000
,
0000
0000
0000
0001
1000
0100
0010
0001
,
1000
0000
0110
0000
1001
0000
0001
0010
,
0000
0001
0100
1000
0100
0001
0010
0100
,
1000
0000
0011
0000
0001
1000
0010
1000
,
0100
0000
1001
0000
1000
0001
0100
0001
,
0010
0000
0110
0000
1001
0000
1000
0010
,
0000
1000
0100
0001
0100
1000
0010
0100
,
0001
0000
1010
0000
1000
0001
0010
0001
,
0100
0000
1001
0000
0001
1000
0100
0000
,
2002
0000
0000
0000
,
0000
3003
0000
0001
0010
0100
1000
0001
,
0100
0010
1000
0000
1100
0000
0011
0000
,
0110
0000
1001
0000
0001
1000
0010
1010
,
0000
0101
0000
0001
1000
0100
0000
1100
,
0000
0011
0000
0001
1000
0010
0000
0110
,
0000
1001
0000
0001
1000
0100
0000
0110
,
0000
1001
0000
0001
0100
0010
1000
1001
,
0000
0001
0010
1000
0010
0001
0100
0010
,
0000
1000
0001
0010
0000
1001
0000
1000
,
0100
0010
0001
0000
0101
0000
0010
1000
,
0001
0000
1001
0000
1000
0001
0010
0011
,
0000
1100
0000
1000
0001
0100
0000
0101
,
0000
1010
0000
1000
0001
0010
0000
0110
,
0000
1001
0000
1000
0001
0100
0000
0110
,
0000
0000
0010
0000
1000
0000
0001
0000
1000
0000
0100
1000
0100
0000
0010
0001
,
0010
0001
0100
2000
0000
3100
0001
0020
,
0000
0031
1000
0010
0100
0001
0000
1001
,
0000
1000
0100
0002
0000
0103
1000
0020
,
0000
1030
0001
0010
0100
0110
0000
1001
,
0000
1000
0001
0020
0000
0130
1000
0002
,
0000
0103
0010
1000
0100
0010
0001
1000
,
0001
0100
0001
0100
0001
0100
0001
0000
1000
0100
1000
0100
1000
0100
1000
0000
,
0001
1000
0010
0200
0000
0300
0000
1002
,
0000
0013
0001
0100
0010
0100
0001
0010
,
0000
1001
0000
1000
0100
0001
0100
1000
,
0000
1010
0000
0100
0001
1000
0100
0010
,
0000
1001
0000
0001
0020
0000
0130
2100
,
0000
3010
1000
0100
0010
0100
1000
0010
,
0000
1001
0000
0001
0100
1000
0100
0001
,
0000
0011
0000
0100
1000
0001
0000
1001
,
0000
0001
0010
1000
0010
0010
0001
2001
,
0000
3010
0100
0010
1000
0001
1000
0100
,
0000
0011
0000
0001
0100
1000
0100
0001
,
0000
1001
0000
1000
0010
0100
0001
1000
,
0000
0011
0000
0001
1000
0100
1000
1002
,
0000
0013
0100
0010
0001
1000
0001
0100
,
0000
1010
0000
1000
0100
0001
0100
1000
,
0000
1001
0000
0001
0010
0100
1000
0001
,
0000
0000
1010
0000
0000
0000
1000
0000
0001
1000
0001
1000
0001
1000
0001
1000
,
0001
0000
0110
0000
1001
0000
1000
0200
,
0300
0100
0001
1000
0010
0001
0010
1000
,
0001
0000
0110
0000
1001
0000
0001
0200
,
0300
0100
1000
0001
0010
1000
0010
0001
,
1000
0000
0110
0000
1001
0000
0001
0020
,
0030
0010
1000
0001
0100
1000
0100
0001
,
1000
0000
0110
0000
2002
0000
0000
3003
,
0000
1000
0001
0100
0020
0200
0000
0000
,
0000
0330
0000
2002
0000
0000
0000
0000
,
0000
0000
0000
3003
0000
0000
0000
0000
;

//---------------dance-single - Daff_4K----------------
#NOTES:
     dance-single:
     Daff_4K:
     Challenge:
     15:
     0.637153,0.921786,0.595425,0.179751,0.146048,397.000000,344.000000,53.000000,16.000000,172.000000,0.000000,0.637153,0.921786,0.595425,0.179751,0.146048,397.000000,344.000000,53.000000,16.000000,172.000000,0.000000:
0000
0000
0000
0000
,
0000
0000
0000
0000
,
0000
0000
0000
0000
,
0000
0000
0000
0000
,
0000
0000
0000
0000
,
0000
0000
0000
0000
,
0000
0000
0000
0000
,
0000
0000
0000
0000
,
0000
0000
0000
0000
,
0000
0000
0000
0000
,
0000
0000
0000
0000
0000
0000
0010
0100
0010
0000
0100
0000
0001
0000
1000
0000
,
1100
0000
0011
0000
1001
0000
1000
0010
,
MMMM
0010
0001
1000
0100
0001
0100
1000
,
1001
0000
MMMM
0000
0001
0100
0010
1000
,
1100
0000
MMMM
0000
0010
0001
1000
0001
,
0101
0000
1010
0000
1001
0000
0001
0010
,
MMMM
0010
1000
0001
0100
1000
0100
0001
,
1001
0000
MMMM
0000
1000
0100
0010
0001
,
0101
0000
MMMM
0000
0010
1000
0001
1000
,
2002
0000
0000
0000
,
0000
0000
3003
0000
0000
0000
1000
0001
1000
0000
0001
0000
0100
0000
0010
0000
,
1000
0100
0001
0100
1000
0001
0100
1000
,
0100
0000
0001
0000
1000
0000
0100
0010
0100
0000
0010
0000
0001
0000
1001
0000
,
0000
MMMM
0000
1000
0010
0100
0001
0011
,
0000
MMMM
0000
0001
0100
0010
1000
1100
,
0000
MMMM
0000
1000
0001
0010
0100
0110
,
0000
0000
MMMM
0000
0000
0000
1000
0000
0001
1000
0001
0000
0010
0000
0110
0000
,
0000
1001
0001
0010
0100
0010
1000
0002
,
0000
0103
1000
0010
0000
0110
0000
1002
,
0000
0013
1000
0001
0100
1000
0000
2001
,
0000
3010
0001
1000
0100
0001
1000
1001
,
0000
MMMM
0000
0001
0010
0100
1000
1010
,
0000
MMMM
0000
1000
0100
0010
0001
0101
,
0000
MMMM
0000
0001
1000
0010
0100
0110
,
0000
0000
MMMM
0000
0000
0000
0001
0000
1000
0000
0001
0010
0001
0000
1000
0010
,
1000
0100
1000
0010
MMMM
0100
1000
0010
,
MMMM
0100
1000
0010
MMMM
0100
0010
1001
,
MMMM
0100
0001
0010
MMMM
0100
0001
0010
,
MMMM
0100
0001
0010
MMMM
0100
0010
1001
,
MMMM
1000
0100
0010
MMMM
0100
0010
0001
,
MMMM
0001
0100
0010
MMMM
0100
0010
1000
,
0001
0010
0100
0010
0001
0010
0001
0000
1000
0010
0100
0010
1000
0010
1000
0000
,
0100
0010
0100
2001
0000
3010
0100
0102
,
0000
0000
1003
0001
1000
0000
0100
0000
0010
0000
0001
0000
1000
0000
1001
0000
,
0000
MMMM
0000
0001
0010
1000
0010
0110
,
0000
MMMM
0000
1000
0100
0001
0100
1001
,
0000
0000
MMMM
0000
0000
0000
0001
1000
0001
0000
0010
0000
0100
0000
2100
0000
,
0000
0000
3001
1000
0001
0000
0100
0000
0010
0000
1000
0000
0001
0000
1001
0000
,
0000
MMMM
0000
1000
0010
0001
0010
0110
,
0000
MMMM
0000
0001
0100
1000
0100
1001
,
0000
0000
MMMM
0000
0000
0000
1000
0001
1000
0000
0001
0000
0100
0000
0120
0000
,
0000
0000
1030
0001
1000
0000
0100
0000
0001
0000
0100
0000
0010
0000
0110
0000
,
0000
MMMM
0000
1000
0010
0010
0001
0110
,
0000
MMMM
0000
0001
0100
0100
1000
0110
,
0000
0000
MMMM
0000
0000
0000
0001
1000
0001
0000
1000
0000
0100
0000
0120
0000
,
0000
0000
0031
1000
0001
0000
0100
0000
1000
0000
0100
0000
0010
0000
0100
0000
,
0000
MMMM
0000
0001
0010
0010
1000
0110
,
0000
MMMM
0000
1000
0100
0100
0001
0110
,
0000
0000
MMMM
0000
0000
0000
0001
0000
1000
0001
1000
0100
0010
0001
1000
0000
,
MMMM
0000
0110
0000
1001
0000
1000
0100
,
MMMM
0100
0001
0010
1000
0010
0001
1001
,
MMMM
0000
0110
0000
1001
0000
0001
0100
,
MMMM
0100
1000
0010
0001
0010
1000
1001
,
MMMM
0000
0110
0000
1001
0000
1000
0010
,
MMMM
0000
0010
0000
0001
0000
1000
0000
0010
0100
0010
0100
0001
1000
0001
1000
,
0001
1001
0220
0330
,
0000
1000
0100
0100
0002
2000
0000
0000
,
0000
3003
0000
0220
0000
0000
0000
0000
,
0000
0000
0000
0330
0000
0000
0000
0000
;
