#VERSION:0.83;
#TITLE:Prelude;
#SUBTITLE:;
#ARTIST:NAOKI underground;
#TITLETRANSLIT:;
#SUBTITLETRANSLIT:;
#ARTISTTRANSLIT:;
#GENRE:TRANCE;
#ORIGIN:;
#CREDIT:;
#BANNER:Prelude.png;
#BACKGROUND:Prelude-bg.png;
#PREVIEWVID:;
#JACKET:Prelude-jacket.png;
#CDIMAGE:;
#DISCIMAGE:;
#LYRICSPATH:;
#CDTITLE:cdtitle.png;
#MUSIC:Prelude.ogg;
#OFFSET:-0.115000;
#SAMPLESTART:69.100998;
#SAMPLELENGTH:15.000000;
#SELECTABLE:YES;
#BPMS:0.000=140.000,
96.000=135.000,
120.000=138.000,
124.000=139.250,
128.000=140.000;
#STOPS:;
#DELAYS:;
#WARPS:;
#TIMESIGNATURES:0.000=4=4;
#TICKCOUNTS:0.000=4;
#COMBOS:0.000=1;
#SPEEDS:0.000=1.000=0.000=0;
#SCROLLS:0.000=1.000;
#FAKES:;
#LABELS:0.000=Song Start;
#BGCHANGES:0.000=Prelude.avi=1.000=0=0=0=StretchNoLoop==CrossFade_Fastest==,
99999=-nosongbg-=1.000=0=0=0 // don't automatically add -songbackground-
;
#KEYSOUNDS:;
#ATTACKS:
;

//---------------dance-single - Daff_4K----------------
#NOTEDATA:;
#CHARTNAME:Daff_4K;
#STEPSTYPE:dance-single;
#DESCRIPTION:Daff_4K;
#CHARTSTYLE:;
#DIFFICULTY:Beginner;
#METER:2;
#RADARVALUES:0.096985,0.160924,0.025144,0.000000,0.000000,81.000000,78.000000,3.000000,0.000000,0.000000,0.000000,0.000000,0.000000,0.000000,0.096985,0.160924,0.025144,0.000000,0.000000,81.000000,78.000000,3.000000,0.000000,0.000000,0.000000,0.000000,0.000000,0.000000;
#CREDIT:Daff_4K;
#NOTES:
// measure 0
0000
0000
0000
0000
,  // measure 1
0000
0000
0000
0000
,  // measure 2
0000
0000
0000
0000
,  // measure 3
0000
0000
0000
0000
,  // measure 4
1000
0000
0000
0000
,  // measure 5
0001
0000
0010
0000
,  // measure 6
0001
0000
0000
0000
,  // measure 7
1000
0000
0010
0000
,  // measure 8
1000
0000
0000
0000
,  // measure 9
0100
0000
0000
0000
,  // measure 10
0001
0000
0000
0000
,  // measure 11
0100
0000
0000
0000
,  // measure 12
1000
0000
0000
0000
,  // measure 13
0001
0000
0000
0000
,  // measure 14
0100
0000
0000
0000
,  // measure 15
0010
0000
0000
0000
,  // measure 16
1000
0000
0001
0000
,  // measure 17
1000
0000
0000
0000
,  // measure 18
0100
0000
1000
0000
,  // measure 19
0100
0000
0000
0000
,  // measure 20
0010
0000
0001
0000
,  // measure 21
0010
0000
0000
0000
,  // measure 22
0001
0000
1000
0000
,  // measure 23
0001
0000
0000
0000
,  // measure 24
1001
0000
0000
0000
,  // measure 25
0000
0000
0000
0000
,  // measure 26
1000
0000
0000
0000
,  // measure 27
0000
0000
0000
0000
,  // measure 28
1001
0000
0000
0000
,  // measure 29
0000
0000
0000
0000
,  // measure 30
0001
0000
0000
0000
,  // measure 31
0000
0000
0000
0000
,  // measure 32
0100
0000
0000
0000
,  // measure 33
0100
0000
0000
0000
,  // measure 34
0010
0000
0000
0000
,  // measure 35
0010
0000
0000
0000
,  // measure 36
1000
0000
1000
0000
,  // measure 37
0001
0000
0001
0000
,  // measure 38
0000
0000
0000
0000
,  // measure 39
0000
0000
0000
0000
,  // measure 40
0000
1000
0000
0100
,  // measure 41
0000
1000
0000
0000
,  // measure 42
1000
0000
0001
0000
,  // measure 43
1000
0000
0000
0000
,  // measure 44
0000
0001
0000
0100
,  // measure 45
0000
0001
0000
0000
,  // measure 46
0001
0000
1000
0000
,  // measure 47
0001
0000
0000
0000
,  // measure 48
0000
1000
0000
0100
,  // measure 49
0000
0010
0000
0000
,  // measure 50
0000
0001
0000
0100
,  // measure 51
0000
0010
0000
0000
,  // measure 52
0000
1000
0000
0001
,  // measure 53
0000
0010
0000
0000
,  // measure 54
0000
0001
0000
1000
,  // measure 55
0000
0010
0000
0000
,  // measure 56
1000
0000
0100
0000
,  // measure 57
0001
0000
0100
0000
,  // measure 58
1000
0000
0000
0000
,  // measure 59
0001
0000
1000
0000
,  // measure 60
0001
0000
0100
0000
,  // measure 61
1000
0000
0100
0000
,  // measure 62
0001
0000
1000
0000
,  // measure 63
0001
0000
1000
0000
,  // measure 64
1001
0000
0000
0000
;

//---------------dance-single - Daff_4K----------------
#NOTEDATA:;
#CHARTNAME:Daff_4K;
#STEPSTYPE:dance-single;
#DESCRIPTION:Daff_4K;
#CHARTSTYLE:;
#DIFFICULTY:Easy;
#METER:6;
#RADARVALUES:0.232286,0.331906,0.201155,0.217918,0.016763,194.000000,170.000000,24.000000,26.000000,0.000000,0.000000,0.000000,0.000000,0.000000,0.232286,0.331906,0.201155,0.217918,0.016763,194.000000,170.000000,24.000000,26.000000,0.000000,0.000000,0.000000,0.000000,0.000000;
#CREDIT:Daff_4K;
#NOTES:
// measure 0
0000
0000
0000
0000
,  // measure 1
0000
0000
0000
0000
,  // measure 2
0000
0000
0000
0000
,  // measure 3
0000
0000
0000
0000
,  // measure 4
0001
0100
0002
0003
,  // measure 5
2000
3000
0020
0030
,  // measure 6
1000
0100
2000
3000
,  // measure 7
0002
0003
0020
0030
,  // measure 8
0001
0000
0100
0010
,  // measure 9
0100
0000
0001
1000
,  // measure 10
0001
0000
0010
0100
,  // measure 11
0010
0001
0100
0010
,  // measure 12
1000
0000
0100
0010
,  // measure 13
0100
0000
1000
0001
,  // measure 14
1000
0000
0010
0100
,  // measure 15
0010
1000
0100
0010
,  // measure 16
0001
0100
0000
0010
,  // measure 17
0010
0100
0000
0001
,  // measure 18
0010
0100
0000
1000
,  // measure 19
0100
0100
0010
0001
,  // measure 20
1000
0100
0000
0010
,  // measure 21
0010
0100
0000
1000
,  // measure 22
0010
0100
0000
0010
,  // measure 23
0001
0010
1000
0001
,  // measure 24
2002
0000
3003
0000
,  // measure 25
0000
0000
0000
0000
,  // measure 26
0220
0000
0330
0000
,  // measure 27
0000
0000
0000
0000
,  // measure 28
1001
0000
0000
0010
0000
0100
0000
0010
,  // measure 29
0000
0000
0000
0000
,  // measure 30
1000
0000
0000
0001
0000
0000
1001
0000
,  // measure 31
0000
0000
0000
0000
,  // measure 32
1001
0000
0100
0000
,  // measure 33
1000
0000
0001
0000
,  // measure 34
1001
0000
0100
0000
,  // measure 35
0001
0000
1000
0000
,  // measure 36
1001
0000
0010
0000
,  // measure 37
0001
0000
0100
0000
,  // measure 38
0000
0110
0000
0000
0000
0000
0000
0110
0000
0000
0000
0000
0000
0000
0000
1001
,  // measure 39
0000
0000
0000
0000
0000
0000
0000
1001
0000
0000
0000
0000
0000
0000
0000
0000
,  // measure 40
0001
0010
0001
1000
,  // measure 41
0001
0100
0010
1000
,  // measure 42
1000
0001
1000
0100
,  // measure 43
0001
0100
0010
0001
,  // measure 44
1000
0010
1000
0001
,  // measure 45
1000
0100
0010
0001
,  // measure 46
0001
1000
0001
0100
,  // measure 47
1000
0100
0010
1000
,  // measure 48
0002
0003
0010
0001
,  // measure 49
2000
3000
0010
0110
,  // measure 50
0200
0300
0001
1000
,  // measure 51
0002
0003
0010
1001
,  // measure 52
2000
3000
0010
1000
,  // measure 53
0002
0003
0010
0110
,  // measure 54
0200
0300
1000
0001
,  // measure 55
2000
3000
0010
1001
,  // measure 56
0002
0003
2000
3000
,  // measure 57
0200
0300
0110
1001
,  // measure 58
0001
0100
1000
0100
,  // measure 59
0001
1000
0101
1010
,  // measure 60
2000
3000
0002
0003
,  // measure 61
0200
0300
0110
1001
,  // measure 62
1000
0100
0001
0100
,  // measure 63
1000
0001
1001
0110
,  // measure 64
2002
0000
0000
0000
,  // measure 65
0000
0000
0000
0000
,  // measure 66
3003
0000
0000
0000
;

//---------------dance-single - Daff_4K----------------
#NOTEDATA:;
#CHARTNAME:Daff_4K;
#STEPSTYPE:dance-single;
#DESCRIPTION:Daff_4K;
#CHARTSTYLE:;
#DIFFICULTY:Medium;
#METER:8;
#RADARVALUES:0.320890,0.387223,0.083815,0.050289,0.083815,268.000000,258.000000,10.000000,6.000000,0.000000,0.000000,0.000000,0.000000,0.000000,0.320890,0.387223,0.083815,0.050289,0.083815,268.000000,258.000000,10.000000,6.000000,0.000000,0.000000,0.000000,0.000000,0.000000;
#CREDIT:Daff_4K;
#NOTES:
// measure 0
0000
0000
0000
0000
,  // measure 1
0000
0000
0000
0000
,  // measure 2
0000
0000
0000
0000
,  // measure 3
0000
0000
0000
0000
,  // measure 4
0001
0000
1000
0000
0000
0000
0000
0001
0000
0000
0100
0000
0000
0000
0000
0010
,  // measure 5
0000
0000
1000
0000
0000
0000
0000
0001
0000
0000
0010
0000
0000
0000
0100
0000
,  // measure 6
1000
0000
0001
0000
0000
0000
0000
1000
0000
0000
0100
0000
0000
0000
0000
0010
,  // measure 7
0000
0000
0001
0000
0000
0000
0000
1000
0000
0000
0010
0000
0100
0000
0000
0000
,  // measure 8
0001
0000
0010
0000
0001
0100
0001
0000
,  // measure 9
0100
0000
0010
0000
1000
0001
1000
0000
,  // measure 10
0001
0000
0010
0000
0100
1000
0100
0000
,  // measure 11
1000
0000
0001
0000
0100
0010
0100
0010
,  // measure 12
1000
0000
0010
0000
1000
0100
1000
0000
,  // measure 13
0100
0000
0010
0000
0001
1000
0001
0000
,  // measure 14
1000
0000
0010
0000
0100
0001
0100
0000
,  // measure 15
0001
0000
1000
0000
0100
0010
0100
0010
,  // measure 16
0001
0000
0100
0010
0100
0000
0001
0000
,  // measure 17
1000
0000
0001
0010
0001
0000
0100
0000
,  // measure 18
0010
0000
1000
0001
1000
0000
0100
0000
,  // measure 19
0010
0000
0001
1000
0001
0100
0010
0000
,  // measure 20
1000
0000
0100
0010
0100
0000
1000
0000
,  // measure 21
0001
0000
1000
0010
1000
0000
0100
0000
,  // measure 22
0010
0000
0001
1000
0001
0000
0100
0000
,  // measure 23
0010
0000
1000
0001
1000
0100
0010
0000
,  // measure 24
0001
0000
0000
0100
0000
0000
0010
0000
0000
0000
0000
0000
0000
0000
0000
0000
,  // measure 25
0000
0000
0000
0000
,  // measure 26
1000
0000
0000
0100
0000
0000
0010
0000
0000
0000
0000
0000
0000
0000
0000
0000
,  // measure 27
0000
0000
0000
0000
0000
0001
0000
1000
,  // measure 28
0001
0000
0000
0100
0000
0010
0000
1001
,  // measure 29
0000
0000
0000
0000
,  // measure 30
0100
0000
0000
0010
0000
0000
1001
0000
,  // measure 31
0000
0000
0000
0000
,  // measure 32
2000
0000
0010
0000
,  // measure 33
0001
0000
3100
1000
,  // measure 34
0002
0000
0010
0000
,  // measure 35
1000
0000
0103
0001
,  // measure 36
2000
0000
3100
1000
,  // measure 37
0002
0000
0103
0001
,  // measure 38
0000
0110
0000
0000
0000
0000
0000
1001
0000
0000
0000
0000
0000
0000
0000
1100
,  // measure 39
0000
0000
0000
0000
0000
0000
0000
0101
0000
0000
0000
0000
0000
0000
0000
0000
,  // measure 40
0001
1000
0000
0001
0000
0100
0000
0010
,  // measure 41
0000
1000
0000
0100
0000
0001
0000
0100
,  // measure 42
0000
1000
0001
0000
1000
0010
0000
0100
,  // measure 43
0001
0000
1000
0001
0000
0010
0000
0100
,  // measure 44
1000
0001
0000
1000
0000
0100
0000
0010
,  // measure 45
0000
0001
0000
0100
0000
1000
0000
0100
,  // measure 46
0000
0001
1000
0000
0001
0010
0000
0100
,  // measure 47
1000
0000
0001
1000
0000
0010
0000
0100
,  // measure 48
0001
0010
1000
0010
,  // measure 49
0001
0000
0000
0000
0100
0000
0000
0000
0010
0000
1000
0000
0000
0001
0000
1000
,  // measure 50
0000
0100
0001
0100
,  // measure 51
1000
0000
0001
0000
0100
0010
0100
0001
,  // measure 52
1000
0010
0001
0010
,  // measure 53
1000
0000
0000
0000
0100
0000
0000
0000
0010
0000
0001
0000
0000
1000
0000
0001
,  // measure 54
0000
0100
1000
0100
,  // measure 55
0001
0000
1000
0000
0100
0010
0100
1000
,  // measure 56
0001
0000
0100
0010
0100
0000
0001
1000
,  // measure 57
0001
0000
0000
0000
0010
0000
0000
0000
0100
0000
0010
0000
0000
0001
0000
1000
,  // measure 58
0000
0000
0010
0100
0010
0000
1000
0001
,  // measure 59
1000
0000
0100
0000
0010
0001
1000
0001
,  // measure 60
1000
0000
0100
0010
0100
0000
1000
0001
,  // measure 61
1000
0000
0000
0000
0010
0000
0000
0000
0100
0000
0010
0000
0000
1000
0000
0001
,  // measure 62
0000
0000
0010
0100
0010
0000
0001
1000
,  // measure 63
0001
0101
0110
1010
,  // measure 64
2002
0000
0000
0000
,  // measure 65
0000
0000
0000
0000
,  // measure 66
3003
0000
0000
0000
;

//---------------dance-single - Daff_4K----------------
#NOTEDATA:;
#CHARTNAME:Daff_4K;
#STEPSTYPE:dance-single;
#DESCRIPTION:Daff_4K;
#CHARTSTYLE:;
#DIFFICULTY:Hard;
#METER:12;
#RADARVALUES:0.434638,0.497859,0.209536,0.150866,0.611846,363.000000,338.000000,25.000000,18.000000,0.000000,0.000000,0.000000,0.000000,0.000000,0.434638,0.497859,0.209536,0.150866,0.611846,363.000000,338.000000,25.000000,18.000000,0.000000,0.000000,0.000000,0.000000,0.000000;
#CREDIT:Daff_4K;
#NOTES:
// measure 0
0000
0000
0000
0000
,  // measure 1
0000
0000
0000
0000
,  // measure 2
0000
0000
0000
0000
,  // measure 3
0000
0000
0000
0000
,  // measure 4
0001
0000
1000
0000
0000
0000
0000
0100
0000
0000
0001
0000
0000
0000
0000
0100
,  // measure 5
0000
0000
1000
0000
0000
0000
0000
0010
0000
0000
0001
0000
0010
0000
0000
0000
,  // measure 6
1000
0000
0001
0000
0000
0000
0000
0100
0000
0000
1000
0000
0000
0000
0000
0100
,  // measure 7
0000
0000
0001
0000
0000
0000
0000
0010
0000
0000
1000
0000
0010
0000
0000
0000
,  // measure 8
0002
0000
0000
0000
1003
0000
0000
0001
0000
0100
0000
0010
0000
0000
0000
0000
,  // measure 9
0200
0000
0000
0000
1300
0000
0000
0100
0000
0001
0000
1000
0000
0100
0000
0000
,  // measure 10
0020
0000
0000
0000
0130
0000
0000
0010
0000
0001
0000
1000
0000
0000
0000
0000
,  // measure 11
0020
0000
0000
0000
0130
0000
0000
0010
0000
1000
0000
0100
0000
0010
0000
0001
,  // measure 12
2000
0000
0000
0000
3001
0000
0000
1000
0000
0100
0000
0010
0000
0000
0000
0000
,  // measure 13
0200
0000
0000
0000
0301
0000
0000
0100
0000
1000
0000
0001
0000
1000
0000
0000
,  // measure 14
0020
0000
0000
0000
0130
0000
0000
0010
0000
1000
0000
0001
0000
0000
0000
0000
,  // measure 15
0020
0000
0000
0000
0130
0000
0000
0010
0000
0001
0000
0100
0000
0010
0000
1000
,  // measure 16
0001
0000
0010
0000
0001
0000
0000
1000
0000
0100
0000
1000
0000
0001
0000
0000
,  // measure 17
0100
0000
0010
0000
0100
0000
0000
0001
0000
1000
0000
0001
0000
0010
0000
0000
,  // measure 18
0100
0000
1000
0000
0100
0000
0000
0010
0000
0001
0000
1000
0000
0001
0000
0000
,  // measure 19
0100
0000
0010
0000
1000
0000
0000
0001
0000
1000
0000
0100
0000
0010
0000
0001
,  // measure 20
1000
0000
0010
0000
1000
0000
0000
0001
0000
0100
0000
0001
0000
1000
0000
0000
,  // measure 21
0100
0000
0010
0000
0100
0000
0000
1000
0000
0001
0000
1000
0000
0010
0000
0000
,  // measure 22
0100
0000
0001
0000
0100
0000
0000
0010
0000
1000
0000
0001
0000
1000
0000
0000
,  // measure 23
0100
0010
0001
0100
0010
1000
0001
0000
,  // measure 24
0011
0000
0000
0110
0000
0000
1100
0000
0000
0000
0000
0000
0000
0000
0000
0000
,  // measure 25
0000
0000
0000
0000
,  // measure 26
1010
0000
0000
0110
0000
0000
0101
0000
0000
0000
0000
0000
0000
0000
0000
0000
,  // measure 27
0000
0000
0000
0000
0000
0001
1000
0100
,  // measure 28
0110
0000
0000
1001
0000
0110
0000
1001
,  // measure 29
0000
0000
0000
0000
,  // measure 30
0101
0000
0000
1100
0000
0000
1001
0000
,  // measure 31
0000
0000
0000
0000
,  // measure 32
2001
0100
0001
0010
,  // measure 33
0001
0100
0001
0010
,  // measure 34
3002
0100
1000
0010
,  // measure 35
1000
0000
0100
0000
1000
0000
0013
0001
,  // measure 36
1000
0000
0001
0000
0100
0001
0000
0100
0000
0000
0010
0000
1000
0010
0000
1000
,  // measure 37
0000
0000
0001
0000
0010
0001
0000
0010
0000
0000
0100
0000
1000
0100
0000
1000
,  // measure 38
0000
0002
0000
0000
0000
0013
0000
2001
0000
0000
0000
0000
0000
3010
0000
1002
,  // measure 39
0000
0000
0000
0000
0000
0103
0000
2001
0000
0000
3100
0010
0000
0100
0000
1000
,  // measure 40
0001
0020
0000
1000
0000
0100
0000
0031
,  // measure 41
0000
1000
0010
0001
0000
0110
0000
1001
,  // measure 42
0000
1000
0100
0000
0001
0100
0000
1000
,  // measure 43
0001
0000
0100
0010
0000
0110
0000
1001
,  // measure 44
1000
0020
0000
0001
0000
0100
0000
1030
,  // measure 45
0000
0001
0010
1000
0000
0110
0000
1001
,  // measure 46
0000
0001
0100
0000
1000
0100
0000
0001
,  // measure 47
1000
0000
0100
0010
0000
0110
0000
1001
,  // measure 48
0001
0000
0100
0000
0000
0010
0000
0010
0000
0000
1000
0000
0000
0001
0000
0001
,  // measure 49
0000
0000
0010
0000
0000
0100
0000
0100
0000
0000
1000
0000
0001
1000
0000
0001
,  // measure 50
0000
0000
0100
0000
0000
0010
0000
0010
0000
0000
1000
0000
0000
0100
0000
0100
,  // measure 51
0000
0000
0010
0000
0000
0001
0000
0001
0000
0000
0100
0000
0010
0100
0000
0010
,  // measure 52
1000
0000
0100
0000
0000
0010
0000
0010
0000
0000
0001
0000
0000
1000
0000
1000
,  // measure 53
0000
0000
0010
0000
0000
0100
0000
0100
0000
0000
0001
0000
1000
0001
0000
1000
,  // measure 54
0000
0000
0100
0000
0000
0010
0000
0010
0000
0000
0001
0000
0000
0100
0000
0100
,  // measure 55
0000
0000
0010
1000
0000
0001
1000
0000
0001
0000
0010
0000
0100
0010
0000
0100
,  // measure 56
1000
0000
0001
0000
0000
0100
0000
1000
0000
0000
0100
0000
0000
0001
0000
1000
,  // measure 57
0000
0000
0001
0000
0000
0010
0000
0100
0010
0000
0100
0000
0000
1000
0000
0001
,  // measure 58
0000
0000
0100
0000
0000
0010
0000
1000
0000
0000
0100
0000
0000
0010
0000
0001
,  // measure 59
0000
0000
1000
0000
0000
0010
0000
0100
0010
0000
0100
0000
0000
0001
0000
1000
,  // measure 60
0001
0000
1000
0000
0000
0100
0000
0001
0000
0000
0100
0000
0000
1000
0000
0001
,  // measure 61
0000
0000
1000
0000
0000
0010
0000
0100
0010
0000
0100
0000
0000
0001
0000
1000
,  // measure 62
0100
0000
0010
0000
0001
0000
0000
0001
0100
0000
0010
0000
1000
0000
0000
1000
,  // measure 63
0001
0000
0010
0000
1000
0000
0010
0000
0001
0000
1000
0000
0010
0100
0000
0010
,  // measure 64
2000
0000
0000
0002
0000
0000
0000
0000
0000
0000
0000
0000
0000
0000
0000
0000
,  // measure 65
0000
0000
0000
0000
,  // measure 66
3003
0000
0000
0000
;

//---------------dance-single - Daff_4K underground----------------
#NOTEDATA:;
#CHARTNAME:Daff_4K underground;
#STEPSTYPE:dance-single;
#DESCRIPTION:Daff_4K underground;
#CHARTSTYLE:;
#DIFFICULTY:Challenge;
#METER:13;
#RADARVALUES:0.493309,0.553176,0.268207,0.427454,0.724996,412.000000,380.000000,32.000000,51.000000,0.000000,0.000000,0.000000,0.000000,0.000000,0.493309,0.553176,0.268207,0.427454,0.724996,412.000000,380.000000,32.000000,51.000000,0.000000,0.000000,0.000000,0.000000,0.000000;
#CREDIT:Daff_4K underground;
#NOTES:
// measure 0
0000
0000
0000
0000
,  // measure 1
0000
0000
0000
0000
,  // measure 2
0000
0000
0000
0000
,  // measure 3
0000
0000
0000
0000
,  // measure 4
0001
0000
0100
0000
0000
0010
1000
0020
0000
0000
0130
0000
0000
0001
1000
0002
,  // measure 5
0000
0000
0103
0000
0000
0010
1000
0020
0000
0000
0130
0000
0100
0000
0001
0000
,  // measure 6
1000
0000
0100
0000
0000
0010
0001
0020
0000
0000
0130
0000
0000
1000
0001
2000
,  // measure 7
0000
0000
3100
0000
0000
0010
0001
0020
0000
0000
0130
0000
1000
0000
0001
0000
,  // measure 8
0201
0000
0000
0000
1300
0000
0000
0100
0000
0010
0000
0100
0000
0001
0000
2000
,  // measure 9
0000
0000
0100
0000
3100
0000
0000
0010
0000
0001
0000
1000
0000
0001
0000
0100
,  // measure 10
0020
0000
0000
0000
1030
0000
0000
0100
0000
0010
0000
0100
0000
1000
0000
0002
,  // measure 11
0000
0000
0100
0000
0103
0000
0010
0100
0000
0010
0000
1000
0000
0001
0000
1000
,  // measure 12
0200
0000
0000
0000
0301
0000
0000
0100
0000
0010
0000
0100
0000
1000
0000
0002
,  // measure 13
0000
0000
0100
0000
0103
0000
0000
0010
0000
1000
0000
0001
0000
1000
0000
0100
,  // measure 14
0020
0000
0000
0000
0031
0000
0000
0100
0000
0010
0000
0100
0000
0001
0000
2000
,  // measure 15
0000
0000
0100
0000
3100
0000
0010
0100
0000
0010
0000
0001
0000
1000
0000
0001
,  // measure 16
1000
0000
0010
0000
0100
0000
0000
0010
0000
1000
0000
0010
0000
1000
0000
0001
,  // measure 17
0000
0000
0010
0000
0100
0000
0000
0010
0000
0001
0000
0010
0000
0001
0000
1000
,  // measure 18
0001
0000
0100
0000
0010
0000
0000
0100
0000
0001
0000
0100
0000
0001
0000
1000
,  // measure 19
0000
0000
0100
0000
0010
0000
0100
1000
0000
0100
0000
1000
0000
0010
0000
0100
,  // measure 20
0001
0000
0010
0000
0100
0000
0000
0010
0000
0001
0000
0010
0000
0001
0000
1000
,  // measure 21
0000
0000
0010
0000
0100
0000
0000
0010
0000
1000
0000
0010
0000
1000
0000
0001
,  // measure 22
1000
0000
0100
0000
0010
0000
0000
0100
0000
1000
0000
0100
0000
1000
0000
0001
,  // measure 23
0000
0000
0100
0000
0010
0000
0100
0001
0000
1000
0000
0001
1000
0000
0001
0000
,  // measure 24
1100
0000
0000
0110
0000
0000
0022
0000
0000
0000
0000
0000
0000
0000
0000
0000
,  // measure 25
0033
0000
0000
0000
,  // measure 26
0101
0000
0000
0110
0000
0000
2020
0000
0000
0000
0000
0000
0000
0000
0000
0000
,  // measure 27
3030
0000
0000
0000
0000
1000
0100
0001
,  // measure 28
0110
0000
0000
1001
0000
0110
0000
1001
,  // measure 29
0000
0000
0000
0000
,  // measure 30
0101
0000
0000
1010
0000
0000
2002
0000
,  // measure 31
0000
0000
0000
3003
,  // measure 32
2000
0010
0001
0100
,  // measure 33
0001
0000
0010
0000
0100
0000
3010
1000
,  // measure 34
0002
0010
1000
0100
,  // measure 35
1000
0000
0010
0000
0100
0000
0013
0001
,  // measure 36
2000
0000
0000
0000
3010
0000
0000
1000
0002
0000
0000
0000
0013
0000
0000
0001
,  // measure 37
0200
0000
0000
0000
0310
0000
0000
1000
0200
0000
0000
0000
0310
0000
0001
1000
,  // measure 38
0000
0020
0000
0000
0000
0130
0000
2001
0000
0000
0000
0000
0000
3100
0000
1002
,  // measure 39
0000
0000
0000
0000
0000
0103
0000
1001
0000
0000
0100
0010
0000
1001
0000
1000
,  // measure 40
0001
0100
0000
1100
0000
0101
0000
1001
,  // measure 41
0000
1000
0100
0001
0000
0110
0000
1001
,  // measure 42
0000
1000
0010
0000
0001
0100
0000
1000
,  // measure 43
0001
0000
0100
0010
0000
0110
0000
1001
,  // measure 44
1000
0100
0000
0101
0000
1100
0000
1001
,  // measure 45
0000
0001
0100
1000
0000
0110
0000
1001
,  // measure 46
0000
0001
0010
0000
1000
0100
0000
0001
,  // measure 47
1000
0000
0100
0010
0000
0110
0000
1001
,  // measure 48
0001
0000
0200
0000
0000
0010
0000
0310
0000
0000
2000
0000
0000
0100
0000
3100
,  // measure 49
0000
0000
0020
0000
0000
0001
0000
0031
0000
0000
1000
0000
0001
0100
0000
0100
,  // measure 50
0010
0000
2000
0000
0000
0001
0000
3001
0000
0000
0020
0000
0000
0100
0000
0130
,  // measure 51
0000
0000
2000
0000
0000
0010
0000
3010
0100
0001
0100
0000
0001
1000
0000
0001
,  // measure 52
1000
0000
0200
0000
0000
0010
0000
0310
0000
0000
0002
0000
0000
0100
0000
0103
,  // measure 53
0000
0000
0020
0000
0000
1000
0000
1030
0000
0000
0001
0000
1000
0100
0000
0100
,  // measure 54
0010
0000
0002
0000
0000
1000
0000
1003
0000
0000
0020
0000
0000
0100
0000
0130
,  // measure 55
0001
1000
0000
0001
1000
0000
0100
0010
0100
0010
0000
0001
1000
0000
0001
1000
,  // measure 56
0001
0000
0200
0000
0000
0310
0000
1000
0000
0000
0002
0000
0000
0013
0000
0100
,  // measure 57
0000
0000
2000
0000
0000
3001
0000
0100
0010
0000
1000
0000
0100
0010
0000
0100
,  // measure 58
0010
0000
0002
0000
0000
1003
0000
0010
0000
0000
0200
0000
0000
0301
0000
1000
,  // measure 59
0000
0000
0200
0000
0000
0310
0000
0001
0010
0001
0000
0100
0010
0000
1000
0010
,  // measure 60
1000
0000
0200
0000
0000
0310
0000
0001
0000
0000
2000
0000
0000
3010
0000
0100
,  // measure 61
0000
0000
0002
0000
0000
1003
0000
0100
0010
0000
0001
0000
0100
0010
0000
0100
,  // measure 62
0010
0000
1000
0000
0100
0000
0000
0100
0010
0000
0001
0000
0100
0000
0000
0100
,  // measure 63
0010
0000
1000
0001
1000
0000
0001
0000
0010
0000
0100
0010
0100
1000
0000
0001
,  // measure 64
0200
0000
0000
0020
0000
0000
0000
0000
0000
0000
0000
0000
0000
0000
0000
0000
,  // measure 65
0000
0000
0000
0000
,  // measure 66
0330
0000
0000
0000
;
