#TITLE:Party 4U;
#SUBTITLE:"holy nite mix";
#ARTIST:Cranky;
#TITLETRANSLIT:;
#SUBTITLETRANSLIT:;
#ARTISTTRANSLIT:;
#GENRE:RAVE;
#CREDIT:;
#BANNER:Party 4U (holy nite mix).png;
#BACKGROUND:Party 4U (holy nite mix)-bg.png;
#LYRICSPATH:;
#CDTITLE:cdtitle.png;
#MUSIC:Party 4U (holy nite mix).ogg;
#OFFSET:-0.133000;
#SAMPLESTART:39.358002;
#SAMPLELENGTH:15.000000;
#SELECTABLE:YES;
#BPMS:0.000000=159.000000
;
#STOPS:
;
#BGCHANGES:0.000=Party 4U (holy nite mix).avi=1.000=0=0=0=StretchNoLoop==CrossFade_Fastest==,
99999=-nosongbg-=1.000=0=0=0 // don't automatically add -songbackground-
;
#KEYSOUNDS:;
#ATTACKS:;

//---------------dance-single - Daff_4K----------------
#NOTES:
     dance-single:
     Daff_4K:
     Beginner:
     3:
     0.132624,0.222543,0.135387,0.000000,0.000000,96.000000,82.000000,14.000000,0.000000,0.000000,0.000000,0.132624,0.222543,0.135387,0.000000,0.000000,96.000000,82.000000,14.000000,0.000000,0.000000,0.000000:
// measure 0
0000
0000
0000
0000
,  // measure 1
0000
0000
0000
0000
,  // measure 2
0000
0000
0000
0000
,  // measure 3
0000
0000
0000
0000
,  // measure 4
0000
0000
0000
0000
,  // measure 5
0000
0000
0000
0000
,  // measure 6
0000
0000
0000
0000
,  // measure 7
0000
0000
0000
0000
,  // measure 8
1000
0000
0000
0000
,  // measure 9
0001
0000
0000
0000
,  // measure 10
0100
0000
0000
0000
,  // measure 11
0010
0000
0000
0000
,  // measure 12
1000
0000
0000
0000
,  // measure 13
0001
0000
0000
0000
,  // measure 14
0010
0000
0000
0000
,  // measure 15
0100
0000
0000
0000
,  // measure 16
1001
0000
0000
0000
,  // measure 17
0010
0010
0010
0010
,  // measure 18
0010
0000
0000
0000
,  // measure 19
1000
0000
0001
0000
,  // measure 20
1000
0000
0000
0000
,  // measure 21
0100
0000
0100
0000
,  // measure 22
0010
0000
0000
0000
,  // measure 23
0001
0000
1000
0000
,  // measure 24
0001
0000
0000
0000
,  // measure 25
0100
0000
0100
0000
,  // measure 26
0110
0000
0000
0000
,  // measure 27
0010
0000
1000
0000
,  // measure 28
1001
0000
0000
0000
,  // measure 29
1000
0000
0100
0000
,  // measure 30
0110
0000
0000
0000
,  // measure 31
0010
0000
0001
0000
,  // measure 32
1001
0000
0000
0000
,  // measure 33
0001
0000
0100
0000
,  // measure 34
0001
0000
1000
0000
,  // measure 35
0001
0000
0000
0000
,  // measure 36
0010
0000
0010
0000
,  // measure 37
0100
0000
0000
0000
,  // measure 38
1000
0000
0001
0000
,  // measure 39
1000
0000
0000
0000
,  // measure 40
0010
0000
0010
0000
,  // measure 41
0100
0100
0100
0000
,  // measure 42
0001
0000
0000
0000
,  // measure 43
1000
0000
0000
0000
,  // measure 44
0100
0000
0000
0000
,  // measure 45
0010
0000
0100
0100
,  // measure 46
0100
0000
0000
0000
,  // measure 47
1000
0000
0000
0000
,  // measure 48
0001
0000
0000
0000
,  // measure 49
0100
0000
0010
0000
,  // measure 50
1000
0000
0000
0000
,  // measure 51
1001
0000
0000
0000
,  // measure 52
0100
0000
0000
0000
,  // measure 53
0110
0000
0000
0000
,  // measure 54
0001
0000
0000
0000
,  // measure 55
1001
0000
0000
0000
,  // measure 56
0100
0000
0000
0000
,  // measure 57
0110
0000
0000
0000
,  // measure 58
1001
0000
0000
0000
,  // measure 59
0100
0000
0010
0000
,  // measure 60
1001
0000
0000
0000
,  // measure 61
0100
0000
0010
0000
,  // measure 62
0110
0000
0000
0000
,  // measure 63
0001
0000
1000
0000
,  // measure 64
0110
0000
0000
0000
,  // measure 65
0010
0000
0000
1001
;

//---------------dance-single - Daff_4K----------------
#NOTES:
     dance-single:
     Daff_4K:
     Easy:
     5:
     0.237619,0.286127,0.135387,0.270775,0.000000,172.000000,158.000000,14.000000,28.000000,0.000000,0.000000,0.237619,0.286127,0.135387,0.270775,0.000000,172.000000,158.000000,14.000000,28.000000,0.000000,0.000000:
0000
0000
0000
0000
,
0000
0000
0000
0000
,
0000
0000
0000
0000
,
0000
0000
0000
0000
,
0000
0000
0000
0000
,
0000
0000
0000
0000
,
0000
0000
0000
0000
,
0000
0000
0000
0000
,
1000
0000
0100
0000
,
1000
0001
1000
0000
,
0010
0100
0001
0000
,
0010
0100
1000
0000
,
0001
0000
0100
0000
,
0001
1000
0001
0000
,
0010
0100
1000
0000
,
0010
0100
0001
1000
,
0000
0000
0000
0000
,
0100
0100
0010
0010
,
0001
0000
0100
0000
,
0010
1000
0100
1000
,
0010
0000
0100
0000
,
0100
0001
0010
0100
,
1000
0000
0100
0000
,
0010
0001
0100
0001
,
0010
0000
0100
0000
,
1000
0010
0100
0001
,
2002
0000
0000
3003
,
1000
0100
0010
0001
,
2002
0000
0000
3003
,
0001
0100
0010
1000
,
2200
0000
0000
3300
,
0100
0010
0001
0100
,
0202
0000
0000
0303
,
0100
0010
1000
0001
,
0010
0010
0100
0100
,
1000
0001
0100
0000
,
0010
0010
0100
0100
,
0001
1000
0100
0000
,
1000
1000
0001
0001
,
0100
0010
1000
0000
,
0001
0001
1000
1000
,
0100
0010
0001
1000
,
0020
0000
0130
0001
,
2000
0000
3100
0100
,
0020
0000
0031
1000
,
0010
0010
0100
0001
,
0020
0000
0130
1000
,
0002
0000
0103
0100
,
0020
0000
1030
0001
,
0010
0010
0100
1000
,
0002
0000
0103
0000
,
1001
0000
0000
0000
,
2000
0000
3100
0000
,
1001
0000
0000
0000
,
0002
0000
0013
0000
,
1001
0000
0000
0000
,
2000
0000
3010
0000
,
1001
0000
0001
1000
,
2020
0000
0000
3030
,
0010
0100
0001
0010
,
0022
0000
0000
0033
,
0010
0100
1000
0010
,
0220
0000
0000
0330
,
0100
0001
1000
0100
,
0220
0000
0000
0330
,
2002
0000
3003
0110
;

//---------------dance-single - Daff_4K----------------
#NOTES:
     dance-single:
     Daff_4K:
     Medium:
     8:
     0.360572,0.476878,0.164399,0.367480,0.024176,261.000000,244.000000,17.000000,38.000000,0.000000,0.000000,0.360572,0.476878,0.164399,0.367480,0.024176,261.000000,244.000000,17.000000,38.000000,0.000000,0.000000:
0000
0000
0000
0000
,
0000
0000
0000
0000
,
0000
0000
0000
0000
,
0000
0000
0000
0000
,
0000
0000
0000
0000
,
0000
0000
0000
0000
,
0000
0000
0000
0000
,
0000
0000
0000
0000
,
1000
0010
1000
0000
0001
0010
0001
0000
,
0100
0010
1000
0001
,
0010
0100
1000
0001
,
0100
0000
0010
0000
1000
0001
1000
0000
,
0001
0010
0001
0000
1000
0010
1000
0000
,
0100
0010
0001
1000
,
0010
0100
0001
1000
,
0100
0000
0010
0000
0001
1000
0001
1000
,
0000
0000
0000
0000
,
0110
0110
1001
1001
,
1000
0010
1000
0000
0100
0000
0010
0000
,
0001
1000
0110
1001
,
0001
0010
0001
0000
0100
0000
0010
0000
,
1000
0001
0110
1001
,
1000
0100
1000
0000
0001
0000
1000
0000
,
0010
0100
1001
0110
,
0001
0100
0001
0000
1000
0000
0001
0000
,
0110
1001
0110
1001
,
2000
0100
0001
3010
,
1000
0100
0010
0001
,
0200
1000
0010
0301
,
0100
0000
0010
0000
1000
0000
0001
1000
,
0002
0100
1000
0013
,
0001
0100
0010
1000
,
0200
0001
0010
1300
,
2002
0000
0000
3003
,
0002
0203
0320
2030
,
3100
0010
0100
0000
1000
0000
0001
0000
,
0200
0320
2030
3002
,
0013
0100
0010
0000
0001
1000
0001
0000
,
2000
3200
0320
0032
,
0103
0010
0100
0000
0001
0000
1000
0000
,
0200
0320
0032
2003
,
3010
0100
0001
1000
,
0002
0010
0100
0013
,
0002
1000
0100
1003
,
0002
0100
0010
0103
,
0001
0000
1000
0000
0100
0010
0100
0000
,
2000
0010
0100
3010
,
2000
0001
0100
3001
,
2000
0100
0010
3100
,
1000
0000
0001
0000
0100
0010
0100
0000
,
0002
0010
1000
0103
,
0001
0000
0000
1000
0000
0000
0001
0000
0000
0000
0000
0000
0000
0000
0000
0000
,
2000
0010
0001
3100
,
1000
0000
0000
0001
0000
0000
1000
0000
0000
0000
0000
0000
0000
0000
0000
0000
,
0020
0001
0100
1030
,
0001
0000
0000
1000
0000
0000
0001
0000
0000
0000
0000
0000
0000
0000
0000
0000
,
0020
1000
0100
0031
,
1000
0000
0000
0001
0000
0000
1000
0000
0000
0001
0000
0000
0100
0000
0010
0000
,
2000
0100
0001
3010
,
1000
0100
1000
0000
0010
0000
0100
0000
,
0002
0010
1000
0103
,
0001
0010
0001
0000
1000
0100
1000
0000
,
0002
0100
1000
0013
,
0001
0100
0001
0000
0010
0000
0100
0000
,
2000
0010
0001
3100
,
2002
0000
3003
0110
;

//---------------dance-single - Daff_4K----------------
#NOTES:
     dance-single:
     Daff_4K:
     Hard:
     11:
     0.497341,0.540461,0.338468,0.145058,0.169234,360.000000,325.000000,35.000000,15.000000,0.000000,0.000000,0.497341,0.540461,0.338468,0.145058,0.169234,360.000000,325.000000,35.000000,15.000000,0.000000,0.000000:
0000
0000
0000
0000
,
0000
0000
0000
0000
,
0000
0000
0000
0000
,
0000
0000
0000
0000
,
0000
0000
0000
0000
,
0000
0000
0000
0000
,
0000
0000
0000
0000
,
0000
0000
0000
0000
,
0001
0010
0100
0000
1000
0010
0100
0000
,
0001
0010
0100
0010
0001
1000
0010
0000
,
0100
0001
1000
0100
0010
0100
1000
0000
,
0001
0100
0010
1000
0100
0010
0001
0000
,
1000
0010
0100
0000
0001
0010
0100
0000
,
1000
0010
0100
0010
1000
0001
0010
0000
,
0100
1000
0001
0100
0010
0100
0001
0000
,
1000
0100
0010
0001
0100
0010
1000
0001
,
2002
0000
0000
3003
,
0110
1001
0110
1001
,
1000
0010
0100
0000
0001
1000
0100
0000
,
0110
1001
0101
1010
,
1000
0001
0010
0000
0100
1000
0010
0000
,
0110
1001
1100
0011
,
0001
0010
0100
0000
1000
0001
0100
0000
,
0110
1001
1100
0011
,
0001
1000
0010
0000
0100
0001
0010
0000
,
0110
1001
0101
1010
,
1200
0000
0001
0000
1000
0000
0310
0001
,
1000
0000
0000
0010
0000
0000
0001
0000
0000
0010
0000
0000
1000
0000
0001
0000
,
2001
0000
0100
0000
0010
0000
3001
1000
,
0100
0000
0000
0010
0000
0000
0001
0000
0000
1000
0000
0000
0010
0000
0100
0000
,
0201
0000
1000
0000
0001
0000
0310
1000
,
0001
0000
0000
0010
0000
0000
1000
0000
0000
0010
0000
0000
0001
0000
1000
0000
,
1002
0000
0100
0000
0010
0000
1003
0001
,
0100
0010
1000
0100
0010
0001
1000
0000
,
0001
0000
0000
0100
0000
0000
1000
0000
0000
0100
0000
0000
0001
0000
1000
0000
,
0001
0010
0001
0000
1000
0100
1000
0000
,
0010
0000
0000
0100
0000
0000
0001
0000
0000
1000
0000
0000
0100
0000
0010
0000
,
0001
0100
0001
0000
1000
0010
1000
0001
,
1000
0000
0000
0100
0000
0000
0001
0000
0000
0100
0000
0000
1000
0000
0001
0000
,
1000
0010
1000
0000
0001
0100
0001
0000
,
0010
0000
0000
0100
0000
0000
1000
0000
0000
0001
0000
0000
0100
0000
0010
0000
,
0110
1001
0110
1001
,
1020
0000
0001
0000
0100
0000
1030
0010
,
0200
0000
1000
0000
0010
0000
0301
1000
,
0002
0000
0010
0000
0100
0000
1003
0001
,
0020
0000
1000
0000
0130
1000
0001
0000
,
0021
0000
1000
0000
0100
0000
0031
0010
,
0200
0000
0001
0000
0010
0000
1300
0001
,
2000
0000
0010
0000
0100
0000
3001
1000
,
0020
0000
0230
0000
0301
1000
0001
0000
,
0010
0000
0000
0100
0000
0000
1000
0000
0000
0001
0000
0000
0100
0000
0010
0000
,
1000
0000
0000
0001
0000
0000
1001
0000
0000
0000
0000
0000
0000
0000
0000
0000
,
1000
0000
0000
0100
0000
0000
0001
0000
0000
1000
0000
0000
0010
0000
0001
0000
,
1000
0000
0000
0010
0000
0000
0110
0000
0000
0000
0000
0000
0000
0000
0000
0000
,
0010
0000
0000
0100
0000
0000
0001
0000
0000
1000
0000
0000
0100
0000
0010
0000
,
0001
0000
0000
1000
0000
0000
1001
0000
0000
0000
0000
0000
0000
0000
0000
0000
,
0001
0000
0000
0100
0000
0000
1000
0000
0000
0001
0000
0000
0010
0000
1000
0000
,
0001
0000
0000
0010
0000
0000
0100
0000
0000
1000
0000
0000
0010
0000
0100
0000
,
0001
0000
0000
0010
0000
0000
1000
0000
0000
0010
0000
0000
0001
0000
1000
0000
,
0010
0100
0001
1000
0100
0010
0001
1000
,
0010
0000
0000
0001
0000
0000
0010
0000
0000
1000
0000
0000
0100
0000
0010
0000
,
0001
0100
0010
1000
0001
0010
0100
1000
,
1000
0000
0000
0010
0000
0000
0001
0000
0000
0010
0000
0000
1000
0000
0001
0000
,
0010
0100
1000
0001
0100
0010
1000
0001
,
0010
0000
0000
1000
0000
0000
0010
0000
0000
0001
0000
0000
0100
0000
0010
0000
,
1000
0100
0010
0001
1000
0000
1001
0000
;

//---------------dance-single - Daff_4K "私がキタ──(゚∀゚)──!!"----------------
#NOTES:
     dance-single:
     Daff_4K "私がキタ──(゚∀゚)──!!":
     Challenge:
     13:
     0.664503,0.858380,0.512538,0.203081,0.580232,481.000000,428.000000,53.000000,21.000000,0.000000,0.000000,0.664503,0.858380,0.512538,0.203081,0.580232,481.000000,428.000000,53.000000,21.000000,0.000000,0.000000:
0000
0000
0000
0000
,
0000
0000
0000
0000
,
0000
0000
0000
0000
,
0000
0000
0000
0000
,
0000
0000
0000
0000
,
0000
0000
0000
0000
,
0000
0000
0000
0000
,
0000
0000
0000
0000
,
0001
0100
0010
0100
1000
0100
0001
0000
,
1000
0100
0001
0000
1000
0010
0001
0000
,
0100
0010
0100
1000
0001
0010
1000
0000
,
0001
0000
0010
0000
0100
0000
1000
0000
0010
0000
0100
0000
0001
0000
1000
0001
,
1000
0100
0010
0100
0001
0100
1000
0000
,
0001
0100
1000
0000
0001
0010
1000
0000
,
0100
0010
0100
0001
1000
0010
0001
0000
,
1000
0000
0010
0000
0100
0000
0001
0000
1000
0001
1000
0001
1000
0001
1000
0002
,
2000
0000
0000
0000
3003
0000
0000
0000
0100
0010
0100
0010
0100
0010
0100
0010
,
0100
1001
0110
1001
,
1000
0000
0001
0000
0100
0001
0000
0100
0010
0000
1000
0000
0001
0000
0000
0000
,
1001
0000
0000
1000
0100
0000
0000
0100
0001
0000
0000
0001
0100
0000
1000
0000
,
0010
0000
0100
0000
0001
1000
0000
0001
1000
0000
0010
0000
0001
0000
0000
0000
,
0110
0000
0000
0000
1001
0000
0000
0001
0100
0000
0000
0100
0010
0000
1000
0000
,
0001
0000
1000
0000
0100
1000
0000
0100
0010
0000
0001
0000
1000
0000
0000
0000
,
1001
0000
0000
0001
0100
0000
0000
0100
1000
0000
0000
1000
0100
0000
0001
0000
,
0010
0000
0100
0000
1000
0001
0000
1000
0001
0000
0010
0000
1000
0000
0000
0000
,
0110
0000
0000
0000
1001
0000
0000
1000
0100
0000
0010
0000
0001
0000
0000
0000
,
2001
0000
0000
0001
0000
0000
0010
0000
0000
0010
0000
0000
3100
0000
1000
0000
,
0001
0100
0000
0100
0010
0000
0010
1000
0000
1000
0100
0000
0010
0000
0001
0000
,
0201
0000
0000
0001
0000
0000
1000
0000
0000
1000
0000
0000
0310
0000
0100
0000
,
0001
1000
0000
1000
0100
0000
0010
0000
0001
0000
0100
0000
0010
0000
1000
0000
,
1002
0000
0000
1000
0000
0000
0010
0000
0000
0010
0000
0000
0103
0000
0001
0000
,
1000
0100
0000
0100
0010
0000
0010
0001
0000
0001
0100
0000
0010
0000
1000
0000
,
1200
0000
0000
1000
0000
0000
0001
0000
0000
0001
0000
0000
0310
0000
0100
0000
,
1000
0000
0001
1000
0001
0000
0100
0000
0010
0000
1000
0000
0100
0000
0010
0000
,
0001
0100
0000
0100
0010
0000
0010
1000
0000
1000
0001
0000
0010
0000
0100
0000
,
1000
0010
0001
0010
1000
0100
0002
0000
,
0103
0010
0000
0010
0100
0000
1000
0001
0000
0001
1000
0000
0010
0000
0100
0000
,
0001
0010
1000
0001
0100
1000
0020
0000
,
1030
0100
0000
0100
0010
0000
0010
0001
0000
0001
1000
0000
0010
0000
0100
0000
,
0001
0010
1000
0010
0001
0100
2000
0000
,
3100
0010
0000
0010
0100
0000
0001
1000
0000
1000
0001
0000
0010
0000
0100
0000
,
1100
0011
0101
1010
,
1001
0000
0000
0001
0100
0000
0000
0100
0010
0000
0000
0010
1000
0000
0100
0000
,
0010
0000
0000
0010
0001
0000
0000
0001
1000
0000
0000
1000
0010
0000
0100
0000
,
0001
0000
0000
0001
0010
0000
0000
0010
1000
0000
0000
1000
0010
0000
0001
0000
,
0101
0000
0000
0000
1010
0000
0000
1000
0001
0000
0010
0000
0100
0000
0000
0000
,
1001
0000
0000
1000
0100
0000
0000
0100
0010
0000
0000
0010
0001
0000
0100
0000
,
0010
0000
0000
0010
1000
0000
0000
1000
0001
0000
0000
0001
0010
0000
0100
0000
,
1000
0000
0000
1000
0010
0000
0000
0010
0001
0000
0000
0001
0010
0000
1000
0000
,
1100
0000
0000
0000
0011
0000
0000
0001
1000
0000
0010
0000
0100
0000
0001
0000
,
2001
0000
0000
0001
0000
0000
0100
0000
0000
0010
0000
0000
3001
0000
1000
0000
,
1100
0000
0000
0011
0000
0000
2002
0000
0000
0000
3003
0000
0000
0000
0000
0000
,
1020
0000
0000
1000
0000
0000
0100
0000
0000
0100
0000
0000
0031
0000
0010
0000
,
0110
0000
0000
1001
0000
0000
0022
0000
0000
0000
0033
0000
0000
0000
0000
0000
,
1002
0000
0000
1000
0000
0000
0100
0000
0000
0010
0000
0000
1003
0000
0001
0000
,
0101
0000
0000
1010
0000
0000
2002
0000
0000
0000
3003
0000
0000
0000
0000
0000
,
0021
0000
0000
0001
0000
0000
0100
0000
0000
0100
0000
0000
1030
0000
0010
0000
,
0110
0000
0000
1001
0000
0000
1010
0000
0000
0101
0000
0000
0001
0000
1000
0000
,
1100
0000
0000
0101
0000
0000
1100
0000
0000
1001
0000
0000
0001
0000
1000
0000
,
0010
0100
0000
0001
1000
0000
0100
0010
0000
0001
1000
0000
0010
0000
0100
0000
,
0101
0000
0000
1010
0000
0000
1100
0000
0000
0011
0000
0000
0001
0000
1000
0000
,
0010
0100
0000
0010
1000
0000
0001
0010
0000
0100
0010
0000
0001
0000
0100
0000
,
0101
0000
0000
1100
0000
0000
0101
0000
0000
1001
0000
0000
1000
0000
0001
0000
,
0010
0100
0000
1000
0001
0000
0100
0010
0000
1000
0001
0000
0010
0000
0100
0000
,
1000
0001
1000
0001
1000
0001
1000
0001
0100
0010
0100
0010
0100
0010
0100
0020
,
0200
0000
0330
1001
;
