#TITLE:POP TEAM EPIC;
#SUBTITLE:;
#ARTIST:上坂すみれ;
#TITLETRANSLIT:;
#SUBTITLETRANSLIT:;
#ARTISTTRANSLIT:Sumire Uesaka;
#GENRE:J-ELECTROPOP;
#CREDIT:;
#BANNER:POP TEAM EPIC.png;
#BACKGROUND:POP TEAM EPIC-bg.png;
#LYRICSPATH:;
#CDTITLE:cdtitle.png;
#MUSIC:POP TEAM EPIC.ogg;
#OFFSET:-0.009000;
#SAMPLESTART:46.171001;
#SAMPLELENGTH:15.000000;
#SELECTABLE:YES;
#BPMS:0.000000=142.000000
,80.000000=71.000000
,88.000000=142.000000
;
#STOPS:
;
#BGCHANGES:-0.500=POP TEAM EPIC.avi=1.000=0=0=0=StretchNoLoop==CrossFade_Fastest==,
99999=-nosongbg-=1.000=0=0=0 // don't automatically add -songbackground-
;
#KEYSOUNDS:;
#ATTACKS:;

//---------------dance-single - Daff_4K----------------
#NOTES:
     dance-single:
     Daff_4K:
     Beginner:
     1:
     0.093651,0.111111,0.000000,0.000000,0.000000,59.000000,59.000000,0.000000,0.000000,0.000000,0.000000,0.093651,0.111111,0.000000,0.000000,0.000000,59.000000,59.000000,0.000000,0.000000,0.000000,0.000000:
// measure 0
0000
0000
0000
0000
,  // measure 1
0000
0000
0000
0000
,  // measure 2
0000
0000
0000
0000
,  // measure 3
0000
0000
0000
0000
,  // measure 4
1000
0000
0000
0000
,  // measure 5
0000
0000
0000
0000
,  // measure 6
0001
0000
0000
0000
,  // measure 7
0000
0000
0000
0000
,  // measure 8
0010
0000
0000
0000
,  // measure 9
0000
0000
0000
0000
,  // measure 10
0100
0000
0000
0000
,  // measure 11
0000
0000
0000
0000
,  // measure 12
1000
0000
0001
0000
,  // measure 13
1000
0000
0000
0000
,  // measure 14
0010
0000
0000
0000
,  // measure 15
0100
0000
0000
0000
,  // measure 16
0001
0000
1000
0000
,  // measure 17
0001
0000
0000
0000
,  // measure 18
0010
0000
0000
0000
,  // measure 19
0100
0000
0000
0000
,  // measure 20
1000
0000
0000
0000
,  // measure 21
0001
0000
0000
0000
,  // measure 22
0010
0000
0010
0000
,  // measure 23
0010
0000
0000
0000
,  // measure 24
0100
0000
0100
0000
,  // measure 25
0100
0000
0000
0000
,  // measure 26
1000
0000
0010
0000
,  // measure 27
1000
0000
0000
0000
,  // measure 28
0001
0000
0001
0000
,  // measure 29
0001
0000
0000
0000
,  // measure 30
0010
0000
0010
0000
,  // measure 31
0010
0000
0000
0000
,  // measure 32
0100
0000
1000
0000
,  // measure 33
1000
0000
0000
0000
,  // measure 34
0001
0000
0010
0000
,  // measure 35
0001
0000
0000
0000
,  // measure 36
1000
0000
1000
0000
,  // measure 37
1000
0000
0000
0000
,  // measure 38
0010
0000
0010
0000
,  // measure 39
0010
0000
0000
0000
,  // measure 40
0100
0000
0001
0000
,  // measure 41
0001
0000
0000
0000
,  // measure 42
1000
0000
1000
0000
,  // measure 43
1000
0000
0000
0000
,  // measure 44
0010
0000
0010
0000
,  // measure 45
0100
0000
0000
0000
,  // measure 46
0001
0000
0001
0000
,  // measure 47
0001
0000
0000
0000
,  // measure 48
0010
0000
0010
0000
,  // measure 49
0100
0000
0000
0000
,  // measure 50
0100
0000
0000
0000
;

//---------------dance-single - Daff_4K----------------
#NOTES:
     dance-single:
     Daff_4K:
     Easy:
     4:
     0.234921,0.283333,0.088889,0.111111,0.000000,148.000000,140.000000,8.000000,10.000000,0.000000,0.000000,0.234921,0.283333,0.088889,0.111111,0.000000,148.000000,140.000000,8.000000,10.000000,0.000000,0.000000:
0000
0000
0000
0000
,
0000
0000
0000
0000
,
0000
0000
0000
0000
,
0000
0000
0000
0000
,
2000
0000
3001
0000
,
0002
0000
1003
0000
,
2000
0000
3001
0000
,
0002
0000
1003
0000
,
0020
0000
0130
0000
,
0200
0000
0310
0000
,
0020
0000
0130
0000
,
0200
0000
0310
0000
,
1000
1000
0010
0000
,
0100
0001
1000
0100
,
0010
0000
0001
0000
,
0100
0010
0100
0000
,
0001
0001
0010
0000
,
0100
1000
0001
0100
,
0010
0000
1000
0000
,
0100
0010
0100
0000
,
1000
1000
0010
0010
,
0100
0100
0001
0001
,
1000
0100
1000
1000
,
0001
0100
0001
0001
,
1000
0100
0010
0001
,
1001
0000
0000
0000
,
1000
0010
0001
0010
,
1000
0010
0001
0000
,
0010
1000
0100
0100
,
0010
0001
0100
0000
,
0001
0010
0100
0000
,
1000
0010
0100
0000
,
0001
0001
1000
1000
,
1001
0000
0110
0000
,
0001
0010
1000
0010
,
0001
0010
1000
0000
,
0010
0001
0100
0100
,
0010
1000
0100
0000
,
1000
0010
0100
0000
,
0001
0010
0100
0000
,
1000
1000
0001
0001
,
1001
0000
0110
0000
,
1001
0000
1000
0010
,
0001
0000
0001
0010
,
1000
0000
1000
0100
,
0010
0010
0001
1000
,
1001
0000
0001
0010
,
1000
0000
1000
0010
,
0001
0000
0001
0100
,
0010
0010
1000
0001
,
2002
0000
0000
0000
,
3003
0000
0000
0000
;

//---------------dance-single - Daff_4K----------------
#NOTES:
     dance-single:
     Daff_4K:
     Medium:
     9:
     0.403175,0.453333,0.300000,0.600000,0.000000,254.000000,227.000000,27.000000,54.000000,0.000000,0.000000,0.403175,0.453333,0.300000,0.600000,0.000000,254.000000,227.000000,27.000000,54.000000,0.000000,0.000000:
0000
0000
0000
0000
,
0000
0000
0000
0000
,
0000
0000
0000
0000
,
0000
0000
0000
0000
,
1000
0000
0001
2000
0000
3010
0000
0000
,
0100
0000
0001
0200
0000
0310
0000
1000
,
0001
0000
1000
0002
0000
0013
0000
0000
,
0100
0000
1000
0200
0000
0310
0000
0001
,
1000
0000
0001
2000
0000
3100
0000
0000
,
0010
0000
0001
0020
0000
0130
0000
1000
,
0001
0000
1000
0002
0000
0103
0000
0000
,
0001
0010
0001
0000
1000
0010
1000
0000
,
0002
0000
1003
0000
0010
0100
0010
0000
,
1000
0001
1000
0000
0100
0010
0100
0000
,
2000
3010
0002
0013
,
1000
0100
0010
0000
0001
0100
0010
0000
,
2000
0000
3001
0000
0010
0100
0010
0000
,
0001
1000
0001
0000
0100
0010
0100
0000
,
0002
0013
2000
3010
,
0001
0100
0010
0000
1000
0100
0010
0001
,
2000
3020
0230
0302
,
0023
0000
0230
0000
2300
0000
3001
1000
,
0001
0000
0101
0000
0010
1000
0001
0000
,
1000
0000
1100
0000
0010
0001
1000
0000
,
0001
0100
0001
0100
0010
1000
0010
2000
,
0000
0002
3003
0000
,
2001
3200
0302
0203
,
2300
3020
0032
0023
,
1030
0001
0000
0011
0000
1100
0000
0011
,
0000
1001
0000
1000
0010
0000
0100
0001
,
1000
0100
0000
1100
0000
0011
0000
0110
,
0000
1001
0000
0001
0100
0010
1000
0100
,
0010
0001
0100
0000
0010
1000
0100
0000
,
0110
0000
0000
1001
0000
0001
1000
0000
,
1002
0203
2300
3200
,
0302
0023
2030
3020
,
0031
1000
0000
1010
0000
0101
0000
1010
,
0000
1001
0000
0001
0010
0000
0100
1000
,
0001
0100
0000
0101
0000
1010
0000
0110
,
0000
1001
0000
1000
0100
0010
0001
0100
,
0010
1000
0100
0000
0010
0001
0100
0000
,
0110
0000
0000
1001
0000
1000
0001
0000
,
1001
0000
1000
0200
0000
0310
0002
0000
,
1003
0020
0000
0130
0002
0000
0013
0000
,
1000
0000
0020
0000
0031
2000
0000
3010
,
0200
0000
0301
1000
0000
0100
0010
0000
,
1001
0000
0001
0200
0000
0310
2000
0000
,
3001
0020
0000
0130
2000
0000
3010
0000
,
0001
0000
0020
0000
1030
0002
0000
0013
,
0200
0000
1300
0001
0000
0100
0010
0000
,
2002
0000
0000
0000
,
3003
0000
0000
0000
;

//---------------dance-single - Daff_4K----------------
#NOTES:
     dance-single:
     Daff_4K:
     Hard:
     12:
     0.531746,0.623333,0.488889,0.344444,0.205556,335.000000,291.000000,44.000000,31.000000,0.000000,0.000000,0.531746,0.623333,0.488889,0.344444,0.205556,335.000000,291.000000,44.000000,31.000000,0.000000,0.000000:
0000
0000
0000
0000
,
0000
0000
0000
0000
,
0000
0000
0000
0000
,
0000
0000
0000
0000
,
2001
0000
3010
0002
0000
0013
0100
0001
,
2000
0000
3100
0010
0000
1001
0000
0001
,
0200
0000
0310
2000
0000
3100
0001
0100
,
0020
0000
0031
1000
0000
0110
0000
1000
,
0002
0000
0013
2000
0000
3010
0100
1000
,
0002
0000
0103
0010
0000
1001
0000
1000
,
0200
0000
0310
0002
0000
0103
1000
0100
,
0020
0000
1030
0001
0010
1000
0010
0001
,
0101
0000
1010
0000
1000
0001
0010
0000
,
0110
0000
1001
0000
0001
0100
0010
0000
,
2010
3100
0012
0103
,
0001
1000
0010
0001
0010
1000
0001
0000
,
1100
0000
0011
0000
0001
1000
0010
0000
,
0110
0000
1001
0000
1000
0100
0010
0000
,
0012
0103
2010
3100
,
1000
0001
0010
1000
0010
0001
1000
0000
,
1002
0203
2300
3020
,
0032
0000
0000
0000
2003
0000
0000
0000
3020
0000
0000
0000
0130
0001
0100
0000
,
0001
0100
1000
0100
0001
0010
0100
0000
,
1000
0100
0001
0100
1000
0010
0100
0000
,
0001
0010
0001
0010
0001
0010
0001
1000
0010
1000
0010
1000
0010
2000
0002
0000
,
0000
0000
0000
3003
,
1001
0000
0000
1000
0100
0000
0000
0100
0001
0000
0000
0001
0100
0000
0000
0100
,
1000
0000
0000
1000
0001
0000
0000
0001
0100
0000
0010
0000
1000
0000
0001
0000
,
1000
0100
0000
0011
0000
0101
0000
1010
,
0000
1001
0000
0001
0100
1000
0100
0001
,
1000
0010
0000
0101
0000
1001
0000
0110
,
0000
1001
0000
1010
0000
0101
0000
0001
,
1000
0100
0001
1000
0010
0001
1000
0000
,
1020
0000
0000
0000
0130
0000
0002
0000
0000
0000
1003
0000
0001
1000
0001
1000
,
0001
0000
0000
0001
0100
0000
0000
0100
1000
0000
0000
1000
0100
0000
0000
0100
,
0001
0000
0000
0001
1000
0000
0000
1000
0100
0000
0010
0000
0001
0000
1000
0000
,
0001
0100
0000
1010
0000
1100
0000
0011
,
0000
1001
0000
1000
0100
0001
0100
1000
,
0001
0010
0000
1100
0000
1001
0000
0110
,
0000
1001
0000
0011
0000
1100
0000
1000
,
0001
0100
1000
0001
0010
1000
0001
0000
,
0021
0000
0130
2000
0000
3010
0100
0000
,
1001
0000
0000
1000
0100
0000
0010
0000
0000
0010
0001
0000
0100
0000
0000
0100
,
0010
0000
1000
0000
0000
1000
0100
0000
0010
0000
0001
0000
0100
0000
1000
0000
,
0100
0000
0001
0000
0010
0000
0000
0010
0100
0000
1000
0000
0000
1000
0010
0000
,
0100
0000
0000
0100
0001
0000
0010
0000
1000
0000
0010
0000
0001
0000
0000
0000
,
1001
0000
0000
0001
0100
0000
0010
0000
0000
0010
1000
0000
0100
0000
0000
0100
,
0010
0000
0001
0000
0000
0001
0100
0000
0010
0000
1000
0000
0100
0000
0001
0000
,
0100
0000
1000
0000
0010
0000
0000
0010
0100
0000
0001
0000
0000
0001
1000
0000
,
0010
0000
0010
0000
0010
0000
1000
0001
1000
0001
1000
0000
0110
0000
0000
0000
,
2002
0000
0000
0000
,
3003
0000
0000
0000
;
