#VERSION:0.83;
#TITLE:On And On!!;
#SUBTITLE:;
#ARTIST:ETIA. feat. Jenga;
#TITLETRANSLIT:;
#SUBTITLETRANSLIT:;
#ARTISTTRANSLIT:;
#GENRE:J-CORE;
#ORIGIN:;
#CREDIT:;
#BANNER:On And On!!.png;
#BACKGROUND:On And On!!-bg.png;
#PREVIEWVID:;
#JACKET:On And On!!-jacket.png;
#CDIMAGE:;
#DISCIMAGE:;
#LYRICSPATH:;
#CDTITLE:cdtitle.png;
#MUSIC:On And On!!.ogg;
#OFFSET:-0.176000;
#SAMPLESTART:90.528999;
#SAMPLELENGTH:15.000000;
#SELECTABLE:YES;
#BPMS:0.000=170.000,
96.000=85.000,
112.000=170.000,
208.000=85.000,
224.000=170.000;
#STOPS:;
#DELAYS:;
#WARPS:;
#TIMESIGNATURES:0.000=4=4;
#TICKCOUNTS:0.000=4;
#COMBOS:0.000=1;
#SPEEDS:0.000=1.000=0.000=0;
#SCROLLS:0.000=1.000;
#FAKES:;
#LABELS:0.000=Song Start;
#BGCHANGES:-0.500=On And On!!.avi=1.000=0=0=0=StretchNoLoop==CrossFade_Fastest==,
99999=-nosongbg-=1.000=0=0=0 // don't automatically add -songbackground-
;
#KEYSOUNDS:;
#ATTACKS:
;

//---------------dance-single - Daff_4K----------------
#NOTEDATA:;
#CHARTNAME:Daff_4K;
#STEPSTYPE:dance-single;
#DESCRIPTION:Daff_4K;
#CHARTSTYLE:;
#DIFFICULTY:Beginner;
#METER:4;
#RADARVALUES:0.173184,0.252559,0.117861,0.000000,0.000000,144.000000,130.000000,14.000000,0.000000,0.000000,0.000000,0.000000,0.000000,0.000000,0.173184,0.252559,0.117861,0.000000,0.000000,144.000000,130.000000,14.000000,0.000000,0.000000,0.000000,0.000000,0.000000,0.000000;
#CREDIT:Daff_4K;
#NOTES:
0000
0000
0000
0000
,
0000
0000
0000
0000
,
0000
0000
0000
0000
,
0000
0000
0000
0000
,
0010
0000
0000
0000
,
0100
0000
0010
0000
,
0100
0100
0100
0100
,
0100
0000
0000
0000
,
1001
0000
0000
0000
,
0001
0000
0010
0010
,
0010
0000
0000
0000
,
0100
0000
1000
0000
,
1001
0000
0000
0000
,
1000
0000
0100
0100
,
0100
0000
0000
0000
,
0010
0000
0001
0001
,
0000
1001
0000
0000
,
1000
0000
0010
0010
,
0010
0000
0000
0000
,
0100
0000
0001
0000
,
1001
0000
0000
0000
,
0001
0000
0100
0000
,
0001
0000
0001
0000
,
1000
0000
1000
0000
,
1001
0000
0000
0000
,
0000
0000
0000
0000
,
0001
0000
1000
0000
,
0010
0000
0100
0000
,
0001
0000
0001
0000
,
0001
0000
0000
0000
,
1000
0000
1000
0000
,
1000
0000
0000
0000
,
0100
0000
0000
0000
,
0010
0000
0000
0000
,
0001
0000
1000
0000
,
1001
0000
0000
0000
,
0001
0000
0100
0000
,
0001
0000
0000
0000
,
1000
0000
0100
0000
,
1000
0000
0010
0010
,
0010
0000
0000
0000
,
0100
0000
0010
0000
,
0100
0100
0100
0100
,
0100
0000
0000
0000
,
1001
0000
0000
0000
,
1000
0000
0100
0000
,
1000
0000
0000
0000
,
0001
0000
1000
1000
,
1000
0000
0000
0000
,
0001
0000
0100
0000
,
0001
0000
0000
0000
,
1000
0000
0001
0001
,
0001
0000
0010
0010
,
0010
0000
0100
0000
,
1000
0000
0010
0010
,
0010
0000
0110
0000
,
1001
0000
0000
0000
,
0100
0000
0010
0010
,
0010
0000
0000
0000
,
0100
0000
0001
0000
,
1001
0000
0000
0000
,
0010
0000
0100
0100
,
0100
0000
0000
0000
,
0010
0000
1000
1000
,
0000
1001
0000
0000
,
0100
0000
0010
0010
,
0010
0000
0000
0000
,
0100
0000
1000
0000
,
1001
0000
0000
0000
,
0010
0000
0100
0100
,
0100
0000
0001
0000
,
1001
0000
0000
0000
,
1000
0000
1000
0000
,
0001
0000
0001
0000
,
0010
0010
0010
0000
,
1001
0000
0000
0000
;

//---------------dance-single - Daff_4K----------------
#NOTEDATA:;
#CHARTNAME:Daff_4K;
#STEPSTYPE:dance-single;
#DESCRIPTION:Daff_4K;
#CHARTSTYLE:;
#DIFFICULTY:Easy;
#METER:7;
#RADARVALUES:0.288639,0.315699,0.109442,0.117861,0.000000,240.000000,227.000000,13.000000,14.000000,0.000000,0.000000,0.000000,0.000000,0.000000,0.288639,0.315699,0.109442,0.117861,0.000000,240.000000,227.000000,13.000000,14.000000,0.000000,0.000000,0.000000,0.000000,0.000000;
#CREDIT:Daff_4K;
#NOTES:
0000
0000
0000
0000
,
0000
0000
0000
0000
,
0000
0000
0000
0000
,
0000
0000
0000
0000
,
1000
0010
1000
1000
,
0001
0010
0001
0001
,
1000
0010
0100
0001
,
2002
0000
0000
3003
,
1001
1000
0010
0100
,
0001
0000
1000
0100
,
0001
0100
0010
0000
,
0001
0000
1000
0010
,
0110
0100
0001
1000
,
0100
0000
0010
0000
0001
0000
0000
0001
,
0000
0000
1000
0000
0000
1000
0000
0000
,
0010
0000
0000
0100
0000
0100
0000
0000
,
0000
1001
1000
0001
,
1000
0000
0001
0100
,
1000
0100
0010
0000
,
1000
0000
0001
0010
,
0110
0100
1000
0001
,
0100
0000
0010
0000
1000
0000
0000
1000
,
0000
0000
0001
0000
0000
0001
0000
0000
,
0010
0000
0000
0100
0000
0000
0000
0000
,
2000
3000
0002
0003
,
0100
0010
1000
0000
,
0002
0003
2000
3000
,
0100
0010
0001
0000
,
1000
0010
1000
0000
,
0001
0010
0001
0000
,
1000
0100
1000
0000
,
0001
0100
0001
0000
,
1000
0010
0100
0000
,
0001
0010
0100
0000
,
1000
0000
0001
0000
,
1001
0000
0000
0000
,
1000
0000
0010
0000
,
1000
0100
0010
0000
,
0001
0000
0010
0000
,
0001
0100
0010
1000
,
0100
0000
0010
0001
,
0100
0000
0010
1000
,
0100
0100
0010
0010
,
2002
0000
0000
3003
,
1000
0010
0100
0010
,
1000
0000
1000
0100
,
0001
0100
1000
0001
,
1000
0010
0100
0100
,
0001
0020
0100
0130
,
0010
0000
0001
0100
,
1000
0100
0001
1000
,
0001
0010
0100
0100
,
2000
3010
0002
0013
,
1000
0001
0100
0100
,
0002
1000
1003
0010
,
0100
0001
2002
3003
,
1001
0001
0100
0010
,
1000
0000
0001
0010
,
1000
0010
0100
0000
,
1000
0000
0001
0100
,
0110
0010
1000
0001
,
0010
0000
0100
0000
1000
0000
0000
1000
,
0000
0000
0001
0000
0000
0001
0000
0000
,
0100
0000
0000
0010
0000
0010
0000
0000
,
0000
1001
0001
1000
,
0001
0000
1000
0010
,
0001
0010
0100
0000
,
0001
0000
1000
0100
,
0110
0010
0001
1000
,
0010
0100
0001
0010
,
0100
1000
0001
0100
,
0010
0000
0000
0010
0000
0010
0000
0000
,
1000
0100
1000
0100
,
0001
0100
0001
0100
,
1000
1000
0001
0001
,
1001
0000
0000
0000
;

//---------------dance-single - Daff_4K----------------
#NOTEDATA:;
#CHARTNAME:Daff_4K;
#STEPSTYPE:dance-single;
#DESCRIPTION:Daff_4K;
#CHARTSTYLE:;
#DIFFICULTY:Medium;
#METER:11;
#RADARVALUES:0.479863,0.542055,0.471444,0.513537,0.000000,399.000000,343.000000,56.000000,61.000000,0.000000,0.000000,0.000000,0.000000,0.000000,0.479863,0.542055,0.471444,0.513537,0.000000,399.000000,343.000000,56.000000,61.000000,0.000000,0.000000,0.000000,0.000000,0.000000;
#CREDIT:Daff_4K;
#NOTES:
0000
0000
0000
0000
,
0000
0000
0000
0000
,
0000
0000
0000
0000
,
0000
0000
0000
0000
,
1000
0010
0001
0010
,
1000
0100
0001
0100
,
1000
0001
1000
0001
0100
0010
1000
0000
,
2002
0000
0000
3003
,
1002
0000
0013
0100
0010
0100
1000
0000
,
1002
0000
0103
0010
0000
1010
0000
1000
,
0002
0000
0013
0100
0020
0000
0031
0000
,
2001
0000
3010
0100
0000
0100
0001
0000
,
2001
0000
3100
0010
0100
0010
0001
0000
,
2001
0000
3010
0100
0000
0101
0000
0001
,
1000
0000
0001
0010
0000
0001
1000
0000
,
0010
0100
0000
0110
0000
1001
0000
0001
,
1000
0000
1002
0000
0103
0010
0100
0000
,
2001
0000
3100
0010
0000
0011
0000
0001
,
2000
0000
3010
0100
0020
0000
1030
0000
,
1002
0000
0013
0100
0000
0100
1000
0000
,
1002
0000
0103
0010
0100
0010
1000
0000
,
1002
0000
0013
0100
0000
1001
0000
1010
,
0000
0000
0101
0000
0000
0011
0000
0000
,
1100
0000
0000
2002
0000
0000
3003
0000
,
0002
0000
0203
0000
,
1300
0000
0010
0000
0001
1000
0001
0000
,
2000
0000
3200
0000
,
0301
0000
0010
0000
1000
0001
1000
0000
,
0001
0000
0010
0000
0100
0000
0010
0001
,
0010
0000
0001
0000
0100
0010
0100
0010
,
1000
0000
0010
0000
0100
0000
0010
1000
,
0010
0000
1000
0000
0100
0010
0100
0010
,
0001
0000
0100
0000
1000
0000
0100
0010
,
0100
0000
0001
0000
1000
0000
0100
0010
,
0100
0000
0010
0000
0001
0000
0000
2002
,
0000
0000
0000
3003
,
2000
0010
0001
3100
,
1000
0010
1000
0000
0001
0000
1000
0000
,
0002
0010
1000
0103
,
0001
0010
0001
0000
1000
0000
0001
0000
,
2000
0100
0001
0010
,
3002
0100
1000
0010
,
2003
3002
0203
0320
,
2030
0001
0001
3001
,
1002
0000
0013
0100
0010
0100
1000
0001
,
0000
1000
0010
0000
0100
0001
0100
0000
,
0020
0000
1030
0001
1000
0001
0010
0100
,
0000
1000
0001
0000
1001
0000
0110
0000
,
2001
0000
3010
0100
0010
0100
0001
1000
,
0000
0001
0010
0000
0100
1000
0100
0000
,
0020
0000
0031
1000
0001
1000
0010
0100
,
0000
0001
1000
0000
1001
0000
0110
0000
,
1002
0000
0013
2000
0000
3010
0001
1000
,
1010
0101
0011
1100
,
2001
0000
3010
0002
0000
0013
1000
0001
,
0010
0100
1000
0001
2002
0000
3003
0000
,
2001
0000
3010
0100
0010
0100
0001
0000
,
0021
0000
0130
1000
0000
1001
0000
0001
,
0200
0000
0310
1000
0020
0000
0130
0000
,
1002
0000
0013
0100
0000
0100
1000
0000
,
1020
0000
0130
0001
0100
0001
1000
0000
,
1002
0000
0013
0100
0000
1001
0000
0001
,
0100
0000
0010
1000
0000
0001
0010
0000
,
0100
1000
0000
0110
0000
1001
0000
1000
,
0001
0000
2001
0000
3010
0100
0010
0000
,
1020
0000
0130
0001
0000
1001
0000
1000
,
0200
0000
0310
0001
0020
0000
0130
0000
,
2001
0000
3010
0100
0000
0100
0001
0000
,
0021
0000
0130
1000
0100
1000
0001
0000
,
2001
0000
3010
0100
0000
1001
0000
1000
,
0001
0000
0010
0100
0010
0100
1000
0000
,
1001
0000
0001
0100
0000
0220
0000
0330
,
1001
1000
0100
0001
,
0100
1000
0001
1000
,
0010
0100
0010
0100
0001
1000
0100
0000
,
0220
0000
0000
0330
;

//---------------dance-single - Daff_4K----------------
#NOTEDATA:;
#CHARTNAME:Daff_4K;
#STEPSTYPE:dance-single;
#DESCRIPTION:Daff_4K;
#CHARTSTYLE:;
#DIFFICULTY:Hard;
#METER:14;
#RADARVALUES:0.660262,0.859491,0.437769,0.749259,0.357792,549.000000,497.000000,52.000000,89.000000,0.000000,0.000000,0.000000,0.000000,0.000000,0.660262,0.859491,0.437769,0.749259,0.357792,549.000000,497.000000,52.000000,89.000000,0.000000,0.000000,0.000000,0.000000,0.000000;
#CREDIT:Daff_4K;
#NOTES:
// measure 0
0000
0000
0000
0000
,  // measure 1
0000
0000
0000
0000
,  // measure 2
0000
0000
0000
0000
,  // measure 3
0000
0000
0000
0000
,  // measure 4
0101
0000
1100
0000
1002
0000
0103
0010
,  // measure 5
1000
0001
0020
0000
0130
1000
0020
0000
,  // measure 6
0130
0000
0001
1000
0001
0000
1000
0001
1000
0000
0100
0000
0010
0000
0002
0000
,  // measure 7
0000
1000
1000
1000
0000
0103
0010
0000
,  // measure 8
2001
0000
0100
0100
3100
1000
0001
0000
,  // measure 9
1002
0000
0000
0000
0103
0000
0001
0010
0000
0000
0010
0100
0000
0000
1000
0000
,  // measure 10
1020
0000
0130
0010
0100
0001
1000
0100
,  // measure 11
0001
0100
0010
0002
0000
1003
0001
0100
,  // measure 12
0120
0000
2030
0001
3002
0010
0013
0000
,  // measure 13
2100
0000
0000
0000
3001
0000
1000
0010
0000
0000
0010
0100
0000
0000
0001
0000
,  // measure 14
2000
0000
3200
0010
0000
0320
0001
0000
,  // measure 15
0031
0000
1000
0001
1000
0000
0020
0000
0000
0000
0100
0000
0130
0000
0000
0000
,  // measure 16
0110
0000
1002
0000
0100
0100
0103
0000
,  // measure 17
2001
0000
0000
0000
3100
0000
1000
0010
0000
0000
0010
0100
0000
0000
0001
0000
,  // measure 18
0021
0000
0130
0010
0100
1000
0001
0100
,  // measure 19
1000
0100
0010
2000
0000
3001
1000
0100
,  // measure 20
0120
0000
0032
1000
2003
0010
3010
0000
,  // measure 21
0102
0000
0000
0000
1003
0000
0001
0010
0000
0000
0010
0100
0000
0000
2200
0000
,  // measure 22
0000
3300
2020
0000
3030
0202
0000
0303
,  // measure 23
0022
0000
0033
2002
0000
0000
3003
0000
,  // measure 24
1000
0010
0100
0010
1000
0000
1010
0000
0010
0100
0001
0100
0010
0000
0000
1000
,  // measure 25
0000
0001
1000
0100
0000
0100
0010
0001
0000
0001
1000
0010
0000
0110
0000
0000
,  // measure 26
0001
0010
0100
0010
0001
0000
0011
0000
0010
0100
1000
0100
0010
0000
0000
0001
,  // measure 27
0000
1000
0001
0100
0000
0100
0010
1000
0000
1000
0001
0010
0000
0100
0000
0000
,  // measure 28
2000
0010
0000
0010
0000
0001
0000
0001
,  // measure 29
0000
0100
0000
0001
0000
0010
0000
3002
,  // measure 30
0000
0010
0000
0010
0000
1000
0000
1000
,  // measure 31
0000
0100
0000
1000
0000
0010
0000
0203
,  // measure 32
0000
0001
0000
0010
0000
0001
0000
0320
,  // measure 33
0000
1000
0000
0100
0000
1000
0000
0130
,  // measure 34
0002
0000
0013
0100
2000
0000
3010
0220
,  // measure 35
0000
0000
0000
0330
,  // measure 36
1001
0000
0000
1000
0100
0000
0010
0000
0100
0000
0001
0000
0100
0000
2000
0000
,  // measure 37
0000
3010
0100
0001
0020
0000
0130
0000
,  // measure 38
1001
0000
0000
0001
0100
0000
0010
0000
0100
0000
1000
0000
0100
0000
0002
0000
,  // measure 39
0000
0013
0100
1000
0020
0000
0130
0000
,  // measure 40
1001
0000
0000
0001
0010
0000
0100
0000
0010
0000
0001
0000
1000
0000
0000
0000
,  // measure 41
1001
0000
0000
1000
0010
0000
0100
0000
0010
0000
1000
0000
0001
0000
0000
0000
,  // measure 42
0010
0000
0100
0010
0100
0000
1000
0000
0010
0100
0010
0000
0100
0001
1000
0000
,  // measure 43
0200
0010
0310
0110
,  // measure 44
2001
0000
0000
0000
3010
0000
0100
0001
0100
0000
0010
0000
1000
0000
0002
0000
,  // measure 45
0000
0000
1003
0001
1000
0000
0100
0000
0001
0000
0100
0000
1000
0000
0100
0000
,  // measure 46
0020
0000
0000
0000
0031
0000
1000
0010
1000
0000
0100
0000
0010
0000
0002
0000
,  // measure 47
0000
0000
1003
0001
1000
0000
0010
0000
0100
0001
0000
0000
0001
1000
0000
0000
,  // measure 48
1002
0000
0000
0000
0013
0100
0010
0000
0100
0010
0100
0000
1000
0000
0002
0000
,  // measure 49
0000
1003
0001
0100
1000
0100
0001
0100
,  // measure 50
0020
0000
0000
0000
1030
0000
0001
0010
0001
0000
0100
0000
0010
0000
2000
0000
,  // measure 51
0000
0000
3001
1000
0001
0000
0010
0000
0100
1000
0000
0000
1000
0001
0000
0000
,  // measure 52
2001
0000
0100
0000
3020
0000
0130
1001
0000
0001
1000
0001
0010
0100
1000
0010
,  // measure 53
0200
0302
0023
2030
3002
0203
2300
3010
,  // measure 54
1002
0000
0000
0000
0013
0100
0010
0000
0100
0010
0100
0000
1000
0000
0002
0000
0000
0000
1003
0000
0001
0000
1000
0000
0010
0000
0100
0000
0001
0000
0010
0000
,  // measure 55
0200
2300
3002
0103
0220
0000
0000
0330
,  // measure 56
2001
0000
0100
0100
3100
1000
0001
0000
,  // measure 57
1002
0000
0000
0000
0103
0000
0001
0010
0000
0000
0010
0100
0000
0000
1000
0000
,  // measure 58
2001
0000
0010
0010
3010
1000
0100
0001
,  // measure 59
1000
0000
0010
0000
0001
0000
0200
0000
0000
0000
0310
0100
0010
0000
1000
0000
,  // measure 60
1002
0000
0013
0110
0100
1100
1001
0000
,  // measure 61
1020
0000
0000
0000
0130
0000
0001
1000
0000
0000
1000
0100
0000
0000
0020
0000
,  // measure 62
0001
0000
0032
1000
0000
2003
0010
0000
,  // measure 63
3010
0000
0100
0010
0100
0000
0002
0000
0000
0000
1000
0000
1003
0000
0000
0000
,  // measure 64
0110
0000
1002
0000
0100
0100
0103
0000
,  // measure 65
2001
0000
0000
0000
3100
0000
1000
0010
0000
0000
0010
0100
0000
0000
0001
0000
,  // measure 66
1002
0000
0010
0010
0013
0001
0100
1000
,  // measure 67
0001
0000
0010
0000
1000
0000
0200
0000
0000
0000
0310
0100
0010
0000
0001
0000
,  // measure 68
2001
0000
3010
0110
0100
0101
1001
0000
,  // measure 69
0021
0000
0000
0000
0130
0000
1000
0001
0000
0000
0001
0100
0000
0000
0010
0000
,  // measure 70
1000
0000
0001
0000
0010
0100
0010
0000
0100
0000
1000
0001
1000
0000
0001
0000
,  // measure 71
0100
0000
0010
1000
0001
0000
0020
0000
0000
0000
0100
0000
0130
0000
0000
0000
,  // measure 72
1001
0000
0000
0001
0100
0000
0010
0000
0100
0000
0001
0000
0100
0000
0010
0000
,  // measure 73
1000
0100
0010
0100
1000
0100
0010
0001
,  // measure 74
1000
0001
1000
0000
0010
0100
0010
0000
0100
0000
0001
0000
1000
0000
0100
0000
,  // measure 75
0010
0001
1000
0020
0000
0130
0000
0000
;
