#VERSION:0.83;
#TITLE:NIGHT OF FIRE;
#SUBTITLE:;
#ARTIST:NIKO;
#TITLETRANSLIT:;
#SUBTITLETRANSLIT:;
#ARTISTTRANSLIT:;
#GENRE:EUROBEAT;
#ORIGIN:;
#CREDIT:;
#BANNER:NIGHT OF FIRE.png;
#BACKGROUND:NIGHT OF FIRE-bg.png;
#PREVIEWVID:;
#JACKET:NIGHT OF FIRE-jacket.png;
#CDIMAGE:;
#DISCIMAGE:;
#LYRICSPATH:;
#CDTITLE:cdtitle.png;
#MUSIC:NIGHT OF FIRE.ogg;
#OFFSET:-0.098000;
#SAMPLESTART:50.271999;
#SAMPLELENGTH:15.000000;
#SELECTABLE:YES;
#DISPLAYBPM:155.000000;
#BPMS:0.000=155.100;
#STOPS:32.000=0.291;
#DELAYS:;
#WARPS:;
#TIMESIGNATURES:0.000=4=4;
#TICKCOUNTS:0.000=4;
#COMBOS:0.000=1;
#SPEEDS:0.000=1.000=0.000=0;
#SCROLLS:0.000=1.000;
#FAKES:;
#LABELS:0.000=Song Start;
#BGCHANGES:;
#KEYSOUNDS:;
#ATTACKS:
;

//---------------dance-single - Daff_4K----------------
#NOTEDATA:;
#CHARTNAME:Daff_4K;
#STEPSTYPE:dance-single;
#DESCRIPTION:Daff_4K;
#CHARTSTYLE:;
#DIFFICULTY:Beginner;
#METER:2;
#RADARVALUES:0.148302,0.184707,0.044175,0.000000,0.000000,94.000000,90.000000,4.000000,0.000000,0.000000,0.000000,0.000000,0.000000,0.000000,0.148302,0.184707,0.044175,0.000000,0.000000,94.000000,90.000000,4.000000,0.000000,0.000000,0.000000,0.000000,0.000000,0.000000;
#CREDIT:Daff_4K;
#DISPLAYBPM:155.000000;
#NOTES:
0000
0000
0000
0000
,
0000
0000
0000
0000
,
0000
0000
0000
0000
,
0000
0000
0000
0000
,
1000
0000
0000
0000
,
1000
0000
0000
0000
,
0001
0000
0000
0000
,
0001
0000
0000
0000
,
0000
1000
0000
0000
,
0000
0001
0000
0000
,
0000
0010
0000
0100
,
0000
0010
0010
0010
,
0000
0001
0000
0000
,
0000
1000
0000
0000
,
0000
0010
0000
0100
,
0000
0010
0010
0010
,
0000
1000
1000
0000
,
0000
0001
0001
0000
,
0000
0010
0000
0100
,
0000
0010
0000
0100
,
0000
1000
1000
0000
,
0000
0001
0001
0000
,
0000
0100
0000
0010
,
0000
0100
0100
0100
,
0000
0001
0000
0001
,
0000
1000
0000
1000
,
0000
0010
0010
0000
,
0000
0100
0100
0000
,
0000
0001
0000
0001
,
0000
1000
0000
1000
,
0000
1001
0000
0000
,
0000
0110
0000
0000
,
0000
0001
0001
0001
,
0000
0000
0000
1000
,
0000
0000
0000
0010
,
0000
0010
0000
0010
,
0000
0100
0100
0100
,
0000
0000
0000
0001
,
0000
0000
0000
0010
,
0000
0100
0000
0100
,
0000
1000
1000
1000
,
0000
0000
0000
0001
,
0000
0000
0000
0010
,
0000
0010
0000
0010
,
0000
0100
0100
0100
,
0000
0000
0000
1000
,
0000
0000
0000
0010
,
0000
0100
0000
0100
,
0000
1001
0000
0000
,
0000
0001
0000
0000
,
0000
0100
0000
0010
,
0000
0100
0100
0100
,
0000
0001
0000
0000
,
0000
1000
0000
0000
,
0000
0100
0000
0010
,
0000
0100
0000
1001
;

//---------------dance-single - Daff_4K----------------
#NOTEDATA:;
#CHARTNAME:Daff_4K;
#STEPSTYPE:dance-single;
#DESCRIPTION:Daff_4K;
#CHARTSTYLE:;
#DIFFICULTY:Easy;
#METER:5;
#RADARVALUES:0.258739,0.277060,0.099394,0.000000,0.000000,164.000000,155.000000,9.000000,0.000000,0.000000,0.000000,0.000000,0.000000,0.000000,0.258739,0.277060,0.099394,0.000000,0.000000,164.000000,155.000000,9.000000,0.000000,0.000000,0.000000,0.000000,0.000000,0.000000;
#CREDIT:Daff_4K;
#DISPLAYBPM:155.000000;
#NOTES:
0000
0000
0000
0000
,
0000
0000
0000
0000
,
0000
0000
0000
0000
,
0000
0000
0000
0000
,
0001
0010
0100
0000
,
1000
0010
0100
0000
,
0001
0000
1000
0000
,
0100
0010
0100
0010
,
0001
1000
0000
0000
,
1000
0001
0000
0000
,
0000
0010
0000
0100
,
0000
0010
0001
1000
,
0001
1000
0000
0000
,
1000
0001
0000
0000
,
0000
0100
0000
0010
,
0000
0100
0001
1000
,
0001
1000
0100
0000
,
0010
0001
0100
0000
,
0010
1000
1000
0001
,
0001
0010
0100
0010
,
0100
1000
0010
0000
,
0100
0001
0010
0000
,
0100
1000
1000
0001
,
0001
0100
0010
0100
,
0010
1000
1000
0100
,
0000
0001
0001
0100
,
0000
1000
0010
0001
,
0000
0001
0100
1000
,
0000
0001
0001
0010
,
0000
1000
1000
0010
,
0000
1001
0000
0110
,
0000
1001
0000
0000
,
0000
0010
0100
1001
,
0000
1000
0010
0001
,
0000
0001
0100
1000
,
0000
0010
0010
0100
,
0100
0001
1000
0110
,
0000
0001
0100
1000
,
0000
1000
0010
0001
,
0000
1000
1000
0001
,
0001
0010
0100
1001
,
0000
0001
0010
1000
,
0000
1000
0100
0001
,
0000
0010
0010
0100
,
0100
1000
0001
0110
,
0000
1000
0100
0001
,
0000
0001
0010
1000
,
0000
0001
0100
0010
,
1000
1001
0000
0001
,
0100
1000
0000
1000
,
0010
0001
0000
1000
,
0000
0010
0100
0010
,
0100
0001
0000
1000
,
0100
0001
0000
0001
,
0010
1000
0000
0001
,
0000
0010
0100
1001
;

//---------------dance-single - Daff_4K----------------
#NOTEDATA:;
#CHARTNAME:Daff_4K;
#STEPSTYPE:dance-single;
#DESCRIPTION:Daff_4K;
#CHARTSTYLE:;
#DIFFICULTY:Medium;
#METER:9;
#RADARVALUES:0.493813,0.492551,0.563231,0.000000,0.011044,313.000000,262.000000,51.000000,0.000000,0.000000,0.000000,0.000000,0.000000,0.000000,0.493813,0.492551,0.563231,0.000000,0.011044,313.000000,262.000000,51.000000,0.000000,0.000000,0.000000,0.000000,0.000000,0.000000;
#CREDIT:Daff_4K;
#DISPLAYBPM:155.000000;
#NOTES:
0000
0000
0000
0000
,
0000
0000
0000
0000
,
0000
0000
0000
0000
,
0000
0000
0000
0000
,
1000
1000
1000
1000
,
0001
0001
0001
0001
,
0010
0010
0100
0100
,
1000
0000
0000
1000
0000
0000
0001
0000
0000
0001
0000
0000
0100
0000
0010
0000
,
1000
0000
0001
0010
0001
0000
1000
0010
,
1000
0100
1001
0010
,
1001
0000
0001
1000
0001
0000
0010
0100
,
0010
1000
0110
0001
,
0110
0000
1000
0010
1000
0000
0001
0010
,
0001
0100
1001
0010
,
1001
0000
1000
0001
1000
0000
0010
0100
,
0010
0001
0110
1000
,
0110
0000
0001
0010
1000
0000
0100
0000
,
0001
0000
1000
0100
0001
0000
0010
0000
,
1000
0000
0001
0100
0010
0000
1000
0100
,
0010
0011
0101
0011
,
0101
0000
1000
0010
0001
0000
0100
0000
,
1000
0000
0001
0100
1000
0000
0010
0000
,
0001
0000
1000
0100
0010
0000
0001
0100
,
0010
1010
1100
1010
,
1100
0000
1001
0000
0001
0100
0010
0000
,
1000
0001
0010
0000
0100
1000
0001
0000
,
0100
0010
1001
0100
,
1001
0000
0001
0010
0100
0010
0001
1000
,
0010
0000
1001
0000
1000
0100
0010
0000
,
0001
1000
0010
0000
0100
0001
1000
0000
,
0100
0010
1001
0100
,
1001
0000
1000
0010
0100
0010
1000
0001
,
0010
0000
0011
0000
1100
0000
1000
0010
,
0001
0000
0010
1000
0100
0000
0010
0000
,
1001
0000
0100
0001
0010
0000
0100
0000
,
1001
0010
0001
0100
,
1000
0000
0110
0000
1001
0000
0001
0010
,
1000
0000
0010
0001
1000
0000
0010
0000
,
1001
0000
0100
0001
1000
0000
0100
0000
,
1001
0000
0100
0001
0100
0000
0001
1000
,
0001
0000
1010
0000
0101
0000
0001
0010
,
1000
0000
0010
0001
0100
0000
0010
0000
,
1001
0000
0100
1000
0010
0000
0100
0000
,
1001
0010
1000
0100
,
0001
0000
0110
0000
1001
0000
1000
0010
,
0001
0000
0010
1000
0001
0000
0010
0000
,
1001
0000
0100
1000
0001
0000
0100
0000
,
1001
0000
0100
1000
0100
0000
1000
0001
,
1000
0000
0001
0010
0001
0000
1000
0010
,
1000
0101
1010
0101
,
1010
0000
1000
0001
1000
0000
0100
0010
,
0100
1001
0110
1001
,
0110
0000
1000
0010
1000
0000
0001
0010
,
0001
1100
0011
1100
,
0011
0000
0001
1000
0001
0000
0100
0010
,
0100
0001
1000
0110
;

//---------------dance-single - Daff_4K----------------
#NOTEDATA:;
#CHARTNAME:Daff_4K;
#STEPSTYPE:dance-single;
#DESCRIPTION:Daff_4K;
#CHARTSTYLE:;
#DIFFICULTY:Hard;
#METER:12;
#RADARVALUES:0.590051,0.584904,0.552187,0.000000,0.176700,374.000000,324.000000,50.000000,0.000000,0.000000,0.000000,0.000000,0.000000,0.000000,0.590051,0.584904,0.552187,0.000000,0.176700,374.000000,324.000000,50.000000,0.000000,0.000000,0.000000,0.000000,0.000000,0.000000;
#CREDIT:Daff_4K;
#DISPLAYBPM:155.000000;
#NOTES:
0000
0000
0000
0000
,
0000
0000
0000
0000
,
0000
0000
0000
0000
,
0000
0000
0000
0000
,
1010
0100
0001
1000
,
0011
0100
1000
0001
,
0110
1000
0110
0001
,
1000
0000
0000
0010
0000
0000
0100
0000
0000
0001
0000
0000
0010
0000
0100
0000
,
1000
0000
0001
0100
1000
0000
0100
0001
,
0010
0000
0001
0100
1000
0100
0001
0100
,
0010
0000
1000
0001
0010
0000
0100
1000
,
0010
0000
0100
0001
0010
0001
0100
0001
,
0010
0100
1000
0100
0001
0000
0100
1000
,
0010
0000
1000
0100
0001
0100
1000
0100
,
0010
0000
0001
1000
0010
0000
0100
0001
,
0010
0000
0000
0000
0001
0000
0000
0100
0000
0000
1000
0000
0000
0010
0000
0000
,
0001
1000
0001
0100
1000
0100
0001
0000
,
1010
0000
1000
0100
0010
0001
1000
0000
,
0110
0000
0001
1000
0100
0010
0100
0001
,
0100
0000
1000
0000
0001
0000
0000
0100
0010
0000
0000
0010
1000
0000
0000
1000
,
0001
0000
1000
0100
0001
0100
1000
0000
,
0011
0000
0001
0100
0010
1000
0001
0000
,
0110
0000
1000
0001
0100
0010
0100
1000
,
0100
0000
0001
0000
1000
0000
0000
0100
0000
0000
0001
0000
0000
0010
0000
0000
,
1000
0001
0010
0000
0100
1000
0000
0011
,
0000
1001
0000
1000
0010
0100
0001
0000
,
0110
0000
1000
0001
0011
0000
0001
1000
,
1010
0000
0110
0000
1001
0000
0001
0010
,
0100
1000
0010
0000
0100
0001
0000
1010
,
0000
1001
0000
0001
0010
0100
1000
0000
,
0110
0101
1010
1100
,
0011
0000
0001
0100
0010
1000
0100
0010
,
0001
0000
0101
0000
1010
0000
0100
0010
,
1001
0000
1000
0100
0001
0100
0010
0000
,
1100
0000
0001
0010
1000
0010
0100
0000
,
0011
0000
0000
0000
1001
0000
0000
1000
0010
0000
0000
0100
0001
0000
0000
1000
,
0100
0000
1100
0000
0011
0000
1000
0001
,
0110
0000
1000
0001
0010
0100
1000
0000
,
0101
0000
1000
0010
0001
0010
1000
0000
,
0011
0000
0000
0001
1000
0000
0000
0010
0100
0000
0000
0001
1000
0000
0100
0000
,
0010
0000
1100
0000
0011
0000
0100
0010
,
1001
0000
0001
0100
1000
0100
0010
0000
,
0101
0000
1000
0010
0001
0010
0100
0000
,
1010
0000
0000
0000
1001
0000
0000
0001
0010
0000
0000
0100
1000
0000
0000
0001
,
0100
0000
0101
0000
1010
0000
0001
1000
,
0110
0000
0001
1000
0010
0100
0001
0000
,
1100
0000
0001
0010
1000
0010
0001
0000
,
0110
1001
0000
0110
0000
0001
1000
0000
,
0110
0000
0001
0010
1000
0010
0001
0100
,
0010
0000
0000
0000
1000
0100
0000
1000
0100
0000
0010
0001
0000
0010
0001
0000
,
1000
0010
0001
0010
1000
0100
0001
0100
,
0010
0000
0000
0000
0001
1000
0000
0001
1000
0000
0010
0100
0000
0010
0100
0000
,
0001
1000
0000
0001
1000
0000
0010
0000
0001
0000
0010
0000
1000
0000
0100
0000
,
0010
0000
0000
0000
0001
0100
0000
0001
0100
0000
0010
1000
0000
0010
1000
0000
,
0001
0010
1000
0010
0001
0100
1000
0100
,
0010
1001
0110
1001
;

//---------------dance-single - NIGHT OF Daff_4K----------------
#NOTEDATA:;
#CHARTNAME:NIGHT OF Daff_4K;
#STEPSTYPE:dance-single;
#DESCRIPTION:NIGHT OF Daff_4K;
#CHARTSTYLE:;
#DIFFICULTY:Challenge;
#METER:14;
#RADARVALUES:0.684712,0.677258,0.474881,0.254006,0.441750,434.000000,391.000000,43.000000,23.000000,0.000000,0.000000,0.000000,0.000000,0.000000,0.684712,0.677258,0.474881,0.254006,0.441750,434.000000,391.000000,43.000000,23.000000,0.000000,0.000000,0.000000,0.000000,0.000000;
#CREDIT:NIGHT OF Daff_4K;
#DISPLAYBPM:155.000000;
#NOTES:
// measure 0
0000
0000
0000
0000
,  // measure 1
0000
0000
0000
0000
,  // measure 2
0000
0000
0000
0000
,  // measure 3
0000
0000
0000
0000
,  // measure 4
2000
0010
0001
0100
,  // measure 5
3002
0010
1000
0100
,  // measure 6
2003
0100
3002
0100
,  // measure 7
1003
0000
0000
1010
0000
0000
0001
0000
0000
0011
0000
0000
1000
0000
0001
0000
,  // measure 8
0110
0000
0000
0000
1000
0000
0010
0000
0100
0010
0100
0000
0001
1000
0000
0100
,  // measure 9
0000
0010
0100
0000
1000
0000
0010
0000
0001
0000
0010
0000
1000
0000
0100
0000
,  // measure 10
0001
0000
0100
0000
1000
0000
0001
0000
0100
0010
0100
0000
0001
1000
0000
0100
,  // measure 11
0000
1000
0001
0000
0100
0001
0000
0100
0010
0000
1000
0010
0000
1000
0100
0000
,  // measure 12
0010
0100
0000
0010
0001
0000
0010
0000
0100
0010
0100
0000
1000
0001
0000
0100
,  // measure 13
0000
0010
0100
0000
0001
0000
0010
0000
1000
0000
0010
0000
0001
0000
0100
0000
,  // measure 14
1000
0000
0100
0000
0001
0000
1000
0000
0100
0010
0100
0000
1000
0001
0000
0100
,  // measure 15
0000
0001
1000
0000
1010
0000
0000
0101
0000
0000
0011
0000
0000
1100
0000
0000
,  // measure 16
1000
0001
0100
1000
0001
0010
0100
0001
,  // measure 17
1001
0000
1000
0100
0010
1000
0001
0100
,  // measure 18
0010
0000
0001
0000
1000
0000
0010
0000
0100
0010
0100
0000
0001
1000
0000
0100
,  // measure 19
0000
0010
0100
0000
1000
0001
0000
0001
0010
0000
0010
0100
0000
0100
1000
0000
,  // measure 20
0001
1000
0100
0001
1000
0010
0100
1000
,  // measure 21
1001
0000
0001
0100
0010
0001
1000
0100
,  // measure 22
0010
0000
1000
0000
0001
0000
0010
0000
0100
0010
0100
0000
1000
0001
0000
0100
,  // measure 23
0000
0010
0100
0000
0001
0000
0000
0011
0000
0000
1000
0000
0000
1010
0000
0000
,  // measure 24
0001
1000
1020
0000
0130
0001
0000
0110
,  // measure 25
0000
1002
0000
0013
1000
0010
0100
0000
,  // measure 26
1001
0000
0001
1000
0120
0000
1030
0001
,  // measure 27
0120
0000
0031
1000
0010
0100
0001
1000
,  // measure 28
0100
0010
0021
0000
0130
1000
0000
0110
,  // measure 29
0000
2001
0000
3010
0001
0010
0100
0000
,  // measure 30
1001
0000
1200
0000
0310
0001
0201
0000
,  // measure 31
0310
1000
0001
0010
0100
1000
0010
0100
,  // measure 32
0001
0000
0000
0000
0110
0000
0000
0000
1001
0000
0000
1000
0100
0000
0001
0000
,  // measure 33
0120
0000
0031
0100
1000
0100
0010
1000
,  // measure 34
0002
0000
1003
0010
0001
0010
0100
0001
,  // measure 35
1000
1200
0000
0301
0100
0010
0011
0000
,  // measure 36
1100
0000
0000
0000
1010
0000
0000
0000
0101
0000
0000
0001
0010
0000
1000
0000
,  // measure 37
0210
0000
1300
0010
0001
0010
1000
0100
,  // measure 38
0020
0000
0031
0100
1000
0100
0001
0010
,  // measure 39
0100
0000
1001
0000
0000
0000
1000
0000
0010
0000
0100
0010
0100
0000
0001
0000
,  // measure 40
1000
0000
0100
0000
0110
0000
0000
0000
1001
0000
0000
0001
0100
0000
1000
0000
,  // measure 41
0120
0000
1030
0100
0001
0100
0010
0001
,  // measure 42
2000
0000
3001
0010
1000
0010
0100
1000
,  // measure 43
0001
0201
0000
1300
0100
0010
1010
0000
,  // measure 44
0101
0000
0000
0000
0011
0000
0000
0000
1100
0000
0000
1000
0010
0000
0001
0000
,  // measure 45
0210
0000
0301
0010
1000
0010
0001
0100
,  // measure 46
0020
0000
1030
0100
0001
0100
1000
0010
,  // measure 47
0100
0000
1001
0000
0000
0000
0001
0000
1000
0000
0100
0010
0100
0000
0010
0000
,  // measure 48
0001
1000
0001
0000
1000
0000
0100
0000
0010
0001
0010
0000
0001
1000
0000
0010
,  // measure 49
0000
0100
0010
0000
1000
0001
0000
1000
0001
0000
0010
0100
0000
0010
0100
0000
,  // measure 50
1000
0010
0000
1000
0010
0000
0001
0000
0010
0100
0010
0000
0100
0001
0000
1000
,  // measure 51
0000
0001
1000
0000
0100
0010
0000
0010
0001
0000
0001
1000
0000
1000
0010
0000
,  // measure 52
0100
0010
0100
0000
0001
0000
0100
0000
0010
1000
0010
0000
1000
0001
0000
0010
,  // measure 53
0000
0100
0010
0000
0001
1000
0000
0001
1000
0000
0010
0100
0000
0010
0100
0000
,  // measure 54
0001
0010
0000
0001
0010
0000
1000
0000
0010
0100
0010
0000
0100
1000
0000
0001
,  // measure 55
0000
1000
0001
0000
0200
0000
0000
0000
0000
0000
0000
0000
0310
0000
0000
0000
;
