#VERSION:0.83;
#TITLE:My Time;
#SUBTITLE:;
#ARTIST:Dutch feat. Crystal Waters;
#TITLETRANSLIT:;
#SUBTITLETRANSLIT:;
#ARTISTTRANSLIT:;
#GENRE:HOUSE;
#ORIGIN:;
#CREDIT:;
#BANNER:My Time.png;
#BACKGROUND:My Time-bg.png;
#PREVIEWVID:;
#JACKET:My Time-jacket.png;
#CDIMAGE:;
#DISCIMAGE:;
#LYRICSPATH:;
#CDTITLE:cdtitle.png;
#MUSIC:My Time.ogg;
#OFFSET:-0.248000;
#SAMPLESTART:35.362000;
#SAMPLELENGTH:15.000000;
#SELECTABLE:YES;
#DISPLAYBPM:131.000000;
#BPMS:0.000=130.500;
#STOPS:;
#DELAYS:;
#WARPS:;
#TIMESIGNATURES:0.000=4=4;
#TICKCOUNTS:0.000=4;
#COMBOS:0.000=1;
#SPEEDS:0.000=1.000=0.000=0;
#SCROLLS:0.000=1.000;
#FAKES:;
#LABELS:0.000=Song Start;
#BGCHANGES:0.000=My Time.avi=1.000=0=0=0=StretchNoLoop==CrossFade_Fastest==,
99999=-nosongbg-=1.000=0=0=0 // don't automatically add -songbackground-
;
#KEYSOUNDS:;
#ATTACKS:
;

//---------------dance-single - Daff_4K----------------
#NOTEDATA:;
#CHARTNAME:Daff_4K;
#STEPSTYPE:dance-single;
#DESCRIPTION:Daff_4K;
#CHARTSTYLE:;
#DIFFICULTY:Beginner;
#METER:1;
#RADARVALUES:0.080722,0.105163,0.039240,0.000000,0.000000,72.000000,67.000000,5.000000,0.000000,0.000000,0.000000,0.000000,0.000000,0.000000,0.080722,0.105163,0.039240,0.000000,0.000000,72.000000,67.000000,5.000000,0.000000,0.000000,0.000000,0.000000,0.000000,0.000000;
#CREDIT:Daff_4K;
#DISPLAYBPM:131.000000;
#NOTES:
// measure 0
0000
0000
0000
0000
,  // measure 1
0000
0000
0000
0000
,  // measure 2
0000
0000
0000
0000
,  // measure 3
0000
0000
0000
0000
,  // measure 4
0000
0001
0000
0001
,  // measure 5
0000
0000
0000
0000
,  // measure 6
0000
1000
0000
1000
,  // measure 7
0000
0000
0000
0000
,  // measure 8
1001
0000
0000
0000
,  // measure 9
0001
0000
0000
0000
,  // measure 10
0100
0000
0000
0000
,  // measure 11
0010
0000
0000
0000
,  // measure 12
1000
0000
0000
0000
,  // measure 13
0100
0000
0000
0000
,  // measure 14
0010
0000
0000
0000
,  // measure 15
0001
0000
0000
0000
,  // measure 16
1000
0000
1000
0000
,  // measure 17
0000
0000
0000
0000
,  // measure 18
0001
0000
0001
0000
,  // measure 19
0000
0000
0000
0000
,  // measure 20
1001
0000
0000
0000
,  // measure 21
1000
0000
1000
0000
,  // measure 22
0000
0000
0000
0000
,  // measure 23
0001
0000
0001
0000
,  // measure 24
0000
0000
0000
0100
,  // measure 25
0100
0000
0000
0000
,  // measure 26
0010
0000
0000
0000
,  // measure 27
1000
0000
0000
0000
,  // measure 28
1001
0000
0000
0000
,  // measure 29
0001
0000
0001
0000
,  // measure 30
0000
0000
0000
0000
,  // measure 31
1000
0000
1000
0000
,  // measure 32
0000
0000
0000
0100
,  // measure 33
0100
0000
0000
0000
,  // measure 34
0010
0000
0000
0000
,  // measure 35
0001
0000
0000
0000
,  // measure 36
0100
0000
0000
0000
,  // measure 37
0000
0000
0000
0000
,  // measure 38
0010
0000
0000
0000
,  // measure 39
0000
0000
0000
0000
,  // measure 40
0000
1000
0000
1000
,  // measure 41
0000
0000
0000
0000
,  // measure 42
0000
0001
0000
0001
,  // measure 43
0000
0000
0000
0000
,  // measure 44
1001
0000
0000
0000
,  // measure 45
1000
0000
1000
0000
,  // measure 46
0000
0000
0000
0000
,  // measure 47
0001
0000
0001
0000
,  // measure 48
0000
0000
0000
0010
,  // measure 49
0010
0000
0000
0000
,  // measure 50
0100
0000
0000
0000
,  // measure 51
1000
0000
0000
0000
,  // measure 52
1001
0000
0000
0000
,  // measure 53
0001
0000
0001
0000
,  // measure 54
0000
0000
0000
0000
,  // measure 55
1000
0000
1000
0000
,  // measure 56
0000
0000
0000
0010
,  // measure 57
0010
0000
0000
0000
,  // measure 58
0100
0000
0000
0000
,  // measure 59
0001
0000
0000
0000
,  // measure 60
1000
0000
0000
0000
,  // measure 61
0001
0000
0000
0000
,  // measure 62
1000
0000
0000
0000
,  // measure 63
0001
0000
0000
0000
,  // measure 64
0000
0010
0000
0100
,  // measure 65
0100
0000
0000
0000
,  // measure 66
1000
0000
0000
0000
,  // measure 67
0001
0000
0000
0000
;

//---------------dance-single - Daff_4K----------------
#NOTEDATA:;
#CHARTNAME:Daff_4K;
#STEPSTYPE:dance-single;
#DESCRIPTION:Daff_4K;
#CHARTSTYLE:;
#DIFFICULTY:Easy;
#METER:3;
#RADARVALUES:0.188352,0.238383,0.015696,0.172656,0.000000,168.000000,166.000000,2.000000,22.000000,0.000000,0.000000,0.000000,0.000000,0.000000,0.188352,0.238383,0.015696,0.172656,0.000000,168.000000,166.000000,2.000000,22.000000,0.000000,0.000000,0.000000,0.000000,0.000000;
#CREDIT:Daff_4K;
#DISPLAYBPM:131.000000;
#NOTES:
0000
0000
0000
0000
,
0000
0000
0000
0000
,
0000
0000
0000
0000
,
0000
0000
0000
0000
,
0001
0000
0100
0001
,
0000
0001
0100
0010
,
1000
0000
0100
1000
,
0002
0000
1000
1003
,
0001
0100
0001
0000
,
1000
0100
1000
0000
,
0010
0100
0001
0000
,
0010
0100
1000
0000
,
0001
0010
0001
0000
,
1000
0010
1000
0000
,
0100
0000
0010
0000
,
0001
1000
0001
0000
,
2000
3000
0002
0003
,
0100
0100
0010
1000
,
0002
0003
2000
3000
,
0100
0100
0010
0001
,
0000
1000
0010
1000
,
0000
0001
0000
1000
,
0000
0001
0010
0001
,
0000
1000
0000
0001
,
0000
0100
0010
0100
,
0000
0001
0000
1000
,
0200
0000
0310
0000
,
0002
0000
1003
0000
,
0000
0001
0010
0001
,
0000
1000
0000
0001
,
0000
1000
0010
1000
,
0000
0001
0000
1000
,
0000
0100
0010
0100
,
0000
1000
0000
0001
,
0200
0000
0310
0000
,
2000
0000
3001
0000
,
2000
0000
3100
0000
,
0020
0000
0031
1000
,
0002
0000
0103
0000
,
0020
0000
1030
0001
,
1000
1000
0001
0001
,
0000
0100
0010
1000
,
0001
0001
1000
1000
,
0010
0010
0100
0001
,
0000
1000
0100
1000
,
0000
0001
0000
1000
,
0000
0001
0100
0001
,
0000
1000
0000
0001
,
0000
0010
0100
0010
,
0000
0001
0000
1000
,
0002
0000
0103
0000
,
2000
0000
3010
0000
,
0000
0001
0100
0001
,
0000
1000
0000
0001
,
0000
1000
0100
1000
,
0000
0001
0000
1000
,
0000
0010
0100
0010
,
0000
1000
0000
0001
,
2000
0000
3100
0000
,
0002
0000
0013
0000
,
2000
0000
3100
0000
,
0002
0000
0103
0000
,
2000
0000
3001
1000
,
0000
1001
0000
0001
,
0000
1001
0000
1000
,
0001
0000
0100
0010
,
2000
0000
3001
0000
,
0020
0000
0130
0000
;

//---------------dance-single - Daff_4K----------------
#NOTEDATA:;
#CHARTNAME:Daff_4K;
#STEPSTYPE:dance-single;
#DESCRIPTION:Daff_4K;
#CHARTSTYLE:;
#DIFFICULTY:Medium;
#METER:7;
#RADARVALUES:0.316162,0.343693,0.000000,0.172656,0.023544,282.000000,282.000000,0.000000,22.000000,0.000000,0.000000,0.000000,0.000000,0.000000,0.316162,0.343693,0.000000,0.172656,0.023544,282.000000,282.000000,0.000000,22.000000,0.000000,0.000000,0.000000,0.000000,0.000000;
#CREDIT:Daff_4K;
#DISPLAYBPM:131.000000;
#NOTES:
0000
0000
0000
0000
,
0000
0000
0000
0000
,
0000
0000
0000
0000
,
0000
0000
0000
0000
,
0000
0001
1000
0000
0001
0000
0100
0010
,
0100
0010
1000
0001
,
0000
1000
0001
0000
1000
0000
0100
0010
,
0200
0010
0010
0310
,
0001
0000
0100
0000
0001
0000
0010
0001
,
1000
0000
0010
0000
1000
0000
0100
1000
,
0001
0100
1000
0100
,
0001
1000
0001
0000
0010
0000
0100
0000
,
1000
0000
0100
0000
1000
0000
0010
1000
,
0001
0000
0010
0000
0001
0000
0100
0001
,
1000
0100
0001
0100
,
1000
0001
1000
0000
0010
0000
0100
0000
,
0002
0013
2000
3010
,
0001
1000
0001
0000
0200
0000
0310
0000
,
2000
3100
0002
0103
,
1000
0000
0001
0000
0100
0010
0100
0010
,
0000
1000
0100
1000
0100
0000
0010
0001
,
0000
0100
1000
0100
,
0000
0001
0010
0001
0010
0000
0100
1000
,
0000
0010
0001
0010
,
0000
1000
0001
1000
0001
0000
1000
0100
,
0000
0001
0000
0010
0000
1000
0001
0000
,
0020
0000
0000
0130
0000
1000
0001
0000
,
0200
0000
0000
0310
0000
1000
0001
1000
,
0000
0001
0100
0001
0100
0000
0010
1000
,
0000
0100
0001
0100
,
0000
1000
0010
1000
0010
0000
0100
0001
,
0000
0010
1000
0010
,
0000
0001
1000
0001
1000
0000
0001
0100
,
0000
1000
0000
0010
0000
0001
1000
0000
,
0020
0000
0000
0130
0000
0001
1000
0000
,
0200
0000
0000
0310
0000
0001
1000
0000
,
0002
0000
0000
0000
0003
0000
0000
0000
0100
0000
0000
0001
0000
0000
0000
0000
,
2000
0000
0000
0000
3000
0000
0000
0000
0100
0000
0000
1000
0000
0000
0000
0000
,
0002
0000
0000
0000
0003
0000
0000
0000
0010
0000
0000
0001
0000
0000
0000
0000
,
2000
0000
0000
0000
3000
0000
0000
0000
0010
0000
0000
1000
0000
0000
0000
0000
,
0000
0001
0010
0000
0001
0000
1000
0001
,
0100
0010
1000
0001
,
0000
1000
0010
0000
1000
0000
0001
1000
,
0100
0000
0010
0000
0001
1000
0001
1000
,
0000
0001
0100
0001
0100
0000
0010
1000
,
0000
0100
0001
0100
,
0000
1000
0010
1000
0010
0000
0100
0001
,
0000
0010
1000
0010
,
0000
0001
1000
0001
1000
0000
0001
0100
,
0000
1000
0000
0010
0000
0001
1000
0000
,
0020
0000
0000
0130
0000
0001
1000
0000
,
0200
0000
0000
0310
0000
0001
1000
0001
,
0000
1000
0100
1000
0100
0000
0010
0001
,
0000
0100
1000
0100
,
0000
0001
0010
0001
0010
0000
0100
1000
,
0000
0010
0001
0010
,
0000
1000
0001
1000
0001
0000
1000
0100
,
0000
0001
0000
0010
0000
1000
0001
0000
,
0020
0000
0000
0130
0000
1000
0001
0000
,
0200
0000
0000
0310
0000
1000
0001
0000
,
2000
0000
0000
0000
3000
0000
0000
0000
0100
0000
0000
1000
0000
0000
0000
0000
,
0002
0000
0000
0000
0003
0000
0000
0000
0100
0000
0000
0001
0000
0000
0000
0000
,
0010
0000
0100
0000
0010
0000
0001
0100
,
0000
0000
1000
0100
0000
0000
0001
0010
,
0000
0000
1000
0010
0000
0000
0001
1000
,
0000
0010
0000
0100
0000
0001
1000
0000
,
0200
0000
0000
0310
0000
0001
1000
0000
,
0020
0000
0000
0130
0000
0000
0000
0000
;

//---------------dance-single - Daff_4K----------------
#NOTEDATA:;
#CHARTNAME:Daff_4K;
#STEPSTYPE:dance-single;
#DESCRIPTION:Daff_4K;
#CHARTSTYLE:;
#DIFFICULTY:Hard;
#METER:11;
#RADARVALUES:0.447336,0.424577,0.337464,0.274680,0.098100,399.000000,356.000000,43.000000,35.000000,0.000000,0.000000,0.000000,0.000000,0.000000,0.447336,0.424577,0.337464,0.274680,0.098100,399.000000,356.000000,43.000000,35.000000,0.000000,0.000000,0.000000,0.000000,0.000000;
#CREDIT:Daff_4K;
#DISPLAYBPM:131.000000;
#NOTES:
0000
0000
0000
0000
,
0000
0000
0000
0000
,
0000
0000
0000
0000
,
0000
0000
0000
0000
,
0000
0001
0100
0010
1000
0000
0100
0010
,
0002
0000
1003
0001
0200
0000
0310
0000
,
0000
1000
0100
0010
0001
0000
0100
0010
,
2000
0000
3001
1000
0200
0000
0310
0000
,
0001
0000
1000
0000
0010
0000
0000
0010
0100
0000
0000
0000
0001
0000
1000
0000
,
0100
0000
0010
0000
0001
0000
0000
0001
1000
0000
0000
0000
0010
0000
0100
0000
,
0001
0010
1000
0000
0010
0000
0001
1000
,
0001
0100
0010
0100
0001
0000
0010
0100
,
1000
0000
0001
0000
0010
0000
0000
0010
0100
0000
0000
0000
1000
0000
0001
0000
,
0100
0000
0010
0000
1000
0000
0000
1000
0001
0000
0000
0000
0010
0000
0100
0000
,
1000
0010
0001
0000
0100
0000
1000
0001
,
0000
0100
0010
0100
0001
0000
1001
0000
,
1000
0100
0000
0000
0010
0000
0000
0000
0001
0100
0000
0000
0010
0000
0000
0000
,
1000
0000
0001
0000
0010
0000
0100
0000
1000
0001
0000
0000
1000
0000
0000
0000
,
0010
0100
0000
0000
0001
0000
0000
0000
0010
0100
0000
0000
1000
0000
0000
0000
,
0010
0100
0010
0100
0010
0100
0010
1001
,
0000
0001
0010
0100
0010
0000
0001
1000
,
0000
0001
0100
0010
1000
0001
0000
1001
,
0000
1000
0100
0010
0100
0000
1000
0001
,
0000
1000
0010
0100
0001
1000
0000
1001
,
0000
0000
0001
0000
1000
0000
0100
0000
0010
0000
0000
0000
0001
1000
0010
0000
,
0000
0110
0000
1001
0000
0001
0010
0000
,
2020
0000
3030
0011
0000
0001
0100
0000
,
2200
0000
3300
0101
0000
0001
1000
1001
,
0000
1000
0010
0100
0010
0000
1000
0001
,
0000
1000
0100
0010
0001
1000
0000
1001
,
0000
0001
0100
0010
0100
0000
0001
1000
,
0000
0001
0010
0100
1000
0001
0000
1001
,
0000
0000
1000
0000
0001
0000
0100
0000
0010
0000
0000
0000
1000
0001
0010
0000
,
0000
0110
0000
1001
0000
1000
0010
0000
,
0022
0000
0033
1010
0000
1000
0100
0000
,
0202
0000
0303
1100
0000
1000
0001
0000
,
0200
0000
0000
0000
0310
0000
0000
0000
1000
0000
0000
0001
0000
0000
0000
0000
,
2000
0000
0000
0000
3100
0000
0000
0000
1000
0000
0000
0010
0000
0000
1000
0000
,
0002
0000
0000
0000
0103
0000
0000
0000
0001
0000
0000
0010
0000
0000
0001
0000
,
0200
0000
0000
0000
0310
0000
0000
0000
1000
0000
0000
0001
0000
0000
1000
0000
,
0000
0010
0100
0001
1000
0000
0100
0010
,
0002
0000
0000
0000
0103
0000
0000
0000
0010
0000
0000
1000
0000
0000
0001
0000
,
0000
0010
0100
1000
0001
0000
0100
0010
,
0200
0000
0310
0100
0010
0100
0010
1001
,
0000
1000
0100
0010
0001
0000
0100
0100
,
0000
1000
0100
0001
0010
0100
0000
1001
,
0000
0001
0010
0100
1000
0000
0010
0010
,
0000
0001
0010
1000
0100
0010
0000
1001
,
0000
0000
0001
0000
1000
0000
0010
0000
0100
0000
0000
0000
0001
0010
0100
0000
,
0000
0110
0000
1001
0000
0001
0100
0000
,
2200
0000
3300
0101
0000
0001
0010
0000
,
2020
0000
3030
0011
0000
0001
1000
1001
,
0000
0001
0100
0010
1000
0000
0100
0100
,
0000
0001
0100
1000
0010
0100
0000
1001
,
0000
1000
0010
0100
0001
0000
0010
0010
,
0000
1000
0010
0001
0100
0010
0000
1001
,
0000
0000
1000
0000
0001
0000
0010
0000
0100
0000
0000
0000
1000
0010
0100
0000
,
0000
0110
0000
1001
0000
1000
0100
0000
,
0202
0000
0303
1100
0000
1000
0010
0000
,
0022
0000
0033
1010
0000
1000
0001
0000
,
2000
0000
0000
0000
3100
0000
0000
0000
0010
0000
0000
0100
0000
0000
1000
0000
,
0002
0000
0000
0000
0103
0000
0000
0000
0010
0000
0000
0100
0000
0000
0001
0000
,
0020
0000
0000
0000
0130
0000
0000
0000
1000
0000
0000
0000
0001
0100
0001
0000
,
0000
0000
0000
0000
1000
0100
1000
0000
0000
0000
0000
0000
0001
0010
0001
0000
,
0000
0000
0000
0000
1000
0010
1000
0000
0000
0000
0000
0000
0001
1000
0100
0000
,
0000
0110
0000
1001
0000
0001
0100
0000
,
2200
0000
3300
0101
0000
0001
1000
0000
,
0220
0000
0330
2002
0000
3003
0000
0000
;
