#VERSION:0.83;
#TITLE:M.S.S.Planet;
#SUBTITLE:;
#ARTIST:M.S.S Project;
#TITLETRANSLIT:;
#SUBTITLETRANSLIT:;
#ARTISTTRANSLIT:;
#GENRE:MIDDLE SECOND ROCK;
#ORIGIN:;
#CREDIT:;
#BANNER:M.S.S.Planet.png;
#BACKGROUND:M.S.S.Planet-bg.png;
#PREVIEWVID:;
#JACKET:M.S.S.Planet-jacket.png;
#CDIMAGE:;
#DISCIMAGE:;
#LYRICSPATH:;
#CDTITLE:cdtitle.png;
#MUSIC:M.S.S.Planet.ogg;
#OFFSET:-0.238000;
#SAMPLESTART:87.728996;
#SAMPLELENGTH:15.000000;
#SELECTABLE:YES;
#BPMS:0.000=145.000;
#STOPS:;
#DELAYS:;
#WARPS:;
#TIMESIGNATURES:0.000=4=4;
#TICKCOUNTS:0.000=4;
#COMBOS:0.000=1;
#SPEEDS:0.000=1.000=0.000=0;
#SCROLLS:0.000=1.000;
#FAKES:;
#LABELS:0.000=Song Start;
#BGCHANGES:-0.500=M.S.S.Planet.avi=1.000=0=0=0=StretchNoLoop==CrossFade_Fastest==,
99999=-nosongbg-=1.000=0=0=0 // don't automatically add -songbackground-
;
#KEYSOUNDS:;
#ATTACKS:
;

//---------------dance-single - Daff_4K----------------
#NOTEDATA:;
#CHARTNAME:Daff_4K;
#STEPSTYPE:dance-single;
#DESCRIPTION:Daff_4K;
#CHARTSTYLE:;
#DIFFICULTY:Beginner;
#METER:2;
#RADARVALUES:0.107441,0.160993,0.015668,0.000000,0.000000,96.000000,94.000000,2.000000,0.000000,0.000000,0.000000,0.000000,0.000000,0.000000,0.107441,0.160993,0.015668,0.000000,0.000000,96.000000,94.000000,2.000000,0.000000,0.000000,0.000000,0.000000,0.000000,0.000000;
#CREDIT:Daff_4K;
#NOTES:
0000
0000
0000
0000
,
0000
0000
0000
0000
,
0000
0000
0000
0000
,
0000
0000
0000
0000
,
0000
0000
0000
0000
,
0010
0000
0000
0000
,
1000
0000
0000
0000
,
0001
0000
0000
0000
,
0010
0000
0010
0000
,
0010
0000
0000
0000
,
0001
0000
0000
0000
,
1000
0000
0000
0000
,
0010
0000
0000
0000
,
1000
0000
0000
0000
,
0000
0000
0100
0000
,
0010
0000
0000
0000
,
0000
0000
0001
0000
,
0100
0000
0000
0000
,
0000
0000
0010
0000
,
1000
0000
0000
0000
,
0100
0000
0010
0000
,
0001
0000
0000
0000
,
0000
0000
0100
0000
,
0010
0000
0000
0000
,
0000
0000
1000
0000
,
0100
0000
0000
0000
,
0000
0000
0010
0000
,
1001
0000
0000
0000
,
0100
0100
0100
0000
,
0001
0000
1000
0000
,
0001
0001
0001
0000
,
1000
0000
0000
0000
,
0001
0000
0000
0000
,
0010
0000
0100
0000
,
0010
0010
0010
0000
,
0100
0000
0000
0000
,
0000
0000
0000
0000
,
1000
0000
0001
0000
,
1000
1000
1000
0000
,
0001
0000
0000
0000
,
1000
0000
0000
0000
,
0010
0000
0100
0000
,
0010
0010
0010
0000
,
0100
0000
0000
0000
,
0000
0000
0000
0000
,
1001
0000
0000
0000
,
1000
0000
0000
0000
,
0010
0000
0000
0000
,
0100
0000
0000
0000
,
0001
0000
0001
0000
,
0001
0000
0000
0000
,
1000
0000
1000
0000
,
1000
0000
0000
0000
,
0001
0000
0100
0000
,
0001
0001
0001
0000
,
0100
0000
0000
0000
,
0010
0000
0000
0000
,
1000
0000
0100
0000
,
1000
1000
1000
0000
,
0100
0000
0000
0000
,
0010
0000
0000
0000
,
0100
0000
0000
0000
,
0100
0100
0100
0000
,
1000
0000
0000
0000
,
1000
1000
1000
0000
,
0001
0000
0000
0000
,
0001
0001
0001
0000
,
0100
0000
0000
0000
,
0010
0010
0010
0000
;

//---------------dance-single - Daff_4K----------------
#NOTEDATA:;
#CHARTNAME:Daff_4K;
#STEPSTYPE:dance-single;
#DESCRIPTION:Daff_4K;
#CHARTSTYLE:;
#DIFFICULTY:Easy;
#METER:4;
#RADARVALUES:0.212643,0.250304,0.125348,0.305535,0.000000,190.000000,174.000000,16.000000,39.000000,0.000000,0.000000,0.000000,0.000000,0.000000,0.212643,0.250304,0.125348,0.305535,0.000000,190.000000,174.000000,16.000000,39.000000,0.000000,0.000000,0.000000,0.000000,0.000000;
#CREDIT:Daff_4K;
#NOTES:
0000
0000
0000
0000
,
0000
0000
0000
0000
,
0000
0000
0000
0000
,
0000
0000
0000
0000
,
0000
0000
0000
0000
,
1000
0000
1000
0001
,
0010
0000
0010
0100
,
1000
0000
1000
0001
,
0100
0000
0010
1000
,
0001
0000
0001
1000
,
0010
0000
0010
0100
,
0001
0000
0001
1000
,
0100
0000
0010
0001
,
2000
0000
3010
0000
,
0100
0001
1000
0001
,
0020
0000
0130
0000
,
1000
0010
0100
0100
,
0002
0000
0013
0000
,
0100
1000
0001
1000
,
0020
0000
0130
0000
,
0001
0010
0100
0100
,
2000
0000
3001
0000
,
0010
0100
1000
0001
,
0200
0000
0310
0000
,
1000
0010
0010
0100
,
0002
0000
1003
0000
,
0010
0100
0001
1000
,
1001
0000
0000
0000
,
0001
1000
0010
0100
,
0001
0000
1000
0000
,
0001
0100
0010
0000
,
0220
0000
0330
0000
,
2002
0000
3003
0000
,
1000
0000
0001
0000
,
1000
0100
0010
0000
,
0220
0000
0330
0000
,
2002
0000
3003
0000
,
0010
1000
0001
0000
,
0010
0100
1000
0000
,
2002
0000
3003
0000
,
0220
0000
0330
0000
,
0010
0001
1000
0000
,
0010
0100
0001
0000
,
2002
0000
3003
0000
,
0220
0000
0330
0000
,
1000
0000
0100
0000
,
0001
0100
1000
0100
,
0010
0000
0001
0000
,
0100
1000
0100
0000
,
0001
0000
0100
0000
,
1000
0100
0001
0100
,
0010
0000
1000
0000
,
0100
0010
0100
0000
,
1000
0001
1000
1000
,
0010
0001
0010
1000
,
0001
0010
0001
0001
,
1000
0010
0200
0300
,
0001
1000
0001
0001
,
0010
1000
0010
0001
,
1000
0010
1000
1000
,
0001
0010
0200
0300
,
1000
0001
1000
0000
,
0220
0330
2002
3003
,
0010
0100
0010
0000
,
2002
3003
0220
0330
,
0001
1000
0001
0000
,
0220
0330
2002
3003
,
0010
0100
0010
0000
,
1000
0001
2002
0000
,
0000
0000
0000
0000
,
0000
0000
0000
0000
,
3003
0000
0000
0000
;

//---------------dance-single - Daff_4K----------------
#NOTEDATA:;
#CHARTNAME:Daff_4K;
#STEPSTYPE:dance-single;
#DESCRIPTION:Daff_4K;
#CHARTSTYLE:;
#DIFFICULTY:Medium;
#METER:8;
#RADARVALUES:0.373805,0.472796,0.266364,0.493556,0.003917,334.000000,300.000000,34.000000,63.000000,0.000000,0.000000,0.000000,0.000000,0.000000,0.373805,0.472796,0.266364,0.493556,0.003917,334.000000,300.000000,34.000000,63.000000,0.000000,0.000000,0.000000,0.000000,0.000000;
#CREDIT:Daff_4K;
#NOTES:
0000
0000
0000
0000
,
0000
0000
0000
0000
,
0000
0000
0000
0000
,
0000
0000
0000
0000
,
0000
0000
0000
0000
,
1000
0010
1000
0010
,
0001
0010
0001
0010
,
1000
0100
1000
0100
,
0001
0100
0001
0100
,
1000
0000
0010
0000
1000
0000
0010
0100
,
0001
0000
0010
0000
0001
0000
0010
0100
,
1000
0000
0001
0000
1000
0000
0001
0100
,
0010
0000
0100
0000
0010
1000
0001
1000
,
0002
0023
0230
2300
,
3001
0100
0010
1000
,
0200
0320
0032
2003
,
3010
0000
0100
0010
0100
0000
0001
0000
,
2000
3020
0230
0302
,
1003
0100
0010
0001
,
0200
0320
2030
3002
,
0013
0000
0100
0010
0100
0000
1000
0001
,
2000
3020
0032
0023
,
1030
0000
0100
0010
0100
0000
1000
0000
,
0002
0203
0320
2030
,
3001
0000
0010
0100
0010
0000
0100
1000
,
0002
0023
2030
3020
,
0031
0000
0100
0010
0100
0000
0001
0000
,
2002
0000
0000
3003
,
1000
0000
0000
0001
0000
0000
0010
0000
0200
0000
0000
0000
0310
0000
0000
0000
,
0002
0000
1003
0000
0010
0100
0001
0000
,
2000
0000
3001
0000
0010
0100
1000
0000
,
0001
0100
0001
0000
2020
0000
3030
0000
,
1000
0100
1000
0000
0022
0000
0033
0000
,
2000
0000
3001
0000
0010
0100
1000
0000
,
0002
0000
1003
0000
0010
0100
0001
0000
,
1000
0001
1000
0000
0220
0000
0330
0000
,
0001
1000
0001
0000
0100
0010
0100
0000
,
0001
1000
0100
0000
0010
0100
1000
0000
,
0001
1000
0010
0000
0100
0010
1000
0000
,
0001
1000
0001
0000
2200
0000
3300
0000
,
1000
0001
1000
0000
0202
0000
0303
0000
,
1000
0001
0100
0000
0010
0100
0001
0000
,
1000
0001
0010
0000
0100
0010
0001
0000
,
1000
0001
1000
0000
0220
0000
0330
0000
,
2200
3300
0202
0303
,
0002
1000
0010
1003
,
0001
0100
0001
0000
0020
0000
0130
0000
,
2000
0100
0001
3100
,
1000
0010
1000
0000
0001
0100
0001
0000
,
2000
0001
0010
3001
,
1000
0100
1000
0000
0020
0000
0130
0000
,
0002
0100
1000
0103
,
0001
0010
0001
0000
1000
0100
1000
0000
,
1010
0000
0101
0000
0010
1000
0010
0000
,
1000
0001
0010
0000
0200
0000
0310
0000
,
1001
0000
0110
0000
1000
0010
1000
0000
,
0001
0010
0100
1000
0002
0000
1003
0000
,
0011
0000
1100
0000
0010
0001
0010
0000
,
0001
1000
0010
0000
0200
0000
0310
0000
,
1001
0000
0110
0000
0001
0010
0001
0000
,
1000
0010
0100
0001
2000
0000
3001
0000
,
1010
0000
0101
0000
0001
1000
0100
0000
,
1100
0011
1100
0011
,
0001
0100
0010
0000
1000
0001
1000
0000
,
0110
1001
0110
1001
,
0011
0000
1100
0000
1000
0001
0100
0000
,
0101
1010
0101
1010
,
1000
0100
0010
0000
0001
0100
0010
0000
,
1000
0001
1000
0000
0220
0000
0000
0000
,
0000
0000
0000
0000
,
0000
0000
0000
0000
,
0330
0000
0000
0000
;

//---------------dance-single - Daff_4K----------------
#NOTEDATA:;
#CHARTNAME:Daff_4K;
#STEPSTYPE:dance-single;
#DESCRIPTION:Daff_4K;
#CHARTSTYLE:;
#DIFFICULTY:Hard;
#METER:11;
#RADARVALUES:0.477888,0.528419,0.297701,0.391711,0.246778,427.000000,389.000000,38.000000,50.000000,0.000000,0.000000,0.000000,0.000000,0.000000,0.477888,0.528419,0.297701,0.391711,0.246778,427.000000,389.000000,38.000000,50.000000,0.000000,0.000000,0.000000,0.000000,0.000000;
#CREDIT:Daff_4K;
#NOTES:
0000
0000
0000
0000
,
0000
0000
0000
0000
,
0000
0000
0000
0000
,
0000
0000
0000
0000
,
0000
0000
0000
0000
,
1000
0000
0000
0100
0000
0000
1000
0000
0001
0000
0000
0100
0000
0000
0001
0000
,
1000
0000
0000
0010
0000
0000
1000
0000
0001
0000
0000
0010
0000
0000
0001
0000
,
1000
0000
0000
0010
0000
0000
0100
0000
0001
0000
0000
0010
0000
0000
0100
0000
,
1000
0000
0000
0001
0000
0000
0100
0000
0010
0000
1000
0000
0100
0000
0010
0000
,
0001
0000
0000
0100
0000
0000
1000
0000
0100
0000
0000
0010
1000
0000
0001
0000
,
1000
0000
0000
0100
0000
0000
0001
0000
0100
0000
0000
0010
0001
0000
1000
0000
,
0010
0000
0000
0100
0000
0000
0010
0000
0001
0000
0000
0010
1000
0000
0001
0000
,
0010
0000
0000
0100
0000
0000
0010
0000
1000
0000
0010
0000
0001
0000
1000
0000
,
1002
0203
2300
3020
,
0031
0000
0000
0100
0000
0000
1000
0000
0100
0000
0010
0000
1000
0000
0000
0000
,
0002
0023
2030
3200
,
0301
0000
0000
0010
0000
0000
1000
0000
0010
0000
0100
0000
0010
0000
0001
0000
,
2000
3200
0302
0023
,
1030
0000
0000
0100
0000
0000
0001
0000
0100
0000
0010
0000
0001
0000
0000
0000
,
2000
3020
0032
0203
,
1300
0000
0000
0010
0000
0000
0001
0000
0010
0000
0100
0000
0010
0000
1000
0000
,
0001
0000
0100
0000
0000
0010
0000
0000
0100
0000
0000
1000
0000
0000
0100
0000
,
0001
0000
0010
0000
0000
1000
0000
0000
0010
0000
0100
0000
1000
0000
0001
0000
,
1000
0000
0100
0000
0000
0010
0000
0000
0100
0000
0000
0001
0000
0000
0100
0000
,
1000
0000
0010
0000
0000
0001
0000
0000
0010
0000
0100
0000
0001
0000
1000
0000
,
0100
0000
0001
0000
0000
1000
0000
0000
0010
0000
0000
0001
0000
0000
1000
0000
,
0001
0000
0100
0000
0000
1000
0000
0000
0001
0000
0010
0000
1000
0000
0001
0000
,
2001
3200
0320
0032
,
1003
0000
0000
0010
0000
0000
0100
0000
0001
0000
0010
0000
0100
0000
1000
0000
,
0001
0000
0100
0000
1000
0000
0000
0100
0000
0000
0001
0000
0010
0000
0100
0000
,
1000
0000
0010
0000
0001
0000
0000
0010
0000
0000
1000
0000
0100
0000
0010
0000
,
0001
0000
1000
0000
0010
0200
0000
0002
0000
0000
0000
0000
0303
0000
0000
0000
,
1000
0000
0001
0000
0010
0200
0000
2000
0000
0000
0000
0000
3300
0000
0000
0000
,
1000
0000
0100
0000
0001
0000
0000
0100
0000
0000
1000
0000
0010
0000
0100
0000
,
0001
0000
0010
0000
1000
0000
0000
0010
0000
0000
0001
0000
0100
0000
0010
0000
,
1000
0000
0001
0000
0010
0200
0000
0020
0000
0000
0000
0000
0330
0000
0000
0000
,
0001
0000
1000
0000
0010
0100
0000
0010
0000
0000
1000
0000
0100
0000
0010
0000
,
0001
0000
0100
0000
0010
0100
0000
1000
0000
0000
0100
0000
0001
0000
1000
0000
,
0001
0000
0010
0000
0100
0010
0000
1000
0000
0000
0010
0000
0001
0000
1000
0000
,
0010
0000
0100
0000
0001
2000
0000
0200
0000
0000
0000
0000
3300
0000
0000
0000
,
0010
0000
0100
0000
1000
0002
0000
0200
0000
0000
0000
0000
0303
0000
0000
0000
,
1000
0000
0100
0000
0010
0100
0000
0001
0000
0000
0100
0000
1000
0000
0001
0000
,
1000
0000
0010
0000
0100
0010
0000
0001
0000
0000
0010
0000
1000
0000
0001
0000
,
1000
0000
0010
0000
0100
0002
0000
2000
0000
0000
0000
0000
3003
0000
0000
0000
,
0220
0330
2002
3003
,
1020
0000
0230
0000
0301
1000
0001
0010
,
0000
0100
0010
1000
0000
0010
0100
1000
,
0002
0000
0203
0000
0310
1000
0100
0001
,
0000
0100
0010
0100
2000
0000
3001
0000
,
0021
0000
0230
0000
1300
0001
1000
0010
,
0000
0100
0010
0001
0000
0010
0100
0001
,
2000
0000
3200
0000
0310
0001
0100
1000
,
0200
0000
0000
0000
0010
0000
0000
0000
0310
0000
1000
0001
1000
0000
0001
0000
,
0011
0000
0000
0000
1100
0000
0000
1000
0001
0000
0100
0000
0010
0000
0010
0000
,
1000
0100
0001
0100
0010
0000
1001
0000
,
1010
0000
0000
0000
0101
0000
0000
0001
1000
0000
0100
0000
0010
0000
0010
0000
,
0001
0100
1000
0100
0010
0000
1001
0000
,
1100
0000
0000
0000
0011
0000
0000
0001
1000
0000
0010
0000
0100
0000
0001
0000
,
0010
0010
1000
0100
0100
0001
1000
0000
,
0101
0000
0000
0000
1010
0000
0000
1000
0001
0000
0010
0000
0100
0000
1000
0000
,
0010
0001
0100
1000
0001
0000
1001
0000
,
1010
0000
0000
0000
0101
0000
0000
0001
0010
0000
0100
0000
1000
0000
0000
0000
,
1100
1010
0101
0011
,
0110
0000
0000
0000
1001
0000
0000
1000
0010
0000
0100
0000
0001
0000
0000
0000
,
0101
1010
0110
1001
,
0011
0000
0000
0000
1100
0000
0000
1000
0010
0000
0100
0000
0001
0000
0000
0000
,
0101
0011
1100
1010
,
0110
0000
0000
0000
1001
0000
0000
0001
0010
0000
0100
0000
1000
0000
0010
0000
,
0100
0001
1000
0000
2002
0000
0000
0000
,
3003
0200
0020
0000
,
0000
0000
0000
0000
,
0330
0000
0000
0000
;

//---------------dance-single - Daff_4K----------------
#NOTEDATA:;
#CHARTNAME:Daff_4K;
#STEPSTYPE:dance-single;
#DESCRIPTION:Daff_4K;
#CHARTSTYLE:;
#DIFFICULTY:Challenge;
#METER:13;
#RADARVALUES:0.509225,0.611853,0.321203,0.227193,0.395629,455.000000,414.000000,41.000000,29.000000,232.000000,0.000000,0.000000,0.000000,0.000000,0.509225,0.611853,0.321203,0.227193,0.395629,455.000000,414.000000,41.000000,29.000000,232.000000,0.000000,0.000000,0.000000,0.000000;
#CREDIT:Daff_4K;
#NOTES:
// measure 0
0000
0000
0000
0000
,  // measure 1
0000
0000
0000
0000
,  // measure 2
0000
0000
0000
0000
,  // measure 3
0000
0000
0000
0000
,  // measure 4
0000
0000
0000
0000
,  // measure 5
MMMM
0000
0000
1000
0000
0000
0100
0000
MMMM
0000
0000
0000
0010
0000
0001
0000
,  // measure 6
MMMM
0000
0000
0001
0000
0000
0100
0000
MMMM
0000
0000
0000
0010
0000
1000
0000
,  // measure 7
MMMM
0000
0000
1000
0000
0000
0001
0000
MMMM
0000
0000
0000
0010
0000
0100
0000
,  // measure 8
MMMM
0000
0000
0001
0000
0000
1000
0000
MMMM
0000
0000
0000
0010
0000
0100
0000
,  // measure 9
MMMM
0000
0000
1000
0000
0000
0010
0000
MMMM
0000
0000
0100
0010
0000
0100
0000
,  // measure 10
MMMM
0000
0000
0001
0000
0000
0010
0000
MMMM
0000
0000
0100
0010
0000
0100
0000
,  // measure 11
MMMM
0000
0000
1000
0000
0000
0001
0000
MMMM
0000
0000
0100
0010
0000
0100
0000
,  // measure 12
MMMM
0000
0000
0001
0000
0000
1000
0000
MMMM
0000
0100
0010
0100
0000
0010
0000
,  // measure 13
MMMM
0000
0000
0000
1001
0000
0000
0001
0010
0000
0000
0010
0100
0000
0000
0100
,  // measure 14
1000
0000
0000
0010
0000
0000
0001
0000
0010
0000
1000
0000
0001
0000
0000
0000
,  // measure 15
MMMM
0000
0000
0000
0011
0000
0000
0010
1000
0000
0000
1000
0100
0000
0000
0100
,  // measure 16
0001
0000
0000
0010
0000
0000
1000
0000
0010
0000
0001
0000
0100
0000
0000
0000
,  // measure 17
MMMM
0000
0000
0000
1001
0000
0000
1000
0010
0000
0000
0010
0100
0000
0000
0100
,  // measure 18
0001
0000
0000
0010
0000
0000
1000
0000
0010
0000
0001
0000
1000
0000
0000
0000
,  // measure 19
MMMM
0000
0000
0000
1010
0000
0000
0010
0001
0000
0000
0001
0100
0000
0000
0100
,  // measure 20
1000
0000
0000
0010
0000
0000
0001
0000
0010
0000
1000
0000
0100
0010
0100
0010
,  // measure 21
0001
0000
0100
0000
1000
0100
0000
0000
0010
0000
1000
0001
0000
0000
1000
0000
,  // measure 22
0100
0000
0010
0100
0000
0010
0001
0000
0100
0000
MMMM
0000
0010
0000
MMMM
0000
,  // measure 23
1000
0000
0100
0000
0010
0001
0000
0000
0001
0000
0100
0010
0000
0000
1000
0000
,  // measure 24
0001
0000
0010
0100
0000
0010
0100
0000
1000
0000
MMMM
0000
0001
0000
MMMM
0000
,  // measure 25
1000
0000
0100
0000
0001
0100
0000
0000
0010
0000
0001
1000
0000
0000
0001
0000
,  // measure 26
0100
0000
0010
0100
0000
0010
1000
0000
0100
0000
MMMM
0000
0010
0000
MMMM
0000
,  // measure 27
1001
MMMM
MMMM
MMMM
,  // measure 28
1001
0000
0000
0110
0000
0000
1001
0000
0001
1000
0000
0100
0010
0100
0010
0001
,  // measure 29
1000
0000
0010
0000
0001
0010
0000
0200
0000
0000
0301
0000
0010
0000
1000
0000
,  // measure 30
0001
0000
0100
0000
1000
0100
0000
0020
0000
0000
0031
0000
0100
0000
1000
0000
,  // measure 31
0100
0000
0001
0000
1000
0100
0000
0022
0000
0000
0033
0000
MMMM
0000
0000
0000
,  // measure 32
0100
0000
1000
0000
0001
0100
0000
2020
0000
0000
3030
0000
MMMM
0000
0000
0000
,  // measure 33
0001
0000
0010
0000
1000
0010
0000
0200
0000
0000
1300
0000
0010
0000
0001
0000
,  // measure 34
1000
0000
0100
0000
0001
0100
0000
0020
0000
0000
1030
0000
0100
0000
0001
0000
,  // measure 35
0100
0000
0010
0000
0001
1000
0000
0220
0000
0000
0330
0000
MMMM
0000
0000
0000
,  // measure 36
0100
0000
0010
0000
1000
0001
0000
0020
0000
0000
0130
0000
1000
0000
0001
0000
,  // measure 37
1000
0000
0100
0000
0001
0100
0000
0020
0000
0000
0130
0000
1000
0000
0010
0000
,  // measure 38
0001
0000
1000
0000
0100
0001
0000
0020
0000
0000
1030
0000
0010
0000
0100
0000
,  // measure 39
1000
0000
0001
0000
0010
0001
0000
2200
0000
0000
3300
0000
MMMM
0000
0000
0000
,  // measure 40
0001
0000
1000
0000
0010
1000
0000
0202
0000
0000
0303
0000
MMMM
0000
0000
0000
,  // measure 41
0001
0000
0100
0000
1000
0100
0000
0020
0000
0000
0130
0000
0001
0000
0010
0000
,  // measure 42
1000
0000
0001
0000
0100
1000
0000
0020
0000
0000
0031
0000
0010
0000
0100
0000
,  // measure 43
0001
0000
1000
0000
0100
0010
0000
2002
0000
0000
3003
0000
MMMM
0000
0000
0000
,  // measure 44
0220
0330
2002
3003
,  // measure 45
1100
0000
0000
0000
MMMM
0000
0000
0000
0001
0100
0001
0000
0100
0000
1000
0000
,  // measure 46
0100
0010
1000
0001
0100
0000
MMMM
0000
,  // measure 47
1010
0000
0000
0000
MMMM
0000
0000
0000
0001
1000
0001
0000
1000
0000
0100
0000
,  // measure 48
0001
0100
0010
0001
1000
0000
MMMM
0000
,  // measure 49
0101
0000
0000
0000
MMMM
0000
0000
0000
1000
0100
1000
0000
0100
0000
0001
0000
,  // measure 50
0100
0010
0001
1000
0100
0000
MMMM
0000
,  // measure 51
0011
0000
0000
0000
MMMM
0000
0000
0000
1000
0001
1000
0000
0001
0000
0100
0000
,  // measure 52
1000
0000
0100
0000
0010
0000
1000
0000
0100
0010
0100
0010
0001
0000
1000
0000
,  // measure 53
1010
0000
0000
0000
MMMM
0000
0000
0000
0100
0001
0100
0001
1000
0000
0100
0000
,  // measure 54
0001
0100
0010
0001
1000
0010
0100
0001
,  // measure 55
0011
0000
0000
0000
MMMM
0000
0000
0000
0100
1000
0100
1000
0001
0000
0100
0000
,  // measure 56
1000
0100
0010
1000
0001
0010
0100
1000
,  // measure 57
1001
0000
0000
0000
MMMM
0000
0000
0000
0001
0010
0001
0010
0001
0000
0100
0000
,  // measure 58
0100
1000
0010
0010
0001
0100
0010
1000
,  // measure 59
1001
0000
0000
0000
MMMM
0000
0000
0000
1000
0010
1000
0010
1000
0000
0100
0000
,  // measure 60
0001
0000
0010
0000
1000
0000
0001
0000
0010
0000
0100
0010
0100
0010
0100
0000
,  // measure 61
1000
0000
0001
0000
0101
0000
0000
0000
0010
1000
0010
1000
0001
0000
0010
0000
,  // measure 62
0011
MMMM
1100
MMMM
1010
MMMM
0101
MMMM
,  // measure 63
0001
0000
1000
0000
1100
0000
0000
0000
0010
0001
0010
0001
1000
0000
0010
0000
,  // measure 64
1010
MMMM
0101
MMMM
0011
MMMM
1100
MMMM
,  // measure 65
0010
0000
0100
0000
1001
0000
0000
0000
1000
0010
1000
0010
0100
0000
0001
0000
,  // measure 66
0011
MMMM
1010
MMMM
1100
MMMM
0101
MMMM
,  // measure 67
0010
0000
0100
0000
1001
0000
0000
0000
0001
0010
0001
0010
0100
0000
1000
0000
,  // measure 68
0010
0001
0100
1000
2002
0000
0000
0000
,  // measure 69
3003
0200
0020
0000
,  // measure 70
0000
0000
0000
0000
,  // measure 71
0330
0000
0000
0000
;
