#VERSION:0.83;
#TITLE:Luminize;
#SUBTITLE:;
#ARTIST:fripSide;
#TITLETRANSLIT:;
#SUBTITLETRANSLIT:;
#ARTISTTRANSLIT:;
#GENRE:J-TRANCE;
#ORIGIN:;
#CREDIT:;
#BANNER:Luminize.png;
#BACKGROUND:Luminize-bg.png;
#PREVIEWVID:;
#JACKET:Luminize-jacket.png;
#CDIMAGE:;
#DISCIMAGE:;
#LYRICSPATH:;
#CDTITLE:cdtitle.png;
#MUSIC:Luminize.ogg;
#OFFSET:-0.880000;
#SAMPLESTART:64.059998;
#SAMPLELENGTH:15.000000;
#SELECTABLE:YES;
#BPMS:0.000=140.000;
#STOPS:;
#DELAYS:;
#WARPS:;
#TIMESIGNATURES:0.000=4=4;
#TICKCOUNTS:0.000=4;
#COMBOS:0.000=1;
#SPEEDS:0.000=1.000=0.000=0;
#SCROLLS:0.000=1.000;
#FAKES:;
#LABELS:0.000=Song Start;
#BGCHANGES:-2.000=Luminize.avi=1.000=0=0=0=StretchNoLoop==CrossFade_Fastest==,
99999=-nosongbg-=1.000=0=0=0 // don't automatically add -songbackground-
;
#KEYSOUNDS:;
#ATTACKS:
;

//---------------dance-single - Daff_4K----------------
#NOTEDATA:;
#CHARTNAME:Daff_4K;
#STEPSTYPE:dance-single;
#DESCRIPTION:Daff_4K;
#CHARTSTYLE:;
#DIFFICULTY:Beginner;
#METER:2;
#RADARVALUES:0.108540,0.191620,0.022346,0.000000,0.000000,68.000000,66.000000,2.000000,0.000000,0.000000,0.000000,0.000000,0.000000,0.000000,0.108540,0.191620,0.022346,0.000000,0.000000,68.000000,66.000000,2.000000,0.000000,0.000000,0.000000,0.000000,0.000000,0.000000;
#CREDIT:Daff_4K;
#NOTES:
0000
0000
0000
0000
,
0000
0000
0000
0000
,
0000
0000
0000
0000
,
0000
0000
0000
0000
,
1000
0000
0000
0000
,
0001
0000
0000
0000
,
1000
0000
1000
0000
,
0001
0000
0001
0000
,
0000
0000
0000
0000
,
1000
0000
0000
0000
,
0010
0000
0000
0000
,
0001
0001
0001
0000
,
1000
1000
1000
0000
,
0001
0000
0000
0000
,
0010
0000
0000
0000
,
1000
0000
1000
0000
,
0001
0000
0001
0000
,
1001
0000
0000
0000
,
0000
0000
0000
0000
,
1000
0000
0000
0000
,
0100
0000
0000
0000
,
0001
0000
0000
0000
,
0010
0000
0000
0000
,
1000
0000
0000
0000
,
0001
0000
0000
0000
,
0010
0000
0000
0000
,
0100
0000
0000
0000
,
1000
0000
1000
0000
,
0001
0000
0000
0000
,
0010
0000
0010
0000
,
0100
0000
0000
0000
,
0100
0000
0100
0000
,
0010
0000
0000
0000
,
0001
0000
0001
0000
,
1000
0000
0000
0000
,
1000
0000
0000
0000
,
0001
0000
0000
0000
,
1000
0000
0000
0000
,
0010
0000
0000
0000
,
1000
1000
1000
0000
,
0010
0010
0010
0000
,
0001
0000
0000
0000
,
0100
0000
0000
0000
,
0001
0001
0001
0000
,
0100
0100
0100
0000
,
1000
0000
0000
0000
,
0001
0000
0000
0000
,
1000
0000
1000
0000
,
0001
0000
0001
0000
,
1001
0000
0000
0000
;

//---------------dance-single - Daff_4K----------------
#NOTEDATA:;
#CHARTNAME:Daff_4K;
#STEPSTYPE:dance-single;
#DESCRIPTION:Daff_4K;
#CHARTSTYLE:;
#DIFFICULTY:Easy;
#METER:4;
#RADARVALUES:0.197925,0.279330,0.022346,0.145251,0.000000,124.000000,122.000000,2.000000,13.000000,0.000000,0.000000,0.000000,0.000000,0.000000,0.197925,0.279330,0.022346,0.145251,0.000000,124.000000,122.000000,2.000000,13.000000,0.000000,0.000000,0.000000,0.000000,0.000000;
#CREDIT:Daff_4K;
#NOTES:
0000
0000
0000
0000
,
0000
0000
0000
0000
,
0000
0000
0000
0000
,
0000
0000
0000
0000
,
1000
0100
1000
0000
,
0001
0010
0001
0000
,
1000
1000
0001
0001
,
0010
0100
0010
0000
,
0001
0000
1000
0000
,
0001
0100
0001
0000
,
1000
0100
1000
0000
,
0001
0001
1000
1000
,
0010
0100
0002
0003
,
1000
0010
1000
0000
,
0001
0010
0001
0000
,
1000
1000
0001
0001
,
0100
0100
0010
0010
,
2002
0000
0000
3003
,
0000
0000
0000
0000
,
2000
0000
3000
0000
,
0020
0000
0030
0000
,
0002
0000
0003
0000
,
0100
0000
0100
0100
,
1000
0000
0010
0000
,
0001
0000
0100
0000
,
1000
0000
0010
0000
,
0100
0000
0001
0000
,
2000
0000
3000
0000
,
0100
0100
0010
0000
,
0002
0000
0003
0000
,
0100
0100
0010
0000
,
2000
0000
3000
0000
,
0010
0010
0100
0000
,
0001
0010
0100
0000
,
1000
0010
0100
0000
,
0001
1000
0100
0000
,
0010
0001
1000
0000
,
0001
0100
0001
0000
,
1000
0010
1000
0000
,
0001
0001
1000
1000
,
0001
1000
0001
0000
,
1000
0100
1000
0000
,
0001
0010
0001
0000
,
1000
1000
0001
0001
,
1000
0001
1000
0000
,
0001
1000
0020
0030
,
1000
0001
0020
0030
,
0001
0001
1000
1000
,
0010
0010
0100
0100
,
2002
0000
0000
0000
,
3003
0000
0000
0000
;

//---------------dance-single - Daff_4K----------------
#NOTEDATA:;
#CHARTNAME:Daff_4K;
#STEPSTYPE:dance-single;
#DESCRIPTION:Daff_4K;
#CHARTSTYLE:;
#DIFFICULTY:Medium;
#METER:7;
#RADARVALUES:0.301676,0.336872,0.167598,0.268156,0.000000,189.000000,174.000000,15.000000,24.000000,0.000000,0.000000,0.000000,0.000000,0.000000,0.301676,0.336872,0.167598,0.268156,0.000000,189.000000,174.000000,15.000000,24.000000,0.000000,0.000000,0.000000,0.000000,0.000000;
#CREDIT:Daff_4K;
#NOTES:
0000
0000
0000
0000
,
0000
0000
0000
0000
,
0000
0000
0000
0000
,
0000
0000
0000
0000
,
2000
0100
3002
0100
,
2003
0010
3002
0013
,
0001
0101
1000
1100
,
0001
1000
1001
0000
,
0001
0100
0010
1000
,
0001
0100
0001
0000
0010
0000
0010
0000
,
0100
1000
0100
0000
0010
0000
0010
0000
,
0001
0100
1000
0100
,
0001
1000
1001
0000
,
1000
0100
1000
0000
0010
0000
0010
0000
,
0100
0001
0100
0000
0010
0000
0010
0000
,
1000
0100
0001
0100
,
1000
0010
0100
0001
,
2002
0000
0000
3003
,
1000
0001
1000
0000
,
2000
0000
0000
3000
,
0020
0000
0000
0030
,
0002
0000
0000
0003
,
0200
0000
1000
1300
,
0001
0100
0001
0010
,
1000
0100
1000
0010
,
0001
0100
0010
0100
,
1000
0100
0110
0000
,
1000
0000
1000
0000
0001
0100
0001
0000
,
0010
0100
2000
3001
,
0100
0000
0100
0000
0010
1000
0010
0000
,
1000
0100
0010
1001
,
0001
0000
0001
0000
1000
0100
1000
0000
,
0010
0100
0002
1003
,
0100
0000
0010
0000
0001
0010
0001
0000
,
0100
0000
0010
0000
1000
0010
1000
0000
,
0100
0100
0010
0010
,
0001
1000
1001
0000
,
0002
0010
2003
0010
,
3002
0100
2003
3100
,
0010
0101
0010
1100
,
0001
1000
1001
0000
,
2000
0010
3002
0010
,
2003
0100
3002
0103
,
0010
1100
0010
0101
,
1000
0001
2002
3003
,
1000
0010
1000
0000
0001
0000
1000
0000
,
0001
0010
0001
0000
1000
0000
0001
0000
,
1000
0100
0001
0100
,
1000
0010
0100
0001
,
2002
0000
0000
3003
,
1000
0001
0000
0000
;

//---------------dance-single - Daff respect for 電磁砲----------------
#NOTEDATA:;
#CHARTNAME:Daff respect for 電磁砲;
#STEPSTYPE:dance-single;
#DESCRIPTION:Daff respect for 電磁砲;
#CHARTSTYLE:;
#DIFFICULTY:Hard;
#METER:10;
#RADARVALUES:0.379888,0.450279,0.234637,0.368715,0.027933,238.000000,217.000000,21.000000,33.000000,0.000000,0.000000,0.000000,0.000000,0.000000,0.379888,0.450279,0.234637,0.368715,0.027933,238.000000,217.000000,21.000000,33.000000,0.000000,0.000000,0.000000,0.000000,0.000000;
#CREDIT:Daff respect for 電磁砲;
#NOTES:
0000
0000
0000
0000
,
0000
0000
0000
0000
,
0000
0000
0000
0000
,
0000
0000
0000
0000
,
0001
0010
0100
0000
1000
0010
0100
0000
,
0001
1000
0100
0000
1000
0001
0100
0000
,
0102
0013
2100
3010
,
1000
0000
0000
0001
0000
0000
0010
0000
0000
0100
0000
0000
1000
0000
0001
0000
,
0200
0320
2030
3002
,
1003
0100
1000
0000
0020
0000
0130
0000
,
0001
0010
0001
0000
0200
0000
0310
0000
,
1000
0100
1000
0000
0001
0100
0001
0000
,
1000
0001
0010
0000
0110
0000
1001
0000
,
0001
0100
0001
0000
0020
0000
0130
0000
,
1000
0010
1000
0000
0200
0000
0310
0000
,
0001
0100
0001
0000
1000
0100
1000
0000
,
0001
1000
0010
0000
0200
0000
0301
0000
,
2002
0000
0000
3003
,
1000
0000
0000
0001
0000
0000
1001
0000
0000
0000
0000
0000
0000
0000
0000
0000
,
2000
0000
0000
3000
,
0020
0000
0000
0030
,
0002
0000
0000
0003
,
0200
0000
0010
0310
,
0001
0000
0010
0000
0001
1000
0010
0000
,
1000
0000
0010
0000
1000
0001
0010
0000
,
0001
0100
0010
0000
1000
0100
0010
0000
,
0010
0001
1000
0001
0200
0000
0310
0000
,
1000
0000
2000
0000
3001
1000
0100
0000
,
0010
0001
1000
0000
0020
0000
0130
0000
,
0001
0000
0002
0000
1003
0100
0010
0000
,
0001
0100
0010
0000
1000
0000
1001
0000
,
0001
0000
0002
0000
1003
0001
0100
0000
,
0010
1000
0001
0000
0020
0000
0130
0000
,
1000
0000
1010
0000
0100
0001
1000
0000
,
0001
0000
0011
0000
0100
1000
0001
0000
,
0100
0010
1000
0000
0100
0010
0001
0000
,
0100
0000
0000
0010
0000
0000
0220
0000
0000
0000
0000
0000
0330
0000
0000
0000
,
1000
0100
1000
0000
0001
0100
0001
0000
,
0010
0100
1000
0000
0010
0100
0001
0000
,
2001
3100
0012
1003
,
1000
0010
0100
0010
1000
0000
1001
0000
,
0001
0100
0001
0000
1000
0100
1000
0000
,
0010
0100
0001
0000
0010
0100
1000
0000
,
1002
0103
2010
3001
,
0110
1001
0110
1001
,
0001
0100
0010
0100
0001
1000
0001
0000
,
1000
0100
0010
0100
1000
0001
1000
0000
,
0002
0100
0010
1003
,
2000
0100
0010
3001
,
2002
0000
0000
3003
,
0001
0000
0000
1000
0000
0000
1001
0000
0000
0000
0000
0000
0000
0000
0000
0000
;

//---------------dance-single - Daff_100K----------------
#NOTEDATA:;
#CHARTNAME:Daff_100K;
#STEPSTYPE:dance-single;
#DESCRIPTION:Daff_100K;
#CHARTSTYLE:;
#DIFFICULTY:Challenge;
#METER:14;
#RADARVALUES:0.630487,0.647277,0.324022,0.402235,0.474860,395.000000,366.000000,29.000000,36.000000,28.000000,0.000000,0.000000,0.000000,0.000000,0.630487,0.647277,0.324022,0.402235,0.474860,395.000000,366.000000,29.000000,36.000000,28.000000,0.000000,0.000000,0.000000,0.000000;
#CREDIT:Daff_100K;
#NOTES:
// measure 0
0000
0000
0000
0000
,  // measure 1
0000
0000
0000
0000
,  // measure 2
0000
0000
0000
0000
,  // measure 3
0000
0000
0000
0000
,  // measure 4
1000
0000
0001
0000
0100
0000
0010
2000
0000
0000
0100
0000
3100
0000
1000
0000
,  // measure 5
0001
0000
1000
0000
0100
0000
0010
0002
0000
0000
0100
0000
0103
0000
0001
0000
,  // measure 6
2001
0000
0000
0000
3010
0000
0100
0000
0102
0000
0000
0100
0000
0000
1003
0000
,  // measure 7
1001
0000
0000
0011
0000
0000
1100
0000
0000
1001
0000
0000
0001
0000
1000
0000
,  // measure 8
0010
0100
0000
0010
0100
0000
0001
1000
0000
0001
1000
0000
0100
0000
0010
0000
,  // measure 9
0001
0000
0100
0000
1000
0000
0100
0020
0000
0000
1000
0000
1030
0000
0001
0000
,  // measure 10
1000
0000
0010
0000
0001
0000
0010
0200
0000
0000
0001
0000
0301
0000
1000
0000
,  // measure 11
0001
0000
0010
0000
0100
0000
1000
0200
0000
0000
0010
0000
0310
0000
0001
0000
,  // measure 12
1000
0001
0100
0010
0110
MMMM
1001
MMMM
,  // measure 13
1000
0000
0100
0000
0001
0000
0100
0020
0000
0000
0001
0000
0031
0000
1000
0000
,  // measure 14
0001
0000
0010
0000
1000
0000
0010
0200
0000
0000
1000
0000
1300
0000
0001
0000
,  // measure 15
1000
0000
0010
0100
0000
0010
1000
0000
0200
0000
0000
0000
0010
0000
0310
0000
,  // measure 16
0001
0000
0010
0100
0000
0010
0001
0000
1000
0001
1000
0000
0010
0000
0100
0000
,  // measure 17
0001
1000
0000
1000
0100
0000
0010
0001
0000
0001
0100
0000
0010
0000
1000
0000
,  // measure 18
1100
0000
0000
0011
0000
0000
1001
0000
0000
0000
1000
0000
0001
0000
0100
0000
,  // measure 19
0020
0000
0000
0100
0000
0000
1030
0000
0000
0000
1000
0000
0001
0000
0100
0000
,  // measure 20
0002
0000
0000
1000
0000
0000
0013
0000
0000
0000
0001
0000
1000
0000
0100
0000
,  // measure 21
0020
0000
0000
0100
0000
0000
0031
0000
0000
0000
0001
0000
1000
0000
0100
0000
,  // measure 22
2000
0000
0000
0001
0000
0000
3010
0000
0100
0000
0010
0000
1000
0000
0001
0000
,  // measure 23
1000
0000
0100
0010
0000
0100
2000
0000
0000
0000
0010
0000
3010
0000
1000
0000
,  // measure 24
0001
0000
0100
0010
0000
0100
0002
0000
0000
0000
0010
0000
0013
0000
0100
0000
,  // measure 25
2100
0000
0000
0000
3010
0000
0100
0000
0102
0000
0000
1000
0000
0000
0013
0000
,  // measure 26
0011
0000
0000
1100
0000
0000
1001
0000
0001
0000
0100
0010
0100
0000
0001
0000
,  // measure 27
1000
0000
0100
0010
0000
0100
0001
0000
1000
0000
0010
0000
0001
0000
0100
0000
,  // measure 28
2000
0000
0000
3002
0000
0000
0013
0000
2000
0000
0000
0000
3001
0000
MMMM
0000
,  // measure 29
0001
0010
0000
0100
0010
0000
0001
0000
1000
0010
0000
0100
0010
0000
1000
0000
,  // measure 30
0002
0000
0000
2003
0000
0000
3100
0000
0010
0000
0000
0000
1001
0000
MMMM
0000
,  // measure 31
0001
0000
0100
0010
0000
0100
1000
0000
0001
0000
0010
0000
1000
0000
0100
0000
,  // measure 32
0002
0000
0000
2003
0000
0000
3010
0000
0002
0000
0000
0000
1003
0000
MMMM
0000
,  // measure 33
1000
0000
0001
0010
0000
0010
0100
0000
1000
0000
0010
0000
0010
0000
0100
0000
,  // measure 34
0001
0000
1000
0010
0000
0010
0100
0000
0001
0000
0010
0000
0010
0000
0100
0000
,  // measure 35
1000
0000
1000
0000
0001
0000
0001
0000
0100
0000
0010
0100
0000
0010
1000
0000
,  // measure 36
1100
0000
0000
0011
0000
0000
1001
0000
1000
0001
1000
0001
1000
0001
1000
0000
,  // measure 37
0001
0000
0100
0000
1000
0000
0100
0020
0000
0000
1000
0000
1030
0000
0001
0000
,  // measure 38
1000
0000
0010
0000
0001
0000
0010
0200
0000
0000
0001
0000
0301
0000
1000
0000
,  // measure 39
1200
0000
0000
0000
0310
0000
0001
0000
0201
0000
0000
0010
0000
0000
1300
0000
,  // measure 40
0100
0001
0000
0001
1000
0000
0100
0000
0110
0000
MMMM
0000
1001
0000
MMMM
0000
,  // measure 41
1000
0000
0100
0000
0001
0000
0100
0020
0000
0000
0001
0000
0031
0000
1000
0000
,  // measure 42
0001
0000
0010
0000
1000
0000
0010
0200
0000
0000
1000
0000
1300
0000
0001
0000
,  // measure 43
0201
0000
0000
0000
0310
0000
1000
0000
1200
0000
0000
0010
0000
0000
0301
0000
,  // measure 44
0100
0010
0000
0100
0010
0000
0001
1000
0000
0001
1000
0000
0010
0100
0010
0100
,  // measure 45
0001
0000
1000
0000
0010
0000
0001
0020
0000
0000
0100
0000
0130
0000
0001
0000
,  // measure 46
1000
0000
0001
0000
0010
0000
1000
0020
0000
0000
0100
0000
0130
0000
1000
0000
,  // measure 47
0001
0000
0100
0010
0000
0100
0001
0000
1000
0100
0000
0010
0100
0000
1000
0000
,  // measure 48
0010
0000
0100
0001
0000
1000
0001
0000
0010
0100
0010
0000
0100
1000
0001
0000
,  // measure 49
1000
0010
0000
0010
0100
0000
0001
0010
0000
0010
0100
0000
1000
0000
0001
0000
,  // measure 50
1001
0000
0000
0110
0000
0000
1001
0000
0000
0000
0000
0000
0000
0000
0000
0000
;
