#TITLE:Ljubav je svuda;
#SUBTITLE:;
#ARTIST:Moje 3;
#TITLETRANSLIT:;
#SUBTITLETRANSLIT:;
#ARTISTTRANSLIT:;
#GENRE:POP;
#CREDIT:;
#BANNER:Ljubav je svuda.png;
#BACKGROUND:Ljubav je svuda-bg.png;
#LYRICSPATH:;
#CDTITLE:cdtitle.png;
#MUSIC:Ljubav je svuda.ogg;
#OFFSET:-0.010000;
#SAMPLESTART:50.137001;
#SAMPLELENGTH:15.000000;
#SELECTABLE:YES;
#BPMS:0.000000=134.000000
,206.000000=67.000000
,222.000000=134.000000
;
#STOPS:204.500000=0.896000
;
#BGCHANGES:0.000=Ljubav je svuda.avi=1.000=0=0=0=StretchNoLoop==CrossFade_Fastest==,
99999=-nosongbg-=1.000=0=0=0 // don't automatically add -songbackground-
;
#KEYSOUNDS:;
#ATTACKS:;

//---------------dance-single - Daff_4K----------------
#NOTES:
     dance-single:
     Daff_4K:
     Beginner:
     1:
     0.059790,0.101413,0.032194,0.000000,0.000000,52.000000,48.000000,4.000000,0.000000,0.000000,0.000000,0.059790,0.101413,0.032194,0.000000,0.000000,52.000000,48.000000,4.000000,0.000000,0.000000,0.000000:
0000
0000
0000
0000
,
0000
0000
0000
0000
,
0000
0000
0000
0000
,
0000
0000
0000
0000
,
1000
0000
0000
0000
,
0000
0000
0000
0000
,
1000
0000
0000
0000
,
0000
0000
0000
0000
,
0001
0000
0000
0000
,
0000
0000
0000
0000
,
0001
0000
0000
0000
,
0000
0000
0000
0000
,
0010
0000
0000
0000
,
0000
0000
0000
0000
,
0100
0000
0000
0000
,
0000
0000
0000
0000
,
1000
0000
0000
0000
,
0000
0000
0000
0000
,
0001
0000
0000
0000
,
0000
0000
0000
0000
,
0100
0000
0100
0000
,
0000
0000
0000
0000
,
0010
0000
0010
0000
,
0000
0000
0000
0000
,
1000
0000
1000
0000
,
0000
0000
0000
0000
,
0001
0000
0001
0000
,
0000
0000
0000
0000
,
1001
0000
0000
0000
,
0000
0000
0000
0000
,
1000
0000
0000
0000
,
0010
0000
0010
0000
,
0010
0000
0000
0000
,
0000
0000
0000
0000
,
0100
0000
0000
0000
,
0001
0000
0000
0000
,
1001
0000
0000
0000
,
0000
0000
0000
0000
,
0001
0000
0000
0000
,
0010
0000
0010
0000
,
0010
0000
0000
0000
,
0000
0000
0000
0000
,
0100
0000
0000
0000
,
1000
0000
0000
0000
,
0001
0000
0000
0000
,
0000
0000
0100
0000
,
0100
0000
0000
0000
,
0000
0000
0010
0000
,
0010
0000
0000
0000
,
0000
0000
1000
0000
,
1000
0000
0000
0000
,
1001
0000
0000
0000
,
0000
0000
0000
0000
,
0000
0000
0001
0000
,
0000
0000
1000
0000
,
0000
0000
1001
0000
,
0000
0000
0000
0000
,
0000
0000
0001
0000
,
0000
0000
1000
0000
,
1000
0000
1000
0000
,
0000
0000
0000
0000
,
0000
0000
0100
0000
,
0000
0000
0100
0000
,
0100
0000
0000
0000
;

//---------------dance-single - Daff_4K----------------
#NOTES:
     dance-single:
     Daff_4K:
     Easy:
     4:
     0.156373,0.228178,0.032194,0.177070,0.000000,136.000000,132.000000,4.000000,22.000000,0.000000,0.000000,0.156373,0.228178,0.032194,0.177070,0.000000,136.000000,132.000000,4.000000,22.000000,0.000000,0.000000:
0000
0000
0000
0000
,
0000
0000
0000
0000
,
0000
0000
0000
0000
,
0000
0000
0000
0000
,
2000
0000
0000
0000
,
3000
0000
0000
0000
,
0002
0000
0000
0000
,
0003
0000
0000
0000
,
0020
0000
0000
0000
,
0030
0000
0000
0000
,
0200
0000
0000
0000
,
0300
0000
0000
0000
,
2000
0000
3000
0000
,
0010
0000
1000
0000
,
0002
0000
0003
0000
,
1000
0000
0000
0000
,
0002
0000
0003
0000
,
0010
0000
0001
0000
,
2000
0000
3000
0000
,
0001
0000
1000
0000
,
0010
0010
0010
0000
,
0100
0001
0010
0000
,
0010
0010
0010
0000
,
0100
1000
0001
0000
,
0100
0100
0100
0000
,
0010
1000
0001
0000
,
0010
0000
0100
0000
,
1001
0000
0000
0000
,
2000
0000
0010
0000
,
0001
0000
3100
0000
,
0200
0000
0310
0000
,
0001
0100
1000
0100
,
0001
0000
0010
0100
,
1000
0000
0010
0100
,
0002
0000
1003
0000
,
0001
0010
0100
1000
,
0002
0000
0010
0000
,
1000
0000
0103
0000
,
0200
0000
0310
0000
,
1000
0100
0001
0100
,
1000
0000
0010
0100
,
0001
0000
0010
0100
,
2000
0000
0001
0000
,
0001
0000
3001
0000
,
1000
0010
0100
0010
,
1000
0100
0020
0030
,
0001
0010
0100
0010
,
0001
0100
0020
0030
,
1000
0001
0010
0001
,
1000
0010
0200
0300
,
0001
0001
1000
1000
,
1001
0000
0002
0000
,
0010
0000
1000
0000
,
1003
0000
2000
0000
,
0010
0000
0001
0000
,
3001
0000
0002
0000
,
0100
0000
1000
0000
,
0013
0000
0020
0000
,
0130
0000
1000
0010
,
0001
0010
1000
0000
,
0100
0010
0001
0000
,
0100
0010
2000
0000
,
3001
0000
1001
0000
,
1001
0000
0000
0000
;

//---------------dance-single - Daff_4K----------------
#NOTES:
     dance-single:
     Daff_4K:
     Medium:
     6:
     0.220762,0.279438,0.104632,0.313896,0.000000,192.000000,179.000000,13.000000,39.000000,0.000000,0.000000,0.220762,0.279438,0.104632,0.313896,0.000000,192.000000,179.000000,13.000000,39.000000,0.000000,0.000000:
0000
0000
0000
0000
,
0000
0000
0000
0000
,
0000
0000
0000
0000
,
0000
0000
0000
0000
,
2000
0000
3000
0000
,
0002
0000
0003
0000
,
0200
0000
0300
0000
,
0020
0000
0030
0000
,
2000
0000
3000
0000
,
0002
0000
0003
0000
,
0020
0000
0030
0000
,
0200
0000
0300
0000
,
2000
0000
3010
0000
,
1000
0100
0010
0001
,
2000
0000
3010
0000
,
1000
0100
0010
0000
,
0002
0000
0013
0000
,
0001
0100
0010
1000
,
0002
0000
0013
0000
,
0001
0100
0010
1000
,
1100
1100
1100
0000
,
1000
0001
1000
0000
,
0101
0101
0101
0000
,
0001
1000
0001
0000
,
0110
0110
0110
0000
,
0010
0100
0010
0000
,
0110
0000
0000
0110
0000
0000
2002
0000
,
0000
0000
0000
3003
,
2000
0000
0010
0000
,
0001
0100
3100
0010
,
0002
0000
2000
3003
,
0001
0100
1000
0100
,
0002
0000
0000
0000
0013
0100
0010
0000
,
0200
0000
0000
0000
1300
0001
1000
0000
,
0002
0000
1000
0000
,
0013
0000
0100
0000
1000
0001
1000
0000
,
0002
0000
0010
0000
,
1000
0100
0103
0010
,
2000
0000
0002
3003
,
1000
0100
0001
0100
,
2000
0000
0000
0000
3010
0100
0010
0000
,
0200
0000
0000
0000
0301
1000
0001
0000
,
0020
0000
0100
0000
,
0130
0000
1000
0000
0001
1000
0001
0000
,
1000
0000
0100
0010
0100
0000
1000
0000
,
0001
1000
0020
0130
,
0001
0000
0100
0010
0100
0000
0001
0000
,
1000
0001
0020
0130
,
1000
0000
0001
1000
0001
0000
0010
0000
,
0100
1000
0020
0130
,
0001
1000
0001
1000
,
1001
0000
0002
0100
,
0100
1003
2000
0100
,
0100
0000
3001
0000
0001
0100
0001
0000
,
1000
0100
1000
0000
0020
0000
0000
0000
,
0200
0330
0002
0000
,
0100
0000
1000
0010
,
0013
0100
2000
0000
,
0002
3003
1000
0010
,
0001
0010
2000
0000
,
3100
0010
0002
0000
,
0103
0010
2000
0000
,
3001
0000
1000
0000
0100
0100
0000
0000
,
0010
0010
0000
0000
0000
0000
0000
0000
;

//---------------dance-single - Daff_4K----------------
#NOTES:
     dance-single:
     Daff_4K:
     Hard:
     11:
     0.354139,0.457262,0.177070,0.442674,0.036219,308.000000,286.000000,22.000000,55.000000,0.000000,0.000000,0.354139,0.457262,0.177070,0.442674,0.036219,308.000000,286.000000,22.000000,55.000000,0.000000,0.000000:
// measure 0
0000
0000
0000
0000
,  // measure 1
0000
0000
0000
0000
,  // measure 2
0000
0000
0000
0000
,  // measure 3
0000
0000
0000
0000
,  // measure 4
2000
0000
0000
3010
0000
0000
0000
0000
,  // measure 5
0002
0000
0000
0013
0000
0000
0000
0000
,  // measure 6
2000
0000
0000
3100
0000
0000
0000
0000
,  // measure 7
0002
0000
0000
0103
0000
0000
0000
0000
,  // measure 8
2000
0000
0000
3010
0000
0000
0000
0000
,  // measure 9
0200
0000
0000
0301
0000
0000
0000
0000
,  // measure 10
0002
0000
0000
0013
0000
0000
0000
0000
,  // measure 11
0200
0000
0000
1300
0000
0000
0000
0000
,  // measure 12
1000
0000
0010
0100
0000
0010
1000
0000
,  // measure 13
0200
0000
0000
0010
0000
0000
1300
0000
,  // measure 14
0001
0000
1000
0010
0000
1000
0100
0000
,  // measure 15
0020
0000
0000
0100
0000
0000
0031
0000
,  // measure 16
0001
0000
0010
0100
0000
0010
0001
0000
,  // measure 17
0200
0000
0000
0010
0000
0000
0301
0000
,  // measure 18
1000
0000
0001
0010
0000
0001
0100
0000
,  // measure 19
1000
0100
0001
0010
,  // measure 20
0011
1100
2002
3003
,  // measure 21
0001
0100
0001
0000
1000
0010
1000
0000
,  // measure 22
1001
0110
2002
3003
,  // measure 23
1000
0100
0010
0000
0001
0100
0010
0000
,  // measure 24
1010
0101
2002
3003
,  // measure 25
1000
0100
1000
0000
0001
0010
0001
0000
,  // measure 26
1001
0000
0000
0110
0000
0000
2002
0000
,  // measure 27
0000
0000
0000
3003
,  // measure 28
2010
0001
0100
0001
,  // measure 29
0010
0000
0000
0000
0001
0000
0000
0000
0100
0000
0000
0100
0000
0000
0100
0000
,  // measure 30
3200
0000
0310
0001
0200
0000
0310
0000
,  // measure 31
1000
0100
0001
0100
1000
0010
0001
0010
,  // measure 32
2000
0000
3100
0010
0100
0010
0002
0000
,  // measure 33
0203
0000
0000
0000
0310
0000
1000
0000
0200
0000
0000
0010
0000
0000
0310
0000
,  // measure 34
0002
0000
0103
0010
2000
0000
3001
0000
,  // measure 35
1000
0100
1000
0100
0010
0001
1000
0000
,  // measure 36
0012
1000
0100
1000
,  // measure 37
0010
0000
0000
0000
1000
0000
0000
0000
0100
0000
0000
0100
0000
0000
0100
0000
,  // measure 38
0203
0000
0310
1000
0200
0000
0310
0000
,  // measure 39
0001
0100
1000
0100
0001
0010
1000
0010
,  // measure 40
0002
0000
0103
0010
0100
0010
2000
0000
,  // measure 41
3200
0000
0000
0000
0310
0000
0001
0000
0200
0000
0000
0010
0000
0000
0310
0000
,  // measure 42
2000
0000
3100
0010
0002
0000
1003
0000
,  // measure 43
0001
1000
0010
0100
0001
2002
0000
3003
,  // measure 44
1001
0000
1000
0010
0200
0000
0301
0000
,  // measure 45
0100
0000
0010
0000
1000
0000
0100
0000
0020
0000
0000
0001
0000
0000
0031
0000
,  // measure 46
1000
0000
0001
0010
0200
0000
1300
0000
,  // measure 47
0100
0000
0010
0000
0001
0000
0100
0000
0020
0000
0000
1000
0000
0000
1030
0000
,  // measure 48
0001
0000
1000
0001
0020
0000
0130
0000
,  // measure 49
0010
0000
0001
0000
1000
0000
0001
0000
0200
0000
0000
0010
0000
0000
0310
0000
,  // measure 50
1000
0001
1000
0001
1000
0001
1000
0001
,  // measure 51
1001
1001
0000
0000
2001
0000
0100
0000
,  // measure 52
0010
0100
3002
0100
,  // measure 53
0010
0000
0100
0000
1003
0100
1000
0100
,  // measure 54
0001
0100
0001
0100
1000
0010
0001
0010
,  // measure 55
1000
0100
0010
0001
2001
0000
0010
0000
,  // measure 56
0100
0010
0001
0100
,  // measure 57
0010
0000
0000
0010
0000
0000
0010
0000
3020
0000
0000
0000
0130
0000
0001
0000
,  // measure 58
0020
0000
0130
0000
1000
0010
0001
0010
,  // measure 59
1000
0100
0001
0100
2000
0000
3010
0100
,  // measure 60
0010
1000
0002
0000
2003
0000
3100
0010
,  // measure 61
0002
0000
0000
1000
0000
0000
1003
0000
0020
0000
0000
0000
0130
0000
0001
0000
,  // measure 62
1000
0001
0010
0100
0010
0110
0000
0001
,  // measure 63
1000
1001
0000
0000
0000
0000
0000
0000
;
