#TITLE:Lividi;
#SUBTITLE:;
#ARTIST:Feryquitous;
#TITLETRANSLIT:;
#SUBTITLETRANSLIT:;
#ARTISTTRANSLIT:;
#GENRE:ARTCORE;
#CREDIT:;
#BANNER:Lividi.png;
#BACKGROUND:Lividi-bg.png;
#LYRICSPATH:;
#CDTITLE:cdtitle.png;
#MUSIC:Lividi.ogg;
#OFFSET:-0.012000;
#SAMPLESTART:76.001999;
#SAMPLELENGTH:15.000000;
#SELECTABLE:YES;
#DISPLAYBPM:191.000000;
#BPMS:0.000000=191.000000
,51.000000=382.000000
,52.000000=191.000000
,212.000000=382.000000
,213.000000=191.000000
,276.000000=95.500000
,279.500000=191.000000
,336.500000=382.000000
,337.500000=191.000000
,364.500000=95.500000
,368.500000=191.000000
;
#STOPS:51.000000=0.157000,
212.000000=0.157000,
336.500000=0.157000
;
#BGCHANGES:0.000=Lividi.avi=1.000=0=0=0=StretchNoLoop==CrossFade_Fastest==,
99999=-nosongbg-=1.000=0=0=0 // don't automatically add -songbackground-
;
#KEYSOUNDS:;
#ATTACKS:;

//---------------dance-single - Daff_4K----------------
#NOTES:
     dance-single:
     Daff_4K:
     Beginner:
     4:
     0.166353,0.230417,0.132139,0.000000,0.000000,141.000000,125.000000,16.000000,0.000000,0.000000,0.000000,0.166353,0.230417,0.132139,0.000000,0.000000,141.000000,125.000000,16.000000,0.000000,0.000000,0.000000:
0000
0000
0000
0000
,
0000
0000
0000
0000
,
0000
0000
0000
0000
,
0000
0000
0000
0000
,
0000
0000
0000
0000
,
1001
0000
0000
0000
,
1000
0000
0000
0000
,
0001
0000
0000
0000
,
0100
0000
0100
0000
,
0010
0000
0000
0000
,
1000
0000
0000
0000
,
0001
0000
0000
0000
,
1001
0000
0000
0000
,
0000
1000
0000
0100
,
0000
1000
0000
0000
,
0000
0001
0000
0100
,
0000
0000
0000
0000
,
0000
0010
0000
1000
,
0000
0010
0000
0000
,
0000
1000
0000
0001
,
0000
0000
0000
0000
,
0000
0001
0000
0100
,
0000
0001
0000
0000
,
0000
1000
0000
0100
,
0000
0000
0000
0000
,
0000
0010
0000
0001
,
0000
0010
0000
0000
,
0000
0001
0000
1000
,
0000
0000
0000
0000
,
0010
0000
0000
0000
,
0000
0000
0110
0000
,
0100
0000
0000
0000
,
0000
0000
0110
0000
,
1000
0000
0000
0000
,
0000
0000
1001
0000
,
0001
0000
0000
0000
,
0000
0000
1001
0000
,
0100
0000
0000
0000
,
0000
0000
0110
0000
,
0010
0000
0000
0000
,
0000
0000
0110
0000
,
0001
0000
0000
0000
,
0000
0000
1001
0000
,
1000
0000
0000
0000
,
0000
0000
0000
0000
,
0000
0001
0000
0010
,
0000
0100
0100
0100
,
0000
1000
0000
0001
,
0000
0100
0100
0000
,
0000
0010
0000
1000
,
0000
0001
0001
0001
,
0000
0100
0000
0010
,
0000
0000
0000
0000
,
1001
0000
0000
0010
,
0000
0100
0100
0100
,
0000
0001
0000
1000
,
0000
0100
0100
0000
,
0000
0010
0000
0001
,
0000
1000
1000
1000
,
0000
0001
0000
0100
,
0000
0001
0000
0000
,
1001
0000
1000
0000
,
0100
0000
0001
0000
,
0100
0000
1000
0000
,
0010
0000
0000
0000
,
0000
0010
0000
0010
,
0000
0100
0000
0100
,
0000
0001
0000
1000
,
0000
0000
0000
0000
,
1001
0000
0000
0000
,
0000
0000
0000
0000
,
0000
0001
0000
0000
0000
0000
0000
0000
,
0000
0000
0000
0010
0000
0000
0000
0010
,
0000
0000
0000
0100
0000
0000
0000
1000
,
0000
1000
0000
0000
0000
0001
0000
0000
,
0000
1001
0000
0000
0000
0000
0000
0000
,
0000
1001
0000
0000
0000
0000
0000
0000
,
0000
1000
0000
0000
0000
0010
0000
0000
,
0000
0001
0000
0000
0000
0000
0000
0000
,
0000
0001
0000
0000
0000
0100
0000
0000
,
0000
1000
0000
0000
0000
0000
0000
0000
,
0000
0001
0000
0000
0000
0100
0000
0000
,
0000
0010
0000
0000
0000
1000
0000
0000
,
0000
0000
0000
0000
,
0000
1001
0000
0000
0000
0000
0000
0000
,
0000
0000
0000
0001
0000
0000
0000
0010
,
0000
0000
0000
1000
0000
0000
0000
0000
,
0000
0000
0000
1000
0000
0000
0000
0100
,
0000
0000
0000
0001
0000
0000
0000
0000
,
0000
0000
0000
1000
0000
0000
0000
0001
,
0000
0000
0000
0010
0000
0000
0000
0100
,
0000
0100
0000
0000
0000
0000
0000
0000
,
0000
0010
0000
0010
0000
0000
0000
0000
,
1001
0000
0000
0000
;

//---------------dance-single - Daff_4K----------------
#NOTES:
     dance-single:
     Daff_4K:
     Easy:
     8:
     0.372820,0.464550,0.123880,0.495520,0.024776,316.000000,301.000000,15.000000,60.000000,0.000000,0.000000,0.372820,0.464550,0.123880,0.495520,0.024776,316.000000,301.000000,15.000000,60.000000,0.000000,0.000000:
0000
0000
0000
0000
,
0000
0000
0000
0000
,
0000
0000
0000
0000
,
0000
0000
0000
0000
,
0000
0000
0000
0000
0000
0000
0000
1001
,
0000
1000
0010
0100
,
0010
0000
0001
0000
0010
0000
1000
0001
,
0000
1000
0100
0010
,
0001
0000
0100
0000
0010
1000
0000
1001
,
0000
0001
0010
0100
,
0010
0000
1000
0000
0010
0000
0001
1000
,
0000
0000
0001
0000
1000
0000
0010
0200
,
0000
0000
0000
0300
,
0002
0000
0000
0023
0000
0000
0230
0000
,
0000
2300
0000
0000
3001
0000
0100
0010
,
0000
0100
0000
0001
0000
1000
0000
0000
,
0001
0010
0100
1000
,
0020
0000
0000
0230
0000
0000
0302
0000
,
0000
2003
0000
0000
3100
0000
0010
0000
,
0001
1000
0000
0001
0000
0100
0000
0000
,
0010
0000
1000
0001
0000
0000
0000
0000
,
2000
0000
0000
3020
0000
0000
0230
0000
,
0000
0302
0000
0000
1003
0000
0100
0010
,
0000
0100
0000
1000
0000
0001
0000
0000
,
1000
0010
0100
0001
,
0020
0000
0000
0230
0000
0000
2300
0000
,
0000
3002
0000
0000
0103
0000
0010
0000
,
1000
0001
1000
0100
,
0010
0000
0001
1000
0000
0000
0000
0000
,
0020
0000
0000
0100
0000
0000
0230
0000
,
0000
0001
0000
0000
0301
0000
0000
0000
,
2000
0000
0000
0100
0000
0000
3200
0000
,
0000
0010
0000
0000
0310
0000
0000
0000
,
0020
0000
0000
0100
0000
0000
0230
0000
,
0000
1000
0000
0000
1300
0000
0000
0000
,
0002
0000
0000
0100
0000
0000
0203
0000
,
0000
0010
0000
0000
0310
0000
1000
0000
,
0002
0000
0000
0010
0000
0000
2003
0000
,
0000
0100
0000
0000
3001
0000
0000
0000
,
0200
0000
0000
0010
0000
0000
0302
0000
,
0000
0010
0000
0000
1003
0000
0000
0000
,
2000
0000
0000
0010
0000
0000
3002
0000
,
0000
0100
0000
0000
1003
0000
0000
0000
,
2002
0000
0000
0000
,
0000
0000
0000
0000
3003
0000
0000
1002
,
0000
0103
0010
0100
,
0001
0000
0000
0000
2000
0000
0000
0001
0000
0000
3002
0000
0000
0000
0000
0000
,
0013
0100
1000
0010
,
0100
0001
1000
0001
,
0010
0100
0010
1000
,
0001
0000
0000
0000
0200
0000
0000
0010
0000
0000
0320
0000
0000
0000
0000
0000
,
0031
0000
1000
0000
0001
0000
0100
0010
,
0000
0000
1000
0000
0000
0001
0000
0000
1000
0000
0000
0000
0110
0000
0000
0000
,
2001
3100
0010
0100
,
1000
0000
0000
0000
0002
0000
0000
1000
0000
0000
2003
0000
0000
0000
0000
0000
,
3010
0100
0001
0010
,
0100
1000
0001
1000
,
0010
0100
0010
0001
,
1000
0000
0000
0000
0200
0000
0000
0010
0000
0000
0320
0000
0000
0000
0000
0000
,
1030
0001
1000
0100
,
0010
0001
2002
3003
,
1000
0000
0001
0100
0000
0010
0000
0100
,
0000
1000
0000
0100
0000
0001
1000
0000
,
0100
0000
0010
0100
0000
1000
0000
0001
,
0000
1000
0000
0010
0000
0100
0001
2000
,
0000
0000
0100
3002
,
0010
0000
1003
0001
,
0010
0001
1000
0100
,
0010
0000
0001
0000
1000
0001
0000
2002
,
0000
0000
0000
3003
,
0220
0330
0100
0001
,
1000
0000
0001
0000
0010
0000
0100
1000
,
0002
0000
0000
0000
0000
0100
0000
2003
,
0000
0010
0000
0000
0000
3001
0000
1000
,
0000
0100
0000
1000
0000
0001
0000
0100
,
0000
0220
0000
0000
0000
0000
0330
0000
,
1001
0000
0000
1000
0000
0100
0000
0001
,
0000
0100
0000
1000
0000
0001
0100
0000
,
0010
0000
0000
0010
0000
1000
0000
0001
,
0000
0010
0000
0100
0000
1000
0001
0000
,
1000
0000
0000
0001
0000
0100
0000
1000
,
0000
0100
0000
0001
0000
1000
0100
0000
,
0010
0000
0000
0010
0000
0001
0000
0100
,
0010
0000
0000
0000
1000
0000
0000
0001
0000
0000
1000
0000
0000
0000
0110
0000
,
0000
1001
0000
0001
0000
0100
0000
1000
,
0000
0100
0000
0010
0000
1000
0000
0100
,
0000
0001
0000
0100
0000
0010
0000
0001
,
0000
1000
0000
2002
0000
0000
0000
3003
,
0000
1000
0000
0100
0000
0010
0000
0010
,
0000
0001
0000
0100
0000
0010
0000
0010
,
0000
1000
0000
0100
0000
0001
0000
0100
,
0020
0000
0000
0000
,
0000
0031
0000
1000
0000
0010
0000
0100
,
0220
0000
0000
0330
;

//---------------dance-single - Daff_4K----------------
#NOTES:
     dance-single:
     Daff_4K:
     Medium:
     12:
     0.628838,0.696825,0.346864,0.817607,0.041293,533.000000,491.000000,42.000000,99.000000,0.000000,0.000000,0.628838,0.696825,0.346864,0.817607,0.041293,533.000000,491.000000,42.000000,99.000000,0.000000,0.000000:
0000
0000
0000
0000
,
0000
0000
0000
0000
,
0000
0000
0000
0000
,
0000
0000
0000
0000
,
0000
0000
0000
0000
0000
0000
0000
2001
,
0000
3010
0200
0000
0301
1000
0100
0001
,
0000
0100
1000
0001
0000
0101
0000
2010
,
0000
3001
0020
0000
0130
1000
0001
0100
,
0000
0010
1000
0100
0000
0110
0000
1002
,
0000
0013
0200
0000
1300
0001
0100
1000
,
0000
0100
0001
1000
0000
1100
0000
0012
,
0000
1003
0020
0000
0130
0001
1000
0200
,
0000
0000
0000
0310
,
1002
0000
0103
0020
0000
1030
0002
0000
,
0013
0200
0000
1300
0010
0100
0001
1000
,
0000
1100
0000
0010
0001
1000
0020
0000
,
0130
0001
1000
1100
0000
0011
0000
0001
,
2000
0000
3010
0200
0000
0301
0020
0000
,
0130
2000
0000
3010
0100
0010
0001
0010
,
1000
1100
0000
0011
0000
1001
0000
1000
,
0010
0100
0001
2001
0000
3100
0010
0001
,
2001
0000
3100
0020
0000
0031
2000
0000
,
3010
0200
0000
0301
0010
0100
1000
0001
,
0000
0101
0000
0010
1000
0001
0020
0000
,
0130
1000
0001
0101
0000
1010
0000
1000
,
0002
0000
0013
0200
0000
1300
0020
0000
,
0130
0002
0000
0013
0100
0010
1000
0010
,
0001
0101
0000
1010
0000
1000
0001
0020
,
0000
0130
0000
1002
0000
0203
0000
0310
,
2000
0000
3100
2000
0000
3001
2000
0000
,
3010
2000
0000
3001
0020
0000
0130
1000
,
0020
0000
0031
0020
0000
0130
0020
0000
,
1030
0020
0000
0130
0002
0000
1003
0000
,
0002
0000
0103
0002
0000
1003
0002
0000
,
0013
0002
0000
1003
0020
0000
0130
0001
,
0020
0000
1030
0020
0000
0130
0020
0000
,
0031
0020
0000
0130
1000
0010
0100
0001
,
2000
0000
3100
0002
0000
0103
2000
0000
,
3010
0002
0000
0013
1000
0000
1001
0000
,
0002
0000
0013
0200
0000
1300
0002
0000
,
0103
0020
0000
1030
0200
0000
0310
0000
,
0002
0000
0103
2000
0000
3100
0002
0000
,
0013
2000
0000
3010
0001
0100
0010
1000
,
0002
0000
0000
2003
0000
0000
3200
0000
,
0000
0320
0000
0000
0031
1000
0001
2001
,
0000
3010
0100
0001
0000
1000
0100
0010
,
0000
0000
0001
0000
0200
0000
0000
0010
0000
0000
0310
0000
0000
0000
1000
0000
,
0001
1000
0100
0010
0000
0100
1000
0001
,
0000
0100
0010
1000
0000
1100
0000
0012
,
0000
1003
0010
0100
0000
0010
0001
1000
,
0000
0000
0100
0000
0002
0000
0000
1000
0000
0000
1003
0000
0000
0000
0001
0000
,
0010
0100
1000
0010
0000
0100
0001
1000
,
0000
0000
0000
0000
0000
0000
0100
0000
0000
0000
0000
0000
0000
0000
0000
0010
0000
0000
0000
0000
0000
0000
0000
0000
0100
0000
0000
0000
0000
0000
1000
0000
0000
0000
0000
0000
0001
0000
0000
0000
0100
0000
0000
0000
0001
0000
0000
0000
,
0200
0000
0310
1000
0000
0001
0100
0010
,
0000
0000
1000
0000
0200
0000
0000
0010
0000
0000
0310
0000
0000
0000
0001
0000
,
1000
0001
0100
0010
0000
0100
0001
1000
,
0000
0100
0010
0001
0000
0101
0000
2010
,
0000
3001
0010
0100
0000
0010
1000
0001
,
0000
0000
0100
0000
2000
0000
0000
0001
0000
0000
3001
0000
0000
0000
1000
0000
,
0010
0000
0110
0000
0100
0001
1000
0200
,
0000
0310
0001
1000
0020
0000
0130
0000
,
1002
0000
0013
0100
0000
1100
0000
1002
,
0000
0103
0010
2000
0000
3100
0001
0000
,
0110
0000
0010
0002
0000
1003
0000
0020
,
0000
0130
0001
2000
0000
3100
0010
0002
,
0000
1000
1000
0000
0103
0000
0010
2000
,
0000
0001
0001
0000
3100
0000
0010
0000
,
0001
1000
0001
0100
0000
0010
1000
0001
,
1000
0100
0010
0000
0001
1000
0000
2002
,
0000
0000
0000
0000
0000
0000
0000
3003
,
0020
0000
0130
0001
2000
0000
3001
0000
,
0020
0000
0130
1000
0002
0000
0103
0010
,
2000
0000
0001
0001
0000
3100
0000
0010
,
0002
0000
1000
1000
0000
0103
0000
0010
,
0000
1000
0001
1000
0100
0000
0010
0001
,
1000
0020
0000
0100
0000
0130
0001
1000
,
1001
0000
0001
0010
0000
0100
1000
0001
,
1000
0000
0010
0100
0010
0001
0010
1000
,
0001
0000
1000
0100
0000
0010
0001
1000
,
0001
0000
0100
0010
0100
1000
0100
0001
,
1001
0000
1000
0010
0000
0100
0001
1000
,
0001
0000
0010
0100
0010
1000
0010
0001
,
1000
0000
0001
0100
0000
0010
1000
0001
,
1000
0000
0000
0000
0000
0000
0000
0000
0000
0000
0000
0000
0100
0000
0000
0000
0000
0000
0000
0000
0000
0010
0000
0000
0000
0000
0000
0000
0000
0000
0100
0000
0000
0000
0000
0000
1000
0000
0000
0000
0000
0000
0001
0000
0000
0000
0100
0000
,
0000
0001
0000
0200
0000
0000
0000
0000
0000
0310
0000
0000
1000
0000
0000
0000
0000
0000
0001
0000
0000
0010
0000
0000
,
0001
0000
1000
0010
0100
0001
0010
0100
,
1000
0000
0010
0100
0010
1000
0001
1000
,
0100
0010
0000
0110
0000
1001
0000
0110
,
0000
1001
0000
0001
0100
0010
0000
1000
,
0100
0010
0000
0001
1000
0010
1000
0001
,
0010
0100
1000
0001
0100
0010
1000
0000
,
2002
0000
0000
0000
0000
0000
0000
3003
,
0000
0001
0010
0100
1000
0010
0100
0001
,
2002
0000
0000
3003
;

//---------------dance-single - Daff_4K----------------
#NOTES:
     dance-single:
     Daff_4K:
     Hard:
     16:
     0.808169,0.812962,0.487261,0.685469,0.256018,685.000000,626.000000,59.000000,83.000000,0.000000,0.000000,0.808169,0.812962,0.487261,0.685469,0.256018,685.000000,626.000000,59.000000,83.000000,0.000000,0.000000:
0000
0000
0000
0000
,
0000
0000
0000
0000
,
0000
0000
0000
0000
,
0000
0000
0000
0000
,
0010
1000
0001
1000
0100
0010
0001
2001
,
0000
0000
3010
1000
0010
0000
0100
0000
0001
0000
1000
0000
0100
0000
0002
0000
,
0000
0103
1000
0010
0000
0110
0000
1002
,
0000
0000
0013
0001
0010
0000
0100
0000
1000
0000
0001
0000
0100
0000
0020
0000
,
0000
1030
0001
0011
0000
1100
0000
1002
,
0000
0000
0013
0001
0010
0000
0100
0000
1000
0000
0001
0000
0100
0000
2000
0000
,
0000
3100
0001
0010
0000
0110
0000
2001
,
0000
0000
3010
1000
0010
0000
0100
0000
0001
0000
1000
0000
0100
0000
0220
0000
,
0000
0000
0330
1001
,
1000
0020
0100
0000
1030
0002
0010
0000
,
0103
0010
2000
0001
0000
3100
0010
0011
,
0000
1100
0000
1000
0001
0100
0020
0000
,
1030
0000
0001
1000
0100
0000
0120
0000
0000
0000
0031
1000
0001
0000
0100
0000
,
0010
2000
0001
0000
3100
0020
0001
0000
,
0130
1000
0002
0100
0000
0013
0100
1000
,
0001
0100
0000
0110
0000
1001
0000
1000
,
0100
0000
0010
0000
0001
0000
2001
0000
0000
0000
3010
0100
0010
0000
0100
0000
,
0001
0020
0100
0000
0031
2000
0010
0000
,
3100
0010
0002
1000
0000
0103
0010
1010
,
0000
0101
0000
0001
1000
0100
0020
0000
,
0031
0000
1000
0001
0100
0000
0120
0000
0000
0000
1030
0001
1000
0000
0100
0000
,
0010
0002
1000
0000
0103
0020
1000
0000
,
0130
0001
2000
0100
0000
3010
0100
0001
,
1000
0100
0000
1001
0000
0001
1000
0020
,
0000
0130
0000
1001
0000
1100
0000
0011
,
0001
0100
1000
0001
0010
1000
0001
0010
,
1000
0010
0001
1000
1020
0000
0130
0001
,
1000
0100
0010
1000
0010
0001
0100
1000
,
0100
0010
1000
0001
0011
0000
1100
0000
,
1000
0100
0001
1000
0010
0001
1000
0010
,
0001
0010
1000
0001
0021
0000
0130
1000
,
0001
0100
0010
0001
0010
1000
0100
0001
,
0100
0010
0001
1000
0010
0010
0100
0100
,
0001
0010
1000
0001
0100
1000
0001
0100
,
1000
0000
0001
0000
0010
0000
1000
0000
0001
1000
0001
0000
0020
0000
0000
0000
,
0130
1000
0001
1000
0010
0100
0001
1000
,
0001
0010
0100
1000
1020
0000
0130
0001
,
1000
0010
0001
1000
0100
0001
1000
0100
,
0001
1000
0010
0001
0100
0100
0010
0010
,
1000
0100
0010
0001
0100
0010
1000
0001
,
0010
0000
0001
0000
1000
0000
0010
0000
0100
0000
0001
1000
0001
0000
2001
0000
,
0000
3100
0010
0002
0000
1003
0010
0200
,
0000
0000
0301
0000
1000
0100
0000
1000
0100
0000
0010
0001
0000
0010
0001
0000
,
1000
0010
0100
0020
0000
1030
0001
0020
,
0000
0130
1000
1010
0000
0101
0000
2001
,
0000
3100
0010
0200
0000
0310
0001
2000
,
0000
0000
3010
0000
0100
0001
0000
1000
0001
0000
1000
0100
0000
0010
0100
0000
,
0010
0001
1000
0010
0100
0010
1000
0001
,
0000
0000
0000
0000
0000
0000
1100
0000
0000
0000
0000
0000
0000
0000
0000
0011
0000
0000
0000
0000
0000
0000
0000
0000
1001
0000
0000
0000
0000
0000
1000
0000
0000
0000
0000
0000
0001
0000
0000
0000
1000
0000
0000
0000
0010
0000
0000
0000
,
0200
0000
0310
2000
0000
3001
0010
0200
,
0000
0000
1300
0000
0001
0100
0000
0001
0100
0000
0010
1000
0000
0010
1000
0000
,
0001
0010
0100
0020
0000
0031
1000
0020
,
0000
0130
0001
0011
0000
1100
0000
1002
,
0000
0103
0010
0200
0000
0310
1000
0002
,
0000
0000
0013
0000
0100
1000
0000
0001
1000
0000
0001
0100
0000
0010
0100
0000
,
0110
0000
1001
0000
1000
0100
0001
0100
,
1000
0100
0010
0001
0011
0000
1100
0000
,
1002
0000
0000
0000
0103
0000
0020
1000
0000
0000
2030
0001
0000
0000
3002
0000
,
0000
0013
0100
0010
0001
0100
0001
1000
,
1020
0000
0130
0002
0000
0013
0000
2100
,
0000
3001
0100
0020
0000
1030
0001
2001
,
0000
3100
0020
0000
0031
0100
0010
2000
,
0000
3001
0020
0000
0130
0010
0001
1000
,
0010
0001
0010
2000
0000
3100
0010
0002
,
0000
0000
1003
0000
0001
0000
0100
0010
0100
0000
0010
0000
0000
0000
2002
0000
,
0000
0000
0000
0000
0000
0000
0000
3003
,
0100
0010
0100
0010
0100
0010
0100
0000
2001
0000
0000
0000
3010
0000
0000
0000
,
0102
0000
1003
0100
0020
0000
0031
1000
,
1002
0000
0103
0020
0000
1030
0100
0010
,
0002
0000
1003
0020
0000
0130
0010
1000
,
0001
0010
1000
0010
0001
1000
0010
0001
,
0010
0000
1000
0000
0001
0000
0010
0000
0100
0010
0100
1000
0001
1000
0001
0000
,
2001
0000
3010
0100
0002
0000
1003
0100
,
0020
0000
0000
0000
0130
0000
1000
0000
0001
0000
0100
0010
0100
0000
0010
0000
,
2010
0000
0000
0000
3001
1000
0001
0000
0010
0000
0100
0000
1000
0000
0001
0000
,
0200
0000
0310
1000
1100
0000
0011
0000
,
1002
0000
0013
0100
2000
0000
3001
0100
,
0020
0000
0000
0000
0130
0000
0001
0000
1000
0000
0100
0010
0100
0000
0010
0000
,
0012
0000
0000
0000
1003
0001
1000
0000
0010
0000
0100
0000
0001
0000
1000
0000
,
0001
0000
0000
0000
0000
0000
0000
0000
0000
0000
0000
0000
0101
0000
0000
0000
0000
0000
0000
0000
0000
1010
0000
0000
0000
0000
0000
0000
0000
0000
1001
0000
0000
0000
0000
0000
0001
0000
0000
0000
0000
0000
1000
0000
0000
0000
0001
0000
,
0000
0000
0010
0000
0000
0000
0200
0000
0000
0000
0000
0000
0000
0000
0000
0000
0000
0000
1300
0000
0000
0001
0000
0000
1000
0000
0000
0001
0000
0000
0100
0000
0000
0000
0000
0000
0010
0000
0000
0000
0000
0000
1000
0000
0000
0000
0000
0000
,
0001
0000
0010
0000
0100
0000
1000
0001
1000
0000
0001
0000
0100
0000
0010
0000
,
1000
0000
0100
0000
0010
0000
0001
0000
1000
0001
1000
0000
0010
0000
0001
0000
,
0010
0000
1000
0000
0001
0000
0010
0100
0000
0010
0100
0000
1000
0001
1000
0001
,
0100
0000
0010
0000
1000
0000
0100
0000
0010
0000
0001
1000
0001
0000
1000
0000
,
0100
0000
0010
0000
0001
0000
0100
0000
0010
0000
1000
0001
1000
0000
0001
0000
,
0010
0000
1000
0000
0010
0000
0001
0000
1000
0000
0010
0100
0010
0100
0001
1000
,
0200
0000
0000
0000
,
0000
0000
1300
0000
0010
0000
0001
0000
0010
0000
1000
0001
1000
0001
0010
0200
,
0020
0000
0000
0030
0000
0000
0300
0000
;

//---------------dance-single - Daff_4K -Encore-----------------
#NOTES:
     dance-single:
     Daff_4K -Encore-:
     Challenge:
     17:
     0.916711,0.967812,0.594624,0.668952,0.450097,777.000000,705.000000,72.000000,81.000000,0.000000,0.000000,0.916711,0.967812,0.594624,0.668952,0.450097,777.000000,705.000000,72.000000,81.000000,0.000000,0.000000:
// measure 0
0000
0000
0000
0000
,  // measure 1
0000
0000
0000
0000
,  // measure 2
0000
0000
0000
0000
,  // measure 3
0000
0000
0000
0000
,  // measure 4
0010
0000
1000
0001
1000
0000
0100
0000
0010
0000
0001
0000
1000
0000
1002
0000
,  // measure 5
0000
0000
0103
0010
0100
0000
0001
0000
0010
0000
0100
0000
1000
0000
0020
0000
,  // measure 6
0000
0000
0031
0000
0010
0000
1000
0000
0001
1000
0001
0000
0010
0000
0210
0000
,  // measure 7
0000
0000
1300
0001
1000
0000
0010
0000
0100
0000
0001
0000
1000
0000
0200
0000
,  // measure 8
0000
0000
0301
0000
0100
0000
1000
0000
0010
0100
0001
0000
0010
0100
2000
0000
,  // measure 9
0000
0000
3100
0010
0100
0000
1000
0000
0010
0000
0100
0000
0001
0000
0020
0000
,  // measure 10
0000
0000
1030
0000
0010
0000
0001
0000
1000
0001
1000
0000
0010
0000
0210
0000
,  // measure 11
0000
0000
0301
1000
0001
0000
0010
0000
0100
0000
1000
0000
0001
0000
2002
0000
,  // measure 12
0000
0000
0000
3003
,  // measure 13
2000
0010
0001
0000
3200
0001
0010
0000
,  // measure 14
1300
0000
0001
0000
0100
0000
0120
0000
0000
0000
1030
0000
0001
0000
2000
0100
,  // measure 15
0000
0000
3200
0010
0000
0000
0310
0000
0001
0000
1000
0000
0020
0000
0000
0000
,  // measure 16
0130
0000
0010
0100
0001
0000
2001
0000
0000
0000
3100
0010
0100
0010
0001
1000
,  // measure 17
0002
0100
1000
0000
0023
1000
0100
0000
,  // measure 18
0031
1000
0010
0210
0000
0301
1000
0001
,  // measure 19
0100
0110
0000
1001
0000
1100
0000
0011
,  // measure 20
0001
0000
1000
0000
0010
0000
0210
0000
0000
0000
0301
1000
0001
1000
0100
0010
,  // measure 21
0002
0010
1000
0000
0203
1000
0010
0000
,  // measure 22
0301
0000
1000
0000
0100
0000
0120
0000
0000
0000
0031
0000
1000
0000
0002
0100
,  // measure 23
0000
0000
0203
0010
0000
0000
0310
0000
1000
0000
0001
0000
0020
0000
0000
0000
,  // measure 24
0130
0000
0010
0100
1000
0000
1002
0000
0000
0000
0103
0010
0100
0010
1000
0001
,  // measure 25
2000
0100
0001
0000
3020
0001
0100
0000
,  // measure 26
1030
0001
0010
0210
0000
1300
0001
1000
,  // measure 27
0100
0110
0000
1001
0000
0001
0100
1100
,  // measure 28
0000
0101
0000
1001
0000
0110
0000
1001
,  // measure 29
1000
0100
0001
1000
0010
0001
1000
0010
,  // measure 30
0001
1000
0100
0001
0120
0000
1030
0001
,  // measure 31
1000
0100
0001
1000
0010
0100
1000
0010
,  // measure 32
0001
0010
1000
0100
0110
0000
1001
1000
,  // measure 33
0001
0100
1000
0001
0010
1000
0001
0010
,  // measure 34
1000
0001
0100
1000
0120
0000
0031
1000
,  // measure 35
0001
0100
1000
0001
0010
0100
0001
0010
,  // measure 36
1000
0010
0001
1000
0020
0230
0302
2003
,  // measure 37
3001
0010
0100
0001
1000
0010
0100
1000
,  // measure 38
0010
0000
0001
0000
0010
0000
1000
0000
0100
0010
0100
0000
1002
0000
0000
0000
,  // measure 39
0103
1000
0010
1000
0100
0001
1000
0100
,  // measure 40
0001
1000
0010
0001
0210
0000
1300
0001
,  // measure 41
1000
0010
0100
1000
0001
0010
0100
0001
,  // measure 42
0010
1000
0010
0001
0200
0320
2030
3002
,  // measure 43
1003
0100
0001
1000
0010
0001
0100
0010
,  // measure 44
1000
0000
0100
0000
0010
0000
0001
0000
0100
0010
0100
0010
0100
0000
2001
0000
,  // measure 45
0000
0000
3100
0000
0010
0000
0001
0000
0100
0001
0100
0000
0010
0000
1000
0000
,  // measure 46
0001
0000
1000
0000
0200
0010
0000
0320
0001
0000
0032
1000
0000
1003
0010
0100
,  // measure 47
0001
0000
1000
0000
0001
0000
0010
0000
0100
0010
0001
0000
1000
0000
1020
0000
,  // measure 48
0000
0130
0001
0011
0000
1100
0000
1020
,  // measure 49
0000
0000
0130
0000
0001
0000
1000
0000
0100
0010
0100
0000
1000
0000
0001
0000
,  // measure 50
0100
0000
0010
0000
2000
0001
0000
3002
0010
0000
0023
0100
0000
0130
1000
0001
,  // measure 51
0100
0000
0010
0000
0100
0000
0001
0000
1000
0001
1000
0000
0100
0000
0110
0000
,  // measure 52
0000
0000
0000
0000
0000
0000
1001
0000
0000
0000
0000
0000
0000
0000
0000
0101
0000
0000
0000
0000
0000
0000
0000
0000
1010
0000
0000
0000
0000
0000
1001
0000
0000
0000
0000
0000
0001
0000
0000
0000
0010
0000
0000
0000
0100
0000
0000
0000
,  // measure 53
2000
0000
0000
0000
3001
0000
1000
0000
0100
1000
0100
0000
0010
0000
0001
0000
,  // measure 54
1000
0000
0001
0000
0200
0010
0000
0320
1000
0000
2030
0001
0000
3001
0010
0100
,  // measure 55
1000
0000
0001
0000
1000
0000
0010
0000
0100
0010
1000
0000
0001
0000
0021
0000
,  // measure 56
0000
0130
1000
1010
0000
0101
0000
0021
,  // measure 57
0000
0000
0130
0000
1000
0000
0001
0000
0100
0010
0100
0000
0001
0000
1000
0000
,  // measure 58
0100
0000
0010
0000
0002
1000
0000
2003
0010
0000
3020
0100
0000
0130
0001
1000
,  // measure 59
0001
0000
0010
0000
0100
0000
1000
0000
0001
1000
0001
0000
0100
0000
0010
0000
,  // measure 60
1000
0001
1000
0000
0100
0000
0010
0000
0002
0000
0000
0000
1003
0000
0000
0000
,  // measure 61
1001
0000
1000
0000
0001
0000
0100
0010
1000
0000
0100
0010
0001
1000
0001
0000
,  // measure 62
1000
0010
0001
0010
1000
0001
1000
0100
,  // measure 63
0120
0000
0031
0101
0000
1010
0000
1002
,  // measure 64
0000
0000
0013
0000
0100
0000
1000
0001
0100
0010
0100
0000
0010
0000
2010
0000
,  // measure 65
0000
3001
0021
0000
0130
1000
0001
0200
,  // measure 66
0000
0000
1300
0000
0100
0000
0001
0000
1000
0000
0100
0010
0100
0000
1000
0000
,  // measure 67
0001
1000
0010
0110
0000
1001
0001
0010
,  // measure 68
0100
0000
1000
0000
0001
0000
0100
0010
0100
0000
0001
0000
1000
0000
0100
0000
,  // measure 69
0220
0000
0000
0000
0000
0000
0000
0330
,  // measure 70
0010
0001
1000
0010
0100
0001
1000
0000
1100
0000
0000
0000
0011
0000
0000
0000
,  // measure 71
2001
0000
0000
0000
3010
0000
0100
0000
0001
1000
0100
0010
0100
0000
0010
0000
,  // measure 72
0012
0000
1003
1020
0000
0130
0001
1000
,  // measure 73
0200
0000
0000
0000
0301
0000
0100
0000
1000
0000
0001
0000
0100
0010
0100
0000
,  // measure 74
0010
1000
0001
1000
1100
0000
0011
0000
,  // measure 75
1001
0000
1000
0000
0010
0000
0100
0000
0001
1000
0001
1000
0100
0010
0001
0000
,  // measure 76
2001
0000
0000
0000
3010
0100
0001
0000
1000
0000
0001
0000
0010
0000
1000
0000
,  // measure 77
0001
0000
0100
0000
1000
0000
0010
0000
0100
0000
0001
1000
0001
0000
0010
0000
,  // measure 78
0210
0000
0000
0000
1300
0001
0100
0000
0010
0000
0100
0001
1000
0001
1000
0000
,  // measure 79
0200
0000
0310
0001
0101
0000
1010
0000
,  // measure 80
1002
0000
0000
0000
0013
0100
1000
0000
0001
0000
1000
0000
0010
0000
0001
0000
,  // measure 81
1000
0000
0100
0000
0001
0000
0010
0000
0100
0000
1000
0001
1000
0000
0010
0000
,  // measure 82
0210
0000
0000
0000
0301
1000
0100
0000
0010
0000
0100
1000
0001
1000
0001
0000
,  // measure 83
0100
0000
0000
0000
0000
0000
0000
0000
0000
0000
0000
0000
0110
0000
0000
0000
0000
0000
0000
0000
0000
1001
0000
0000
0000
0000
0000
0000
0000
0000
1100
0000
0000
0000
0000
0000
0011
0000
0000
0000
0000
0000
0001
0000
0000
0000
1000
0000
,  // measure 84
0000
0000
0010
0000
0000
0000
0200
0000
0000
0000
0000
0000
0000
0000
0000
0000
0000
0000
0301
0000
0000
1000
0000
0000
0001
0000
0000
1000
0000
0000
0100
0000
0000
0000
0000
0000
0001
0000
0000
0000
0000
0000
0100
0000
0000
0000
0000
0000
,  // measure 85
1000
0000
0001
0000
0100
0000
0010
0100
0010
0000
1000
0000
0100
0000
0001
0000
,  // measure 86
1000
0000
0010
0000
0100
0000
1000
0001
1000
0001
0100
0000
1000
0000
0100
0000
,  // measure 87
0001
0000
1000
0000
0001
0000
0010
0100
1000
0000
0010
0100
0001
0000
1000
0001
,  // measure 88
1000
0100
0010
0000
0001
1000
0001
0000
0100
0000
0010
0000
1000
0100
1000
0000
,  // measure 89
0001
0100
0001
0000
0010
0100
0010
0000
0001
0000
1000
0000
0010
0000
0100
0000
,  // measure 90
0001
0000
0010
0100
1000
0000
0010
0100
0001
0000
1000
0001
0010
0100
1000
0001
,  // measure 91
0200
0000
0000
0000
,  // measure 92
0300
0000
0110
0000
1000
0000
0110
0000
0001
0000
1000
0001
0100
0010
1000
0200
,  // measure 93
0020
0000
0000
0030
0000
0000
0300
0000
;
