#TITLE:レッツゴー!陰陽師;
#SUBTITLE:;
#ARTIST:矢部野彦麿 & 琴姫 With 坊主ダンサーズ;
#TITLETRANSLIT:Let's Go! Onmyouji;
#SUBTITLETRANSLIT:;
#ARTISTTRANSLIT:Hikomaro Yabeno & Kotohime With Bozu Dancers;
#GENRE:ONMYOUJI POP;
#CREDIT:;
#BANNER:Let's Go! Onmyouji.png;
#BACKGROUND:Let's Go! Onmyouji-bg.png;
#LYRICSPATH:;
#CDTITLE:cdtitle.png;
#MUSIC:Let's Go! Onmyouji.ogg;
#OFFSET:-0.060000;
#SAMPLESTART:28.680000;
#SAMPLELENGTH:15.000000;
#SELECTABLE:YES;
#BPMS:0.000000=150.000000
;
#STOPS:
;
#BGCHANGES:0.000=Let's Go! Onmyouji.avi=1.000=0=0=0=StretchNoLoop==CrossFade_Fastest==,
99999=-nosongbg-=1.000=0=0=0 // don't automatically add -songbackground-
;
#KEYSOUNDS:;
#ATTACKS:;

//---------------dance-single - Daff_4K----------------
#NOTES:
     dance-single:
     Daff_4K:
     Beginner:
     2:
     0.078835,0.147039,0.029045,0.000000,0.000000,76.000000,72.000000,4.000000,0.000000,0.000000,0.000000,0.078835,0.147039,0.029045,0.000000,0.000000,76.000000,72.000000,4.000000,0.000000,0.000000,0.000000:
0000
0000
0000
0000
,
0000
0000
0000
0000
,
0000
0000
0000
0000
,
0000
0000
0000
0000
,
0000
0000
0000
0000
,
0000
0000
0000
0000
,
0000
0000
0000
0000
,
0000
0000
0000
0000
,
1000
0000
0000
0000
,
1000
0000
0000
0000
,
1000
0000
0000
0000
,
1000
0000
0000
0000
,
1000
0000
0000
0000
,
1000
0000
0000
0000
,
1000
0000
0000
0000
,
1000
0000
0000
0000
,
1001
0000
0000
0000
,
0000
0000
0000
0000
,
1000
0000
0000
0000
,
1000
0000
0000
0000
,
1000
0000
0000
0000
,
0001
0000
0000
0000
,
0000
0010
0000
0000
,
0000
0010
0000
0000
,
0000
0000
0000
0000
,
0000
1000
0000
0001
,
0000
0000
0000
0001
,
0000
0000
0000
0000
,
1000
0000
0000
0001
,
0000
0000
0000
0000
,
1000
0000
0000
0000
,
0100
0000
0000
0000
,
1000
0000
0000
0000
,
0001
0000
0000
0000
,
0001
0000
0000
0000
,
0100
0000
0000
0000
,
0001
0000
0000
0000
,
1000
0000
0000
0000
,
0100
0000
0000
0000
,
0100
0000
0100
0000
,
0100
0000
0000
0000
,
0000
0000
0000
0000
,
0010
0000
0000
0000
,
0001
0000
0001
0000
,
1000
0000
1000
0000
,
0001
0000
0000
0000
,
0100
0000
0000
0000
,
0100
0000
0100
0000
,
0100
0000
0000
0000
,
0000
0000
0000
0000
,
0010
0000
0000
0000
,
1000
0000
1000
0000
,
0001
0000
0000
0000
,
1001
0000
0000
0000
,
1000
0000
0000
0000
,
1000
0000
0000
0000
,
1000
0000
0000
0000
,
0001
0000
0000
0000
,
0000
0010
0000
0000
,
0000
0010
0000
0000
,
0000
0000
0000
0000
,
0000
1000
0000
0001
,
0000
0000
0000
0000
,
1000
0000
0000
0000
,
1000
0000
0000
0000
,
0001
0000
0000
0000
,
0000
0010
0000
0000
,
0000
0010
0000
0000
,
0000
0000
0000
0000
,
0000
1000
0000
0001
,
0000
0000
0000
0000
,
0000
1000
0000
0001
,
0000
0000
0000
0000
,
0100
0000
0000
0000
,
0010
0000
0000
0000
,
1001
0000
0000
0000
,
0000
0000
0000
0000
,
1000
0000
0000
0001
,
0000
0000
0000
0001
,
0000
0000
0000
0001
,
0000
0000
0000
0000
,
1001
0000
0000
0000
;

//---------------dance-single - Daff_4K----------------
#NOTES:
     dance-single:
     Daff_4K:
     Easy:
     5:
     0.217835,0.301338,0.087134,0.196051,0.000000,210.000000,198.000000,12.000000,27.000000,0.000000,0.000000,0.217835,0.301338,0.087134,0.196051,0.000000,210.000000,198.000000,12.000000,27.000000,0.000000,0.000000:
0000
0000
0000
0000
,
0000
0000
0000
0000
,
0000
0000
0000
0000
,
0000
0000
0000
0000
,
0000
0000
0000
0000
,
0000
0000
0000
0000
,
0000
0000
0000
0000
,
0000
0000
0000
0000
,
0001
0000
0001
0000
,
0001
0000
0010
0000
,
0100
0000
0100
0000
,
1000
0000
0001
0000
,
1000
0000
1000
0000
,
1000
0000
0010
0000
,
0100
0000
0100
0000
,
0001
0000
1000
0000
,
2002
0000
0000
0000
,
3003
0000
0000
0000
,
1000
0100
0001
0000
,
0001
0100
1000
0000
,
0001
0000
0100
0000
,
0010
1000
0001
0000
,
0010
0010
0100
0100
,
1000
1000
0001
0001
,
0100
0000
0010
0000
,
1000
0001
1001
0000
,
1000
0100
0010
0100
,
1000
0001
1000
0000
,
0001
0100
0010
0100
,
0001
1000
0001
0000
,
1000
0100
0010
0000
,
0100
1000
0010
0000
,
0100
0001
0010
0000
,
0010
0100
1000
0000
,
0001
0100
0010
0000
,
0100
0001
0010
0000
,
0100
1000
0010
0000
,
0010
0100
0001
1000
,
0002
0000
0003
1000
,
0020
0030
0200
0300
,
0002
0000
1000
0000
,
1000
0000
1003
0000
,
2000
0000
3000
0100
,
0020
0030
0002
0003
,
0200
0300
0020
0030
,
2000
0000
3001
0000
,
2000
0000
3000
0001
,
0020
0030
0200
0300
,
2000
0000
0001
0000
,
0001
0000
3001
0000
,
0002
0000
0003
0100
,
0020
0030
2000
3000
,
0100
0100
0010
0010
,
0001
1000
0001
1000
,
0001
0010
1000
0000
,
1000
0010
0001
0000
,
0100
0000
0010
0000
,
1000
0001
1000
0000
,
0100
0100
0010
0010
,
0001
0001
1000
1000
,
0000
0001
0100
0010
,
1000
0001
1001
0000
,
1000
0010
0001
0000
,
0001
0010
1000
0000
,
0100
0000
0010
0000
,
0001
1000
0001
0000
,
0100
0100
0010
0010
,
1000
1000
0001
0001
,
0000
1000
0100
0010
,
0001
1000
1001
0000
,
1000
0001
0100
0010
,
1000
0001
1001
0000
,
0001
1000
0001
1000
,
2002
0000
0000
3003
,
0220
0000
0000
0330
,
2002
0000
0000
3003
,
1000
0100
0010
0010
,
0001
0100
0010
0010
,
1000
0001
1001
0000
,
0001
1000
1001
0000
,
1000
0001
1001
0000
,
0220
0000
0000
0000
,
0000
0000
0000
0000
,
0330
0000
0000
0000
;

//---------------dance-single - Daff_4K----------------
#NOTES:
     dance-single:
     Daff_4K:
     Medium:
     9:
     0.371357,0.421874,0.217835,0.297708,0.014522,358.000000,328.000000,30.000000,41.000000,0.000000,0.000000,0.371357,0.421874,0.217835,0.297708,0.014522,358.000000,328.000000,30.000000,41.000000,0.000000,0.000000:
0000
0000
0000
0000
,
0000
0000
0000
0000
,
0000
0000
0000
0000
,
0000
0000
0000
0000
,
0000
0000
0000
0000
,
0000
0000
0000
0000
,
0000
0000
0000
0000
,
0000
0000
0000
0000
,
0001
0001
0001
0001
,
0001
0001
0001
0001
,
1000
1000
1000
1000
,
1000
1000
1000
1000
,
0100
0100
0010
0010
,
0001
0001
1000
1000
,
0010
0100
0001
1000
,
0001
0010
0001
0000
1000
0010
1000
0000
,
2002
0000
0000
3003
,
0001
1000
0000
0010
0000
0100
0000
0001
,
1000
0100
1000
0000
0020
0000
1030
0000
,
0001
0100
0001
0000
0020
0000
0031
0000
,
1000
0000
0010
0000
0100
0001
1000
0000
,
0001
0000
0010
0000
0100
1000
0001
0000
,
1000
1010
1000
1100
,
0001
0011
0001
0101
,
1000
0010
1000
0000
0001
0010
0001
0000
,
1000
0001
2002
3003
,
1000
0000
0100
0000
0010
0001
0010
0000
,
0001
0100
1000
0100
,
0001
0000
0100
0000
0010
1000
0010
0000
,
1000
0000
0001
0000
0000
0010
0000
0000
0200
0000
0000
0000
0300
0000
0000
0000
,
1000
0010
1000
0000
0010
0001
0010
0000
,
0001
0100
1000
0000
,
0001
0010
0001
0000
0010
1000
0010
0000
,
1000
0100
0001
0000
,
1000
0100
1000
0000
0010
0001
0010
0000
,
1000
0100
0010
0000
,
0001
0100
0001
0000
0010
1000
0010
0000
,
0001
0100
0010
1000
,
0200
0010
0010
0310
,
0002
0103
2000
3100
,
0001
0011
1000
1010
,
0001
0101
1010
1000
,
0002
1000
1000
1003
,
2000
3100
0002
0103
,
2000
3010
0002
0013
,
2000
0000
0100
0000
3100
0000
0010
0001
,
0200
0010
0010
0310
,
2000
3100
0002
0103
,
1000
1010
0001
0011
,
1000
1100
0011
0001
,
2000
0001
0001
3001
,
0002
0103
2000
3100
,
0001
0010
0001
0000
1000
0010
1000
0000
,
0100
0010
0100
0010
0001
1000
0001
0000
,
1000
0010
1000
0000
0002
0000
1003
0000
,
0001
0010
0001
0000
2000
0000
3001
0000
,
0100
0000
1001
0000
1000
0010
1000
0000
,
0100
0000
1001
0000
0001
0010
0001
0000
,
1000
1010
0001
0101
,
0001
0011
1000
1100
,
1000
0010
1000
0000
0001
0010
0001
0000
,
0100
0100
0010
0000
2002
0000
3003
0000
,
1000
0001
0100
0000
0020
0000
0130
0000
,
0001
1000
0100
0000
0020
0000
0130
0000
,
1000
0000
1010
0000
0100
0001
1000
0000
,
0001
0000
0011
0000
0100
1000
0001
0000
,
1000
0000
1010
0000
1000
0100
1000
0000
,
0001
0000
0011
0000
0001
0100
0001
0000
,
1000
0010
1000
0000
0001
0100
0001
0000
,
0010
0010
0010
0000
2002
0000
3003
0000
,
0001
0010
0001
0000
1000
0100
1000
0000
,
0010
0010
0010
0000
2002
0000
3003
0000
,
0001
0010
0001
0000
1000
0010
1000
0000
,
0220
0000
0000
0330
,
2002
0000
0000
3003
,
1000
0000
0100
0000
0010
0001
1000
0000
,
0010
0001
0010
0100
,
0001
0000
0100
0000
0010
1000
0001
0000
,
1000
0000
0100
0000
0000
0010
0000
0000
0200
0000
0000
0000
1300
0000
0000
0000
,
0001
0000
0100
0000
0000
0010
0000
0000
0200
0000
0000
0000
0301
0000
0000
0000
,
1000
0000
0001
0000
0000
0010
0000
0000
0200
0000
0000
0000
0310
0000
0000
0000
,
2002
0000
0000
0000
,
0000
0000
0000
0000
,
3003
0000
0000
0000
;

//---------------dance-single - Daff_4K----------------
#NOTES:
     dance-single:
     Daff_4K:
     Hard:
     12:
     0.481311,0.512275,0.188790,0.225096,0.181529,464.000000,438.000000,26.000000,31.000000,0.000000,0.000000,0.481311,0.512275,0.188790,0.225096,0.181529,464.000000,438.000000,26.000000,31.000000,0.000000,0.000000:
// measure 0
0000
0000
0000
0000
,  // measure 1
0000
0000
0000
0000
,  // measure 2
0000
0000
0000
0000
,  // measure 3
0000
0000
0000
0000
,  // measure 4
0000
0000
0000
0000
,  // measure 5
0000
0000
0000
0000
,  // measure 6
0000
0000
0000
0000
,  // measure 7
0000
0000
0000
0000
,  // measure 8
0002
0100
1000
0100
,  // measure 9
1000
0010
1000
0010
,  // measure 10
2003
0100
0001
0100
,  // measure 11
0001
0010
0001
0010
,  // measure 12
3002
0010
1000
0010
,  // measure 13
2003
0010
0001
0010
,  // measure 14
3001
0100
0001
0000
1000
0100
1000
0000
,  // measure 15
0001
0010
0100
1000
0010
0100
0001
0000
,  // measure 16
2002
0000
0000
3003
,  // measure 17
1000
0001
0000
0011
0000
1100
0000
1000
,  // measure 18
0001
0000
0100
0000
0010
0000
0000
0000
0100
0001
0000
0000
0001
1000
0000
0000
,  // measure 19
1000
0000
0100
0000
0010
0000
0000
0000
0100
1000
0000
0000
1000
0001
0000
0000
,  // measure 20
0001
0100
0010
0000
0010
1000
0001
0000
,  // measure 21
1000
0100
0010
0000
0010
0001
1000
0000
,  // measure 22
1000
0001
0000
0000
0101
0000
0000
0000
0010
1000
0000
0000
1000
0001
0000
0000
,  // measure 23
0001
1000
0000
0000
1100
0000
0000
0000
0010
0001
0000
0000
0001
1000
0000
0000
,  // measure 24
1000
0010
0100
0000
0001
0010
0100
0000
,  // measure 25
1000
0001
1001
0000
0110
0000
1001
0000
,  // measure 26
0001
0010
0100
0010
0001
0100
0010
0000
,  // measure 27
1000
0001
0010
0000
0001
1000
0010
0000
,  // measure 28
1000
0010
0100
0010
1000
0100
0010
0000
,  // measure 29
0001
0000
1000
0000
0010
0100
0000
0100
0020
0000
0000
0000
1030
0000
0000
0000
,  // measure 30
0001
1000
0100
0000
0001
1000
0100
0000
,  // measure 31
0001
1000
0100
0010
0100
1000
0001
0000
,  // measure 32
1000
0010
0100
0000
1000
0010
0100
0000
,  // measure 33
1000
0010
0100
0001
0010
0100
1000
0000
,  // measure 34
1000
0001
0100
0000
1000
0001
0100
0000
,  // measure 35
1000
0001
0100
0010
0100
0001
1000
0000
,  // measure 36
0001
0010
0100
0000
0001
0010
0100
0000
,  // measure 37
0001
0010
0100
1000
0010
0100
0001
0000
,  // measure 38
2000
0100
0001
3020
,  // measure 39
0230
0000
0001
0000
0320
0000
1030
0001
,  // measure 40
0010
0000
0000
0010
0100
0000
0000
0100
1000
0000
0000
1000
0001
0000
0000
0001
,  // measure 41
0100
0000
0000
0100
0010
0000
0000
0010
1000
0000
0100
0000
0010
0000
0001
0000
,  // measure 42
0200
1000
0010
0302
,  // measure 43
2003
0000
0100
0000
3020
0000
0130
0001
,  // measure 44
2000
3100
0012
1003
,  // measure 45
0001
0100
0010
0000
1000
0100
0010
0000
,  // measure 46
0002
0100
1000
0023
,  // measure 47
0230
0000
1000
0000
0320
0000
0031
1000
,  // measure 48
0010
0000
0000
0010
0100
0000
0000
0100
0001
0000
0000
0001
1000
0000
0000
1000
,  // measure 49
0100
0000
0000
0100
0010
0000
0000
0010
0001
0000
0100
0000
0010
0000
1000
0000
,  // measure 50
0200
0001
0010
2300
,  // measure 51
3002
0000
0100
0000
0023
0000
0130
1000
,  // measure 52
0010
0010
0100
0100
0001
0001
1000
1000
,  // measure 53
0100
0010
0001
0100
0010
1000
0100
0010
,  // measure 54
0001
0000
1000
0000
0010
0000
0000
0000
0100
0001
0000
0000
0001
1000
0000
0000
,  // measure 55
1000
0000
0001
0000
0010
0000
0000
0000
0100
1000
0000
0000
1000
0001
0000
0000
,  // measure 56
0100
0001
1000
0000
0100
0001
1000
0000
,  // measure 57
0100
1000
0001
0000
0100
1000
0001
0000
,  // measure 58
1000
0001
0000
0000
0101
0000
0000
0000
0010
1000
0000
0000
1000
0001
0000
0000
,  // measure 59
0001
1000
0000
0000
1100
0000
0000
0000
0010
0001
0000
0000
0001
1000
0000
0000
,  // measure 60
1000
0010
0100
0000
0001
0010
0100
0000
,  // measure 61
1000
0001
1001
0000
0110
0000
1001
0000
,  // measure 62
0001
0000
0010
0000
0100
0000
1000
0000
0001
0100
0000
0000
0100
0001
0000
0000
,  // measure 63
1000
0000
0010
0000
0100
0000
0001
0000
1000
0100
0000
0000
0100
1000
0000
0000
,  // measure 64
0001
0010
0100
0000
0001
0010
0100
0000
,  // measure 65
1000
0010
0100
0000
1000
0010
0100
0000
,  // measure 66
0001
0010
0000
0000
0110
0000
0000
0000
0100
1000
0000
0000
1000
0001
0000
0000
,  // measure 67
1000
0010
0000
0000
0110
0000
0000
0000
0100
0001
0000
0000
0001
1000
0000
0000
,  // measure 68
0001
0010
1000
0000
0001
0100
1000
0000
,  // measure 69
0010
0100
0110
0000
1001
0000
0110
0000
,  // measure 70
1000
0010
0001
0000
1000
0100
0001
0000
,  // measure 71
0010
0100
0110
0000
1001
0000
0110
0000
,  // measure 72
0001
0010
0100
0000
1000
0010
0100
0000
,  // measure 73
1002
0010
0100
0013
,  // measure 74
2001
0010
0100
3010
,  // measure 75
1000
0100
0010
0100
1000
0010
0100
0000
,  // measure 76
0001
0010
1000
0000
0001
0100
1000
0000
,  // measure 77
0001
0100
0010
0100
0001
0010
0100
0000
,  // measure 78
1000
0000
0010
0000
0100
0001
0000
0001
2000
0000
0000
0000
3001
0000
0000
0000
,  // measure 79
0001
0000
0010
0000
0100
1000
0000
1000
0002
0000
0000
0000
1003
0000
0000
0000
,  // measure 80
1000
0000
0001
0000
0100
0010
0000
0010
0100
0000
0000
0000
1001
0000
0000
0000
,  // measure 81
0220
0000
0000
0000
,  // measure 82
0000
0000
0000
0000
,  // measure 83
0330
0000
0000
0000
;

//---------------dance-single - レッツゴー!D4K----------------
#NOTES:
     dance-single:
     レッツゴー!D4K:
     Challenge:
     13:
     0.547699,0.783479,0.232357,0.246880,0.301338,528.000000,496.000000,32.000000,34.000000,0.000000,0.000000,0.547699,0.783479,0.232357,0.246880,0.301338,528.000000,496.000000,32.000000,34.000000,0.000000,0.000000:
0000
0000
0000
0000
,
0000
0000
0000
0000
,
0000
0000
0000
0000
,
0000
0000
0000
0000
,
0000
0000
0000
0000
,
0000
0000
0000
0000
,
0000
0000
0000
0000
,
0000
0000
0000
0000
,
2000
0100
0001
0100
,
0010
0100
0001
0010
,
3002
0100
1000
0100
,
0010
0100
1000
0010
,
1003
0100
1000
0100
0001
0100
0001
0100
,
1000
0010
1000
0010
0001
0010
0001
0010
,
1000
0100
0010
0001
0100
0010
1000
0001
,
0010
0100
0010
0100
0010
0100
0010
0100
1000
0001
1000
0001
1000
0001
1000
0002
,
2000
0000
0000
3003
,
0001
1000
0000
0110
0000
1001
0000
1000
,
0001
0010
0001
0000
1000
0000
0000
0000
0001
0100
0000
0000
0100
1000
0000
0000
,
1000
0010
1000
0000
0001
0000
0000
0000
1000
0100
0000
0000
0100
0001
0000
0000
,
0001
0010
0010
1000
0010
0010
0001
0000
,
1000
0010
0010
0001
0010
0010
1000
0000
,
0001
0100
0001
0000
1000
0000
0000
0000
1000
0010
0000
0000
0010
0001
0000
0000
,
1000
0100
1000
0000
0001
0000
0000
0000
0001
0010
0000
0000
0010
1000
0000
0000
,
0001
0010
1000
0010
0100
1000
0010
0001
,
0010
0100
1001
0000
0110
0000
1001
0000
,
0001
0000
1000
0010
0000
0100
0010
0000
0001
0000
0010
0000
1000
0000
0000
0000
,
0001
0010
0100
1000
0010
0100
0001
0000
,
1000
0000
0001
0010
0000
0100
0010
0000
1000
0000
0010
0000
0001
0000
0000
0000
,
1000
0000
0001
0000
0100
0010
0000
0010
0100
0000
0000
0000
1001
0000
0000
0000
,
2000
0100
3002
0010
,
0103
1000
0010
1000
0100
0001
0010
0000
,
0200
1000
0320
0001
,
0130
1000
0010
0001
0010
0000
1001
0000
,
0002
0100
2003
0010
,
3100
0001
0010
0001
0100
1000
0010
0000
,
0200
0001
0320
1000
,
0130
0000
1001
0000
0010
0100
0010
0000
,
1002
0100
0010
2003
,
3020
0000
0031
0000
1200
0000
0301
1000
,
0001
0000
0000
0010
0100
0000
0000
1000
0100
0000
0000
0010
0001
0000
0000
1000
,
0010
0000
0000
0100
0001
0000
0000
0010
0100
0000
1000
0000
0001
1000
0001
0000
,
0020
1000
0100
0032
,
2003
0000
3010
0000
0102
0000
0013
0100
,
1000
1010
0110
0101
,
0001
0000
0010
0000
0100
0000
1000
0000
0010
0000
0100
0010
0100
0000
0001
0000
,
2001
0100
0010
3002
,
0023
0000
1030
0000
0201
0000
1300
0001
,
1000
0000
0000
0010
0100
0000
0000
0001
0100
0000
0000
0010
1000
0000
0000
0001
,
0010
0000
0000
0100
1000
0000
0000
0010
0100
0000
0001
0000
1000
0001
1000
0000
,
0020
0001
0100
2030
,
3002
0000
0013
0000
2100
0000
3001
0100
,
1000
0100
0010
1000
0100
0001
0100
0010
,
0001
0100
0001
0100
0010
1000
0010
1000
0100
0010
0100
0010
0100
0010
0100
0010
,
0001
1000
0001
0000
0010
0000
0000
0000
0001
0100
0000
0000
0100
1000
0000
0000
,
1000
0001
1000
0000
0010
0000
0000
0000
1000
0100
0000
0000
0100
0001
0000
0000
,
0001
0010
0010
1000
0100
0100
0001
0000
,
1000
0010
0010
0001
0100
0100
1000
0000
,
0001
1000
0001
0000
0100
0000
0000
0000
0001
0010
0000
0000
0010
1000
0000
0000
,
1000
0001
1000
0000
0100
0000
0000
0000
1000
0010
0000
0000
0010
0001
0000
0000
,
0001
0100
1000
0100
0010
1000
0100
0001
,
0100
0010
1001
0000
0110
0000
1001
0000
,
1000
0001
1000
0000
0100
0000
0010
0000
0001
0100
0000
0000
0100
1000
0000
0000
,
0001
1000
0001
0000
0100
0000
0010
0000
1000
0100
0000
0000
0100
0001
0000
0000
,
1000
0001
0100
0100
1000
0010
0100
0000
,
0001
1000
0100
0100
0001
0010
0100
0000
,
0010
0100
0010
0000
0001
0000
1000
0000
0001
0100
0000
0000
0100
1000
0000
0000
,
0010
0100
0010
0000
1000
0000
0001
0000
1000
0100
0000
0000
0100
0001
0000
0000
,
1000
0100
0100
0001
0010
0010
1000
0001
,
0010
0110
1001
0000
0110
0000
1001
0000
,
0001
0100
0100
1000
0010
0010
0001
1000
,
0010
0110
1001
0000
0110
0000
1001
0000
,
1000
0100
0010
0001
0100
0010
1000
0000
,
1200
0000
0001
0000
0310
0001
1000
0000
,
0201
0000
1000
0000
0310
1000
0001
0000
,
1000
0000
0100
0010
0000
0100
0001
0000
0100
0000
1000
0000
0001
0000
0000
0000
,
1000
0010
0001
1000
0100
0001
1000
0000
,
0001
0000
0100
0010
0000
0100
1000
0000
0100
0000
0001
0000
1000
0000
0000
0000
,
0001
0000
1000
0000
0001
0010
0000
0010
2000
0000
0000
0000
3001
0000
0000
0000
,
1000
0000
0001
0000
1000
0010
0000
0010
0002
0000
0000
0000
1003
0000
0000
0000
,
0001
0000
1000
0000
0010
0100
0000
0100
0010
0000
0000
0000
1001
0000
0000
0000
,
0220
0000
0000
0000
,
0000
0000
0000
0000
,
0330
0000
0000
0000
;
