#VERSION:0.83;
#TITLE:カッコ悪い I love you!;
#SUBTITLE:;
#ARTIST:フレンチ・キス;
#TITLETRANSLIT:Kakkowarui I love you!;
#SUBTITLETRANSLIT:;
#ARTISTTRANSLIT:French Kiss;
#GENRE:J-POP;
#ORIGIN:;
#CREDIT:;
#BANNER:Kakkowarui I love you!.png;
#BACKGROUND:Kakkowarui I love you!-bg.png;
#PREVIEWVID:;
#JACKET:Kakkowarui I love you!-jacket.png;
#CDIMAGE:;
#DISCIMAGE:;
#LYRICSPATH:;
#CDTITLE:cdtitle.png;
#MUSIC:Kakkowarui I love you!.ogg;
#OFFSET:-0.079000;
#SAMPLESTART:54.458000;
#SAMPLELENGTH:15.000000;
#SELECTABLE:YES;
#BPMS:0.000=150.000;
#STOPS:;
#DELAYS:;
#WARPS:;
#TIMESIGNATURES:0.000=4=4;
#TICKCOUNTS:0.000=4;
#COMBOS:0.000=1;
#SPEEDS:0.000=1.000=0.000=0;
#SCROLLS:0.000=1.000;
#FAKES:;
#LABELS:0.000=Song Start;
#BGCHANGES:0.000=Kakkowarui I love you!.avi=1.000=0=0=0=StretchNoLoop==CrossFade_Fastest==,
99999=-nosongbg-=1.000=0=0=0 // don't automatically add -songbackground-
;
#KEYSOUNDS:;
#ATTACKS:
;

//---------------dance-single - Daff_4K----------------
#NOTEDATA:;
#CHARTNAME:Daff_4K;
#STEPSTYPE:dance-single;
#DESCRIPTION:Daff_4K;
#CHARTSTYLE:;
#DIFFICULTY:Beginner;
#METER:1;
#RADARVALUES:0.116158,0.151780,0.054207,0.000000,0.000000,75.000000,70.000000,5.000000,0.000000,0.000000,0.000000,0.000000,0.000000,0.000000,0.116158,0.151780,0.054207,0.000000,0.000000,75.000000,70.000000,5.000000,0.000000,0.000000,0.000000,0.000000,0.000000,0.000000;
#CREDIT:Daff_4K;
#NOTES:
0000
0000
0000
0000
,
0000
0000
0000
0000
,
0000
0000
0000
0000
,
0000
0000
0000
0000
,
1000
0000
0000
0000
,
0001
0000
0000
0000
,
1000
0000
0000
0000
,
0010
0000
0010
0000
,
0110
0000
0000
0000
,
0000
0000
0000
0000
,
0001
0000
0000
0000
,
1000
0000
1000
0000
,
1000
0000
0000
0000
,
0010
0000
0010
0000
,
0010
0000
0000
0000
,
0100
0000
0100
0000
,
0100
0000
0000
0001
,
0000
0000
1000
1000
,
1000
0000
0000
0000
,
0001
0000
0001
0000
,
0001
0000
0000
0000
,
0010
0000
0010
0000
,
0010
0000
0000
0000
,
0100
0000
0100
0000
,
0100
0000
0000
1000
,
0000
0000
0001
0000
,
1001
0000
0000
0000
,
1000
0000
0000
0000
,
0010
0000
0010
0000
,
0010
0000
0000
0000
,
0100
0000
0000
0000
,
0001
0000
0000
0000
,
0010
0000
0010
0000
,
0100
0000
0100
0000
,
1000
0000
1000
0000
,
1000
0000
0000
0000
,
0001
0000
0001
0000
,
0001
0000
0000
0000
,
1001
0000
0000
0000
,
1000
0000
0000
0000
,
0100
0000
0000
0000
,
0010
0000
0000
0000
,
0001
0000
0001
0000
,
0001
0000
0000
0000
,
1000
0000
1000
0000
,
1000
0000
0000
0000
,
1001
0000
0000
0000
,
0001
0000
0000
0000
,
0100
0000
0000
0000
,
0010
0000
0000
0000
,
1000
0000
0000
0000
,
0001
0000
0000
0000
,
1001
0000
0000
0000
,
1000
0000
0000
0000
,
0001
0000
0000
0000
,
0010
0000
0010
0000
,
0010
0000
0000
0000
;

//---------------dance-single - Daff_4K----------------
#NOTEDATA:;
#CHARTNAME:Daff_4K;
#STEPSTYPE:dance-single;
#DESCRIPTION:Daff_4K;
#CHARTSTYLE:;
#DIFFICULTY:Easy;
#METER:4;
#RADARVALUES:0.238511,0.303559,0.065048,0.249352,0.000000,154.000000,148.000000,6.000000,23.000000,0.000000,0.000000,0.000000,0.000000,0.000000,0.238511,0.303559,0.065048,0.249352,0.000000,154.000000,148.000000,6.000000,23.000000,0.000000,0.000000,0.000000,0.000000,0.000000;
#CREDIT:Daff_4K;
#NOTES:
0000
0000
0000
0000
,
0000
0000
0000
0000
,
0000
0000
0000
0000
,
0000
0000
0000
0000
,
1000
0010
1000
0000
,
0001
0010
0001
0000
,
0100
0010
0100
0000
,
0001
0000
1000
0000
,
1001
0000
0000
0000
,
0000
0000
0000
0000
,
0002
0000
0013
0000
,
0001
1000
0001
0000
,
2000
0000
3100
0000
,
1000
0001
1000
0000
,
0020
0000
0130
0000
,
0001
1000
0001
0000
,
0010
0010
0100
0100
,
1000
1000
0001
0001
,
2000
0000
3010
0000
,
1000
0001
1000
0000
,
0002
0000
0103
0000
,
0001
1000
0001
0000
,
0020
0000
0130
0000
,
1000
0001
1000
0000
,
0010
0010
0100
0100
,
0001
0001
1000
1000
,
2002
0000
3003
0000
,
0001
0100
1000
0100
,
0002
0000
1003
0000
,
2000
0000
3001
0000
,
0001
0010
0100
0000
,
1000
0010
0100
0000
,
0001
0001
1000
1000
,
0100
0010
0100
0010
,
0002
0003
2000
3000
,
0001
0100
1000
0100
,
0020
0030
0200
0300
,
0001
0010
0100
1000
,
1001
0000
0001
0100
,
0010
0000
1000
0001
,
0010
0010
0100
0100
,
1000
0010
0100
0001
,
2000
3000
0002
0003
,
1000
0100
0001
0100
,
0020
0030
0200
0300
,
1000
0010
0100
0001
,
1001
0000
1000
0100
,
0010
0000
0001
1000
,
0010
0010
0100
0100
,
0001
0010
0100
1000
,
0010
0100
0010
0000
,
0220
0000
0000
0330
,
2002
0000
0000
3003
,
0001
0010
0001
0000
,
1000
0010
1000
0000
,
0200
0000
0310
0001
,
1000
0000
0000
0000
;

//---------------dance-single - Daff_4K----------------
#NOTEDATA:;
#CHARTNAME:Daff_4K;
#STEPSTYPE:dance-single;
#DESCRIPTION:Daff_4K;
#CHARTSTYLE:;
#DIFFICULTY:Medium;
#METER:7;
#RADARVALUES:0.385644,0.455339,0.140938,0.466180,0.000000,249.000000,236.000000,13.000000,43.000000,0.000000,0.000000,0.000000,0.000000,0.000000,0.385644,0.455339,0.140938,0.466180,0.000000,249.000000,236.000000,13.000000,43.000000,0.000000,0.000000,0.000000,0.000000,0.000000;
#CREDIT:Daff_4K;
#NOTES:
0000
0000
0000
0000
,
0000
0000
0000
0000
,
0000
0000
0000
0000
,
0000
0000
0000
0000
,
1000
0000
0010
0200
0000
0310
1000
0000
,
0001
0000
0010
0200
0000
0310
0001
0000
,
1000
0000
0001
0200
0000
0310
0000
1000
,
0000
0100
0010
0100
0000
1000
0001
0000
,
2000
0100
0001
3010
,
1000
0000
0001
0100
0000
0100
0010
0000
,
2000
0000
0010
0000
3001
0000
1000
0100
,
0000
1000
0000
0001
0000
1000
0010
0000
,
0200
0000
0001
0000
0310
0000
0100
0001
,
0000
1000
0000
0001
0000
0010
0100
0000
,
2000
0000
0100
0000
3001
0000
1000
0010
,
0000
0001
0000
0010
1000
0000
1001
0000
,
0001
0010
0001
0000
1000
0010
1000
0000
,
0100
0010
0001
0000
0110
0000
1001
0000
,
0002
0010
1003
0001
,
0100
0010
0100
0000
0001
0000
0010
0000
,
0200
1000
0310
0100
,
1000
0001
1000
0000
0010
0000
0100
0000
,
0002
0100
1003
0001
,
0010
0100
0010
0000
0001
0000
1001
0000
,
1000
0010
1000
0000
0001
0010
0001
0000
,
0100
0010
1000
0000
0110
0000
1001
0000
,
2000
0100
0001
3010
,
1000
0000
0100
0010
0100
0000
0001
0000
,
0200
0310
0002
0103
,
2000
3100
0002
1003
,
0001
0000
0010
0000
0100
1000
0100
0000
,
1000
0000
0010
0000
0100
0001
0100
0000
,
0001
0010
0001
0000
1000
0010
1000
0000
,
0100
0010
0100
0000
1000
0001
1000
0000
,
0002
0103
2000
3100
,
0001
0000
0010
0000
0100
1000
0100
0000
,
2000
3010
0002
0103
,
1000
0000
0001
0000
0100
0010
0100
0000
,
2002
0000
3003
0000
0001
0010
0001
0000
,
2200
0000
3300
0000
1000
0001
1000
0000
,
0002
0103
2000
3100
,
0001
0000
0010
0100
0000
1000
0001
0000
,
2000
3100
0002
0103
,
1000
0000
0010
0000
0100
0001
0100
0000
,
0002
0013
2000
3100
,
0001
0000
1000
0000
0100
0010
0100
0000
,
2002
0000
3003
0000
1000
0010
1000
0000
,
0202
0000
0303
0000
0001
1000
0001
0000
,
2000
3100
0002
0103
,
1000
0000
0010
0100
0000
0001
1000
0000
,
0100
0010
0100
1000
0000
0001
0000
2002
,
0000
0000
0000
3003
,
0220
0000
0330
1001
,
1000
0000
0100
0010
0000
0100
0000
1000
,
0001
0000
0100
0010
0000
0100
0000
0001
,
0020
0230
2300
0002
,
3003
0000
0000
0000
;

//---------------dance-single - Daff_4K----------------
#NOTEDATA:;
#CHARTNAME:Daff_4K;
#STEPSTYPE:dance-single;
#DESCRIPTION:Daff_4K;
#CHARTSTYLE:;
#DIFFICULTY:Hard;
#METER:11;
#RADARVALUES:0.509546,0.516051,0.346925,0.455339,0.054207,329.000000,297.000000,32.000000,42.000000,0.000000,0.000000,0.000000,0.000000,0.000000,0.509546,0.516051,0.346925,0.455339,0.054207,329.000000,297.000000,32.000000,42.000000,0.000000,0.000000,0.000000,0.000000,0.000000;
#CREDIT:Daff_4K;
#NOTES:
0000
0000
0000
0000
,
0000
0000
0000
0000
,
0000
0000
0000
0000
,
0000
0000
0000
0000
,
1000
0010
0100
0002
0000
1000
1003
0000
,
0001
0010
0100
2000
0000
0001
3001
0000
,
1000
0100
0010
0002
0000
0103
0010
1000
,
0100
0010
0001
0100
0010
1000
0001
0000
,
2001
0000
3010
0100
0000
0101
0000
0001
,
2000
0000
3100
0020
0000
0031
2000
0000
,
3002
0000
0010
0000
1003
0000
0001
0100
,
0000
0110
0000
1001
0000
1000
0001
0000
,
0020
0000
1000
0000
0130
0000
0010
0001
,
0000
0101
0000
1010
0000
1000
0001
0000
,
2000
0000
0010
0000
3001
0000
1000
0100
,
0000
0110
0000
0010
0001
0000
1001
0000
,
1000
0010
0001
1000
0100
0001
1000
0100
,
0001
1000
0010
0001
1000
0000
1001
0000
,
0201
0000
0010
0000
1300
0000
0100
0001
,
0000
0001
1000
0100
0010
0001
1000
0000
,
0002
0000
0100
0000
1003
0000
0001
0010
,
0000
1100
0000
1001
0000
0001
1000
0000
,
1200
0000
0010
0000
0301
0000
0100
1000
,
0000
1000
0001
0100
0010
0000
1001
0000
,
0001
0010
1000
0001
0100
1000
0001
0100
,
1000
0001
0010
1000
0001
0000
1001
0000
,
2100
0001
0010
3001
,
1000
0100
0010
0000
0001
0100
0010
0000
,
2010
3100
0012
0103
,
2100
3010
0102
0013
,
1001
0000
1000
0100
0010
0000
0001
0100
,
0010
0000
1000
0001
0010
0001
1000
0010
,
1000
0100
1000
0001
0100
0001
0010
0100
,
1000
0010
0100
0001
0010
0100
0010
0000
,
2001
0000
3100
0010
0002
0000
0103
0010
,
2000
0000
3001
0010
0000
1100
0000
1000
,
0002
0000
0103
0010
2000
0000
3001
0010
,
0200
0000
1300
0001
0000
0101
0000
0010
,
2000
0000
3100
0100
0010
0001
0200
0000
,
0302
0000
0000
0000
0013
0000
0010
0000
0100
0000
1000
0000
0010
0000
0000
0010
,
0100
0000
0000
0100
0001
0000
0000
0001
1000
0000
0000
1000
0100
0000
0000
0100
,
0020
0000
0031
0100
1000
0100
0001
0000
,
1002
0000
0103
0010
2000
0000
3100
0010
,
0002
0000
1003
0010
0000
0101
0000
0001
,
2000
0000
3100
0010
0002
0000
1003
0010
,
0200
0000
0301
1000
0000
1100
0000
0010
,
0002
0000
0103
0100
0010
1000
0200
0000
,
2300
0000
0000
0000
3010
0000
0010
0000
0100
0000
0001
0000
0010
0000
0000
0010
,
0100
0000
0000
0100
1000
0000
0000
1000
0001
0000
0000
0001
0100
0000
0000
0100
,
0020
0000
1030
0100
0001
0100
1000
0001
,
0100
0010
1000
0001
0000
0110
0000
1001
,
0000
1000
0001
0100
0010
1000
0001
0000
,
2002
0000
0000
3003
,
1000
0100
1000
0001
0000
1001
0000
1000
,
0001
0100
0001
1000
0000
1001
0000
0001
,
0020
0000
0130
1000
0001
0100
0020
0000
,
0030
0000
0000
0000
;

//---------------dance-single - Daff_4K----------------
#NOTEDATA:;
#CHARTNAME:Daff_4K;
#STEPSTYPE:dance-single;
#DESCRIPTION:Daff_4K;
#CHARTSTYLE:;
#DIFFICULTY:Challenge;
#METER:13;
#RADARVALUES:0.648935,0.667830,0.444497,0.205987,0.271035,419.000000,378.000000,41.000000,19.000000,0.000000,0.000000,0.000000,0.000000,0.000000,0.648935,0.667830,0.444497,0.205987,0.271035,419.000000,378.000000,41.000000,19.000000,0.000000,0.000000,0.000000,0.000000,0.000000;
#CREDIT:Daff_4K;
#NOTES:
// measure 0
0000
0000
0000
0000
,  // measure 1
0000
0000
0000
0000
,  // measure 2
0000
0000
0000
0000
,  // measure 3
0000
0000
0000
0000
,  // measure 4
1000
0000
0010
0100
0010
0000
2000
0000
0000
0000
3100
0000
0020
0000
0000
0000
,  // measure 5
0031
0000
0100
0010
0100
0000
0002
0000
0000
0000
0013
0000
0200
0000
0000
0000
,  // measure 6
1300
0000
0001
1000
0001
0000
0200
0000
0000
0000
0310
0000
1000
0000
0001
0000
,  // measure 7
1000
0000
0100
0000
0010
0000
0001
0000
0100
0010
0100
0010
0100
0010
0100
0010
,  // measure 8
1000
0001
0010
0110
0000
1001
0000
1000
,  // measure 9
0020
0000
0000
0000
0130
0000
0002
0000
0000
0000
1003
0000
0100
0010
0100
0010
,  // measure 10
0002
0000
0100
0000
1003
0001
0010
0110
,  // measure 11
0000
1001
0000
1010
0000
0100
0002
0000
,  // measure 12
2003
0000
0100
0000
3010
1000
0001
0011
,  // measure 13
0000
1100
0000
1001
0000
0001
0100
0010
,  // measure 14
2010
0000
0100
0000
3001
1000
0010
0110
,  // measure 15
0000
1001
0000
0100
0010
0000
1001
0000
,  // measure 16
0001
0100
1000
0001
0010
0100
0001
0010
,  // measure 17
1000
0001
0100
0010
0001
0000
0110
0000
,  // measure 18
2001
0000
0100
0000
3010
0100
0001
0011
,  // measure 19
0000
1100
1000
0001
0100
0010
2010
0000
,  // measure 20
3200
0000
0001
0000
0310
0001
0100
0110
,  // measure 21
0000
1001
0000
1100
0100
0010
0001
1000
,  // measure 22
1002
0000
0100
0000
0013
0100
1000
1010
,  // measure 23
0000
0000
0101
0000
0001
0000
1000
0000
0100
0000
0010
0000
0001
0000
1000
0001
,  // measure 24
1000
0100
0001
1000
0010
0100
1000
0010
,  // measure 25
0001
1000
0100
0010
1000
0000
0110
0000
,  // measure 26
1002
0000
0010
0000
0103
0010
1000
0001
,  // measure 27
0020
0000
0130
1000
1010
0000
0101
0000
,  // measure 28
1001
0000
0000
1000
0100
0000
0010
0000
0001
0000
0000
0001
0100
0000
0010
0000
,  // measure 29
1000
0000
0000
1000
0001
0000
0010
0000
0100
0000
1000
0000
0001
0000
0100
0010
,  // measure 30
0100
0010
1000
0001
1000
0100
0010
0001
,  // measure 31
1000
0001
0100
0010
1000
0100
0010
0001
,  // measure 32
1000
0010
1000
0000
0010
0000
0100
0000
0001
0000
0010
0000
0100
0000
1000
0000
,  // measure 33
0001
0010
0001
0000
0010
0000
0100
1000
0100
0000
1000
0000
0001
1000
0001
1000
,  // measure 34
0001
0000
0000
0001
0100
0000
0010
0000
1000
0000
0000
1000
0100
0000
0010
0000
,  // measure 35
0001
0100
0010
0100
1000
0100
0001
0010
,  // measure 36
0100
0000
0000
0100
1000
0000
0001
0000
0100
0000
0000
0100
0010
0000
1000
0000
,  // measure 37
0001
0000
0000
0001
0010
0000
0100
0000
1000
0000
0010
0000
0100
0000
0001
0000
,  // measure 38
1001
0000
0000
1000
0010
0000
0010
0000
0001
0000
0010
0000
0100
0000
0000
0000
,  // measure 39
1001
0000
0000
0001
0100
0000
0100
0000
1000
0000
0100
0000
0010
0000
0000
0000
,  // measure 40
1001
0000
0000
1000
0100
0000
0000
0100
0001
0000
0000
0001
0010
0000
0000
0010
,  // measure 41
1000
0000
0100
0000
0010
0000
0001
0000
0100
0000
0010
0000
1000
0001
1000
0001
,  // measure 42
1000
0000
0000
1000
0100
0000
0010
0000
0001
0000
0000
0001
0100
0000
0010
0000
,  // measure 43
1000
0100
0010
0100
0001
0100
1000
0010
,  // measure 44
0100
0000
0000
0100
0001
0000
1000
0000
0100
0000
0000
0100
0010
0000
0001
0000
,  // measure 45
1000
0000
0000
1000
0010
0000
0100
0000
0001
0000
0010
0000
0100
0000
1000
0000
,  // measure 46
1001
0000
0000
0001
0010
0000
0010
0000
1000
0000
0010
0000
0100
0000
0000
0000
,  // measure 47
1001
0000
0000
1000
0100
0000
0100
0000
0001
0000
0100
0000
0010
0000
0000
0000
,  // measure 48
1001
0000
0000
0001
0100
0000
0000
0100
1000
0000
0000
1000
0010
0000
0000
0010
,  // measure 49
0001
0000
0100
0000
0010
0000
1000
0000
0100
0000
0010
0000
0001
1000
0001
1000
,  // measure 50
0010
0100
0001
1001
0000
0110
0000
1001
,  // measure 51
0000
1000
0100
0000
0010
0000
0001
0000
0100
0000
0010
0000
1000
0001
1000
0002
,  // measure 52
2000
0000
0000
3003
,  // measure 53
0001
0100
0010
1010
0000
0101
0000
0001
,  // measure 54
1000
0100
0010
0011
0000
1100
0000
1000
,  // measure 55
0001
0000
0100
0000
0010
0000
1000
0000
0100
0000
0010
0000
0001
1000
0001
1000
,  // measure 56
0001
0000
0000
0000
;
