#VERSION:0.83;
#TITLE:君の知らない物語;
#SUBTITLE:;
#ARTIST:supercell;
#TITLETRANSLIT:KIMI NO SHIRANAI MONOGATARI;
#SUBTITLETRANSLIT:;
#ARTISTTRANSLIT:;
#GENRE:J-ROCK;
#ORIGIN:;
#CREDIT:;
#BANNER:KIMI NO SHIRANAI MONOGATARI.png;
#BACKGROUND:KIMI NO SHIRANAI MONOGATARI-bg.png;
#PREVIEWVID:;
#JACKET:KIMI NO SHIRANAI MONOGATARI-jacket.png;
#CDIMAGE:;
#DISCIMAGE:;
#LYRICSPATH:;
#CDTITLE:;
#MUSIC:KIMI NO SHIRANAI MONOGATARI.ogg;
#OFFSET:-0.788000;
#SAMPLESTART:54.139000;
#SAMPLELENGTH:15.000000;
#SELECTABLE:YES;
#DISPLAYBPM:83.000000:165.000000;
#BPMS:0.000=164.810,
11.000=167.540,
16.000=163.660,
24.000=164.910,
31.000=163.560,
32.000=165.300,
48.000=82.490,
60.000=82.600,
64.000=165.030,
80.000=165.150,
96.000=165.140,
104.000=82.570,
111.000=81.340,
112.000=165.600,
124.000=163.980,
128.000=165.020,
143.000=165.470,
152.000=162.350,
158.000=171.120,
160.000=164.600,
176.000=81.865,
180.000=82.595,
183.500=82.690,
184.000=165.380;
#STOPS:;
#DELAYS:;
#WARPS:;
#TIMESIGNATURES:0.000=4=4;
#TICKCOUNTS:0.000=4;
#COMBOS:0.000=1;
#SPEEDS:0.000=1.000=0.000=0;
#SCROLLS:0.000=1.000;
#FAKES:;
#LABELS:0.000=Song Start;
#BGCHANGES:-2.500=KIMI NO SHIRANAI MONOGATARI.avi=1.000=0=0=0=StretchNoLoop==CrossFade_Fastest==,
99999=-nosongbg-=1.000=0=0=0 // don't automatically add -songbackground-
;
#KEYSOUNDS:;
#ATTACKS:
;

//---------------dance-single - Daff_4K----------------
#NOTEDATA:;
#CHARTNAME:Daff_4K;
#STEPSTYPE:dance-single;
#DESCRIPTION:Daff_4K;
#CHARTSTYLE:;
#DIFFICULTY:Beginner;
#METER:1;
#RADARVALUES:0.085714,0.111111,0.044444,0.000000,0.000000,54.000000,50.000000,4.000000,0.000000,0.000000,0.000000,0.000000,0.000000,0.000000,0.085714,0.111111,0.044444,0.000000,0.000000,54.000000,50.000000,4.000000,0.000000,0.000000,0.000000,0.000000,0.000000,0.000000;
#CREDIT:Daff_4K;
#DISPLAYBPM:83.000000:165.000000;
#NOTES:
0000
0000
0000
0000
,
0000
0000
0000
0000
,
0000
0000
0000
0000
,
0000
0000
0000
0000
,
1000
0000
0000
0000
,
1000
0000
0000
0000
,
0001
0000
0000
0000
,
0001
0000
0000
0000
,
1001
0000
0000
0000
,
1000
0000
0000
0000
,
0001
0000
0000
0000
,
1000
0000
0000
0000
,
0010
0000
0000
0000
,
0100
0000
0000
0000
,
0001
0000
0000
0000
,
1000
0000
0000
0000
,
0100
0000
0000
0000
,
0010
0000
0010
0000
,
0010
0000
0000
0000
,
0001
0000
0001
0000
,
0001
0000
0000
0000
,
0100
0000
0000
0000
,
0010
0000
0000
0000
,
1000
0000
0000
0000
,
1001
0000
0000
0000
,
0000
0000
0000
0000
,
0001
0000
0000
0000
,
1000
0000
0000
0000
,
0100
0000
0000
0000
,
0010
0000
0000
0000
,
0001
0000
0000
0000
,
1001
0000
0000
0000
,
1000
0000
0000
0000
,
0001
0000
0001
0000
,
0001
0000
0000
0000
,
1000
0000
1000
0000
,
1000
0000
0000
0000
,
0000
0000
0000
0000
,
0010
0000
0000
0000
,
0100
0000
0000
0000
,
0001
0000
0000
0000
,
1000
0000
1000
0000
,
1000
0000
0000
0000
,
0001
0000
0001
0000
,
0001
0000
0000
0000
,
0010
0000
0000
0000
,
0100
0000
0000
0000
,
0000
0000
0000
0000
,
1000
0000
0000
0000
,
0001
0000
0000
0000
,
1001
0000
0000
0000
;

//---------------dance-single - Daff_4K----------------
#NOTEDATA:;
#CHARTNAME:Daff_4K;
#STEPSTYPE:dance-single;
#DESCRIPTION:Daff_4K;
#CHARTSTYLE:;
#DIFFICULTY:Easy;
#METER:4;
#RADARVALUES:0.198413,0.255000,0.044444,0.422222,0.000000,125.000000,121.000000,4.000000,38.000000,0.000000,0.000000,0.000000,0.000000,0.000000,0.198413,0.255000,0.044444,0.422222,0.000000,125.000000,121.000000,4.000000,38.000000,0.000000,0.000000,0.000000,0.000000,0.000000;
#CREDIT:Daff_4K;
#DISPLAYBPM:83.000000:165.000000;
#NOTES:
0000
0000
0000
0000
,
0000
0000
0000
0000
,
0000
0000
0000
0000
,
0000
0000
0000
0000
,
1000
0010
1000
0010
,
0100
0001
0100
0001
,
0020
0000
0130
0000
,
1000
0001
1000
0000
,
2002
0000
3003
0000
,
1000
0000
0001
0000
,
0200
0000
0300
0000
,
0010
1000
0001
1000
,
0002
0000
0013
0100
,
2000
0000
3010
0100
,
0020
0000
2030
0000
,
3200
0000
0320
0030
,
0001
0100
0001
0100
,
0010
1000
0001
0000
,
1000
0100
1000
0100
,
0010
0001
1000
0000
,
0020
0000
0130
0000
,
0002
0000
0013
0000
,
0200
0000
1300
0000
,
0020
0000
0130
0000
,
2002
0000
0000
0000
,
0000
0000
3003
0000
,
0002
0010
0013
0001
,
2000
0010
3010
1000
,
0200
0000
0010
0000
,
0320
0000
0032
0000
,
2000
0000
3003
0000
,
1001
0000
0000
0000
,
2000
0000
3001
0000
,
1000
0100
0010
0100
,
2000
0000
3001
0000
,
1000
0010
0100
0001
,
0020
0000
0100
0000
,
0130
1000
0001
0100
,
0020
0000
2030
0000
,
3200
0000
0320
0000
,
0032
0000
1003
0000
,
0001
0100
0010
0100
,
0002
0000
1003
0000
,
0001
0010
0100
1000
,
0002
0003
2000
3000
,
0200
0300
0020
0030
,
0001
0100
0001
0100
,
0010
1000
0010
1000
,
0100
0100
0010
0010
,
0002
0000
1003
0000
,
2002
0000
0000
0000
,
3003
0000
0000
0000
;

//---------------dance-single - Daff_4K----------------
#NOTEDATA:;
#CHARTNAME:Daff_4K;
#STEPSTYPE:dance-single;
#DESCRIPTION:Daff_4K;
#CHARTSTYLE:;
#DIFFICULTY:Medium;
#METER:7;
#RADARVALUES:0.315873,0.396667,0.222222,0.611111,0.000000,199.000000,179.000000,20.000000,55.000000,0.000000,0.000000,0.000000,0.000000,0.000000,0.315873,0.396667,0.222222,0.611111,0.000000,199.000000,179.000000,20.000000,55.000000,0.000000,0.000000,0.000000,0.000000,0.000000;
#CREDIT:Daff_4K;
#DISPLAYBPM:83.000000:165.000000;
#NOTES:
0000
0000
0000
0000
,
0000
0000
0000
0000
,
0000
0000
0000
0000
,
0000
0000
0000
0000
,
2000
0010
3002
0010
,
2003
0100
3002
0103
,
1001
0000
0000
0110
0000
0000
0000
1001
,
0000
0100
0010
0100
0000
1001
0000
0000
,
0002
0100
1000
0100
,
2003
0100
0001
0100
,
3020
0100
1000
0100
,
1030
0001
0010
0100
,
2000
0010
3001
1000
,
0002
0010
1003
0001
,
0200
0310
2000
3001
,
0020
0100
0200
0330
,
2000
0010
0001
0010
,
3001
1000
0100
0010
,
0002
0010
1000
0010
,
1003
0001
0100
0010
,
2000
0100
3200
0010
,
0320
0001
0032
1000
,
2003
0010
3020
0100
,
0230
0001
0302
1003
,
2002
0000
0000
3003
,
0010
0100
0010
0100
,
2001
0000
3100
0000
0100
0010
0001
0000
,
1002
0000
0103
0000
0100
0010
1000
0000
,
0002
0010
0100
0010
,
2003
0010
0100
0010
,
3200
0000
0020
0330
,
1001
0000
0000
0000
,
0002
0100
2003
0100
,
3001
0000
1000
0001
1000
0000
0010
0000
,
0200
0001
0320
1000
,
0130
0000
0001
0000
1000
0001
1000
0000
,
0200
1000
0320
0001
,
0130
1000
0100
0000
1000
0000
0001
0000
,
2002
3003
2020
3030
,
0202
0303
2002
3003
,
2000
0100
3002
0100
,
1003
0000
0001
1000
0001
0000
0010
0000
,
0200
1000
0320
0001
,
0130
0000
1000
0000
0001
1000
0001
0000
,
0201
0000
0310
0000
0010
1000
0001
0000
,
1200
0000
0310
0000
0010
0001
1000
0000
,
0002
0100
1000
0100
,
2003
0100
0001
3100
,
1001
0000
0000
0110
0000
0000
1001
0000
,
1000
0001
0000
1001
0000
0110
0000
0000
,
2002
0000
0000
0000
,
3003
0000
0000
0000
;

//---------------dance-single - Daff_4K----------------
#NOTEDATA:;
#CHARTNAME:Daff_4K;
#STEPSTYPE:dance-single;
#DESCRIPTION:Daff_4K;
#CHARTSTYLE:;
#DIFFICULTY:Hard;
#METER:11;
#RADARVALUES:0.439683,0.538333,0.244444,0.677778,0.016667,277.000000,255.000000,22.000000,61.000000,0.000000,0.000000,0.000000,0.000000,0.000000,0.439683,0.538333,0.244444,0.677778,0.016667,277.000000,255.000000,22.000000,61.000000,0.000000,0.000000,0.000000,0.000000,0.000000;
#CREDIT:Daff_4K;
#DISPLAYBPM:83.000000:165.000000;
#NOTES:
// measure 0
0000
0000
0000
0000
,  // measure 1
0000
0000
0000
0000
,  // measure 2
0000
0000
0000
0000
,  // measure 3
0000
0000
0000
0000
,  // measure 4
1002
0100
2003
0100
,  // measure 5
3002
0000
0010
0000
1003
0001
0100
0010
,  // measure 6
0110
0000
0000
1001
0000
1000
0100
0001
,  // measure 7
0000
0100
1000
0001
0000
0110
0000
0000
,  // measure 8
2001
0000
0010
0000
0100
0000
3010
1000
,  // measure 9
0002
0000
0010
0000
0100
0000
0013
0001
,  // measure 10
0200
0000
1000
0000
0010
0000
0301
1000
,  // measure 11
0000
0100
0010
0100
1000
0001
0100
0010
,  // measure 12
2000
0000
0001
0000
3100
0010
0100
0000
,  // measure 13
0020
0000
0100
0000
0031
1000
0001
0000
,  // measure 14
2000
3020
0230
0302
,  // measure 15
0023
0000
0100
0100
0200
0000
0330
0000
,  // measure 16
1000
0010
0200
0000
0310
0100
0002
0000
,  // measure 17
1003
0001
0010
0100
0010
0001
2000
0000
,  // measure 18
3001
0010
0200
0000
0310
0100
2000
0000
,  // measure 19
3001
1000
0010
0100
0010
1000
0002
0000
,  // measure 20
0023
0100
0230
1000
,  // measure 21
2300
0001
3002
0100
,  // measure 22
0203
0010
0320
1000
,  // measure 23
2030
0100
3200
0310
,  // measure 24
2002
0000
0000
3003
,  // measure 25
0010
0100
0010
0100
0010
0100
0010
0000
,  // measure 26
2001
0000
0000
0000
3100
0000
0010
0000
0001
1000
0000
1000
0010
0000
0100
0000
,  // measure 27
0002
0000
0010
0000
0013
0000
0100
0000
1000
0001
1000
0000
0001
0000
0100
0000
,  // measure 28
0020
1000
1000
1000
,  // measure 29
2030
0001
3002
0010
,  // measure 30
0023
0000
0130
1000
0001
0100
0010
0000
,  // measure 31
2002
0000
0000
3003
,  // measure 32
2001
0000
3100
0010
0002
0000
1003
0010
,  // measure 33
0200
0000
0301
1000
0001
0010
0100
1000
,  // measure 34
0002
0000
1003
0010
0200
0000
0301
1000
,  // measure 35
0200
0000
0310
0001
1000
0010
0110
0000
,  // measure 36
1002
0000
0013
0100
2000
0000
3010
0100
,  // measure 37
0001
1000
0100
0000
0110
0000
1001
0000
,  // measure 38
0201
0000
0310
1000
0200
0000
0310
0001
,  // measure 39
2000
0000
3010
0100
0010
1000
0001
0000
,  // measure 40
1002
0000
0103
0010
2000
0000
3001
0010
,  // measure 41
0200
0000
1300
0001
1000
0010
0100
0001
,  // measure 42
2000
0000
3001
0010
0200
0000
1300
0001
,  // measure 43
0200
0000
0310
1000
0001
0010
0110
0000
,  // measure 44
2100
0000
3001
1000
0020
0000
0130
0001
,  // measure 45
0102
0000
1003
0001
0020
0000
0130
1000
,  // measure 46
0001
0100
0001
0100
1000
0100
1000
0100
,  // measure 47
0001
0010
0001
0010
1000
0010
1000
0010
,  // measure 48
0001
0100
1000
0001
0010
1000
0100
0010
,  // measure 49
0001
1001
0000
0110
0000
0110
0000
0000
,  // measure 50
2002
0000
0000
0000
,  // measure 51
3003
0000
0000
0000
;
