#VERSION:0.83;
#TITLE:Je t'adore;
#SUBTITLE:;
#ARTIST:Kate Ryan;
#TITLETRANSLIT:;
#SUBTITLETRANSLIT:;
#ARTISTTRANSLIT:;
#GENRE:POP;
#ORIGIN:;
#CREDIT:;
#BANNER:Je t'adore.png;
#BACKGROUND:Je t'adore-bg.png;
#PREVIEWVID:;
#JACKET:Je-t'adore-jacket.png;
#CDIMAGE:;
#DISCIMAGE:;
#LYRICSPATH:;
#CDTITLE:cdtitle.png;
#MUSIC:Je t'adore.ogg;
#OFFSET:-0.216000;
#SAMPLESTART:34.735001;
#SAMPLELENGTH:15.000000;
#SELECTABLE:YES;
#BPMS:0.000=135.000;
#STOPS:;
#DELAYS:;
#WARPS:;
#TIMESIGNATURES:0.000=4=4;
#TICKCOUNTS:0.000=4;
#COMBOS:0.000=1;
#SPEEDS:0.000=1.000=0.000=0;
#SCROLLS:0.000=1.000;
#FAKES:;
#LABELS:0.000=Song Start;
#BGCHANGES:-0.333=Je t'adore.avi=1.000=0=0=0=StretchNoLoop==CrossFade_Fastest==,
99999=-nosongbg-=1.000=0=0=0 // don't automatically add -songbackground-
;
#KEYSOUNDS:;
#ATTACKS:
;

//---------------dance-single - Daff_4K----------------
#NOTEDATA:;
#CHARTNAME:Daff_4K;
#STEPSTYPE:dance-single;
#DESCRIPTION:Daff_4K;
#CHARTSTYLE:;
#DIFFICULTY:Beginner;
#METER:2;
#RADARVALUES:0.104412,0.165668,0.040605,0.000000,0.000000,90.000000,85.000000,5.000000,0.000000,0.000000,0.000000,0.000000,0.000000,0.000000,0.104412,0.165668,0.040605,0.000000,0.000000,90.000000,85.000000,5.000000,0.000000,0.000000,0.000000,0.000000,0.000000,0.000000;
#CREDIT:Daff_4K;
#NOTES:
0000
0000
0000
0000
,
0000
0000
0000
0000
,
0000
0000
0000
0000
,
0000
0000
0000
0000
,
1000
0000
0000
0000
,
0010
0000
0100
0000
,
0010
0000
0000
0000
,
1000
0000
0000
0000
,
0001
0000
0000
0000
,
0010
0000
0100
0000
,
0010
0000
0000
0000
,
0001
0000
0000
0000
,
0100
0000
0000
0000
,
0010
0000
0010
0000
,
1000
0000
0000
0000
,
0100
0000
0010
0000
,
0100
0000
0000
0000
,
0010
0000
0010
0000
,
0001
0000
0000
0000
,
1001
0000
0000
1000
,
1000
0000
0010
0000
,
1000
0000
0000
0001
,
0001
0000
0010
0000
,
0001
0000
0000
0000
,
0000
0100
0100
0000
,
0000
0010
0010
0000
,
1000
0000
0000
0000
,
0000
0000
0000
0001
,
0001
0000
0010
0000
,
0001
0000
0000
1000
,
1000
0000
0010
0000
,
1000
0000
0000
0000
,
0000
0100
0100
0000
,
0000
0010
0010
0000
,
0001
0000
0000
0000
,
0000
0000
0000
0000
,
1000
0000
0000
0000
,
0001
0000
0000
0000
,
1001
0000
0000
0000
,
0000
0000
0000
0000
,
0000
0000
0000
0000
,
0000
0000
0000
0000
,
0010
0000
0000
0000
,
0010
0000
0000
0000
,
0100
0000
0000
0000
,
0100
0000
0000
0000
,
0001
0000
0000
0000
,
0001
0000
0000
0000
,
1000
0000
0000
0000
,
1001
0000
0000
0000
,
0110
0000
0000
0000
,
0000
0000
0000
0010
,
0010
0000
0100
0000
,
0010
0000
0000
0000
,
0000
1000
1000
0000
,
0000
0001
0001
0000
,
0010
0000
0000
0000
,
0000
0000
0000
0001
,
0001
0000
0100
0000
,
0001
0000
0000
1000
,
1000
0000
0100
0000
,
1000
0000
0000
0000
,
0000
0001
0001
0000
,
0000
1000
1000
0000
,
0010
0000
0000
0000
,
0100
0000
0000
0000
,
0001
0000
0000
0000
,
1000
0000
0000
0000
,
1001
0000
0000
0000
;

//---------------dance-single - Daff_4K----------------
#NOTEDATA:;
#CHARTNAME:Daff_4K;
#STEPSTYPE:dance-single;
#DESCRIPTION:Daff_4K;
#CHARTSTYLE:;
#DIFFICULTY:Easy;
#METER:4;
#RADARVALUES:0.178661,0.220890,0.040605,0.113694,0.000000,154.000000,149.000000,5.000000,14.000000,0.000000,0.000000,0.000000,0.000000,0.000000,0.178661,0.220890,0.040605,0.113694,0.000000,154.000000,149.000000,5.000000,14.000000,0.000000,0.000000,0.000000,0.000000,0.000000;
#CREDIT:Daff_4K;
#NOTES:
0000
0000
0000
0000
,
0000
0000
0000
0000
,
0000
0000
0000
0000
,
0000
0000
0000
0000
,
1000
0000
0010
0000
,
0100
0000
0010
1000
,
0001
0000
0010
0000
,
0100
0000
1000
1000
,
0001
0000
0010
0000
,
0100
0000
0010
0001
,
1000
0000
0010
0000
,
0100
0000
0001
0001
,
2000
0000
3010
0000
,
0100
0001
1000
1000
,
0002
0000
0013
0000
,
0100
1000
0001
0001
,
0200
0000
0310
0000
,
1000
0001
1000
0001
,
0020
0030
0200
0300
,
1001
0000
0000
0000
,
0001
0100
0010
0100
,
0001
0001
1000
0000
,
0001
0010
0100
1000
,
0001
0000
1000
0000
,
0001
0100
1000
0000
,
1000
0010
0001
0000
,
1000
0000
0100
0000
,
0010
0000
0001
0000
,
1000
0100
0010
0100
,
1000
1000
0001
0000
,
1000
0010
0100
0001
,
1000
0000
0001
0000
,
1000
0100
0001
0000
,
0001
0010
1000
0000
,
0001
0000
0100
0000
,
0010
0000
1000
0000
,
0100
0000
0010
0000
,
0001
0000
1000
0000
,
1001
0000
0000
0000
,
0000
0000
0000
0000
,
0000
0000
0000
0000
,
0000
0000
0000
0000
,
0002
0000
0000
0003
,
2000
0000
0000
3000
,
0020
0000
0000
0030
,
0200
0300
0002
0003
,
2000
0000
0000
3000
,
0002
0000
0000
0003
,
0020
0030
0200
0300
,
0110
0000
0000
0000
,
1001
0000
0000
0000
,
0000
0000
0000
0000
,
1000
0010
0100
0001
,
1000
0000
0100
0000
,
0010
0001
0100
0000
,
0010
1000
0100
0000
,
0010
0000
0100
0000
,
1000
0001
1000
0000
,
0001
0100
0010
1000
,
0100
0100
0010
0000
,
0001
0010
0100
1000
,
0001
0000
0100
0000
,
0010
1000
0100
0000
,
0010
0001
0100
0000
,
0010
0000
0100
0000
,
0001
0000
1000
0000
,
0100
0000
0010
0000
,
0001
0000
1000
0001
,
1001
0000
0000
0000
;

//---------------dance-single - Daff_4K----------------
#NOTEDATA:;
#CHARTNAME:Daff_4K;
#STEPSTYPE:dance-single;
#DESCRIPTION:Daff_4K;
#CHARTSTYLE:;
#DIFFICULTY:Medium;
#METER:7;
#RADARVALUES:0.273793,0.333772,0.089331,0.438532,0.154298,236.000000,225.000000,11.000000,54.000000,0.000000,0.000000,0.000000,0.000000,0.000000,0.273793,0.333772,0.089331,0.438532,0.154298,236.000000,225.000000,11.000000,54.000000,0.000000,0.000000,0.000000,0.000000,0.000000;
#CREDIT:Daff_4K;
#NOTES:
0000
0000
0000
0000
,
0000
0000
0000
0000
,
0000
0000
0000
0000
,
0000
0000
0000
0000
,
1000
0010
1000
0001
,
1000
0100
0010
0001
,
0200
0010
0310
0010
,
2000
0001
3001
1000
,
0001
0010
0001
1000
,
0001
0100
0010
1000
,
0200
0010
0310
0010
,
0002
1000
1003
0001
,
2000
0100
0100
3001
,
0002
0013
0200
1300
,
0020
0100
0100
0130
,
0002
0013
0200
1300
,
0002
0100
0100
1003
,
2000
3010
0200
0301
,
0020
0130
2000
3001
,
2002
0000
0000
3003
0000
0000
0010
0000
0100
0000
0000
1001
,
0000
1000
0100
0001
,
0100
0000
0000
1000
0000
0000
0010
0000
0100
0000
0000
0001
,
0000
0010
1000
0010
,
0001
0000
0000
1000
0000
0000
0010
0000
0100
0000
0000
0002
,
0000
0000
0000
0013
0000
0000
0100
0000
0000
1000
0000
0002
,
0000
0000
0000
0103
0000
0000
0010
0000
1000
0000
0000
0002
,
0000
0010
1000
0103
,
0001
0000
0000
1000
0000
0000
0010
0000
0100
0000
0000
1001
,
0000
0001
0100
1000
,
0100
0000
0000
0001
0000
0000
0010
0000
0100
0000
0000
1000
,
0000
0010
0001
0010
,
1000
0000
0000
0001
0000
0000
0010
0000
0100
0000
0000
2000
,
0000
0000
0000
3010
0000
0000
0100
0000
0000
0001
0000
2000
,
0000
0000
0000
3100
0000
0000
0010
0000
0001
0000
0000
0200
,
0000
1000
0010
0301
,
0100
0010
1000
0001
,
2000
0001
3002
0010
,
0023
0100
0130
1000
,
2002
0000
0000
0000
,
3003
0000
0000
0000
,
0002
0000
1000
0000
,
2003
0000
0100
0000
,
3200
0000
0010
0000
,
0320
0000
0001
0000
,
0032
0000
1000
0000
,
2003
0000
3002
0000
,
0023
0000
0100
0000
,
0100
0000
0100
0000
,
0032
0000
2000
3003
,
2002
0000
0000
3003
0000
0000
0010
0000
0100
0000
0000
1001
,
0000
0000
0000
0000
,
0000
0000
0000
0000
0000
0000
0110
0000
0110
0000
0000
1001
,
0000
0001
0010
1000
,
0010
0000
0000
0001
0000
0000
0100
0000
0010
0000
0000
2000
,
0000
0000
0000
3001
0000
0000
1000
0000
0000
0100
0000
0020
,
0000
0000
0000
0031
0000
0000
1000
0000
0010
0000
0000
0200
,
0000
0301
1000
0001
,
0100
0000
0000
0010
0000
0000
0100
0000
0010
0000
0000
1001
,
0000
1000
0100
0001
,
0100
0000
0000
1000
0000
0000
0010
0000
0100
0000
0000
0001
,
0000
1000
0010
0001
,
0010
0000
0000
1000
0000
0000
0100
0000
0010
0000
0000
0002
,
0000
0000
0000
1003
0000
0000
0001
0000
0000
0100
0000
0020
,
0000
0000
0000
1030
0000
0000
0001
0000
0010
0000
0000
0200
,
0000
1000
2300
0001
,
3002
0100
0203
0010
,
0320
1000
2030
0001
,
3002
0000
0000
0010
0000
0000
0013
0000
0100
0000
0000
2002
,
0000
0000
3003
0000
;

//---------------dance-single - Daff_4K----------------
#NOTEDATA:;
#CHARTNAME:Daff_4K;
#STEPSTYPE:dance-single;
#DESCRIPTION:Daff_4K;
#CHARTSTYLE:;
#DIFFICULTY:Hard;
#METER:11;
#RADARVALUES:0.387486,0.445029,0.170540,0.544105,0.499440,334.000000,313.000000,21.000000,67.000000,0.000000,0.000000,0.000000,0.000000,0.000000,0.387486,0.445029,0.170540,0.544105,0.499440,334.000000,313.000000,21.000000,67.000000,0.000000,0.000000,0.000000,0.000000,0.000000;
#CREDIT:Daff_4K;
#NOTES:
// measure 0
0000
0000
0000
0000
,  // measure 1
0000
0000
0000
0000
,  // measure 2
0000
0000
0000
0000
,  // measure 3
0000
0000
0000
0000
,  // measure 4
1000
0000
0000
0010
0000
0000
1000
0000
0000
0001
0000
1000
,  // measure 5
0100
0000
0000
0010
0000
0000
0100
0000
0000
0001
0000
0100
,  // measure 6
1000
0000
0010
0100
0000
0010
2000
0000
0000
3001
0000
0000
,  // measure 7
1000
0000
0100
0010
0000
0001
1000
0000
0000
1001
0000
0000
,  // measure 8
0001
0000
0000
0010
0000
0000
0001
0000
0000
1000
0000
0001
,  // measure 9
0100
0000
0000
0010
0000
0000
0100
0000
0000
1000
0000
0100
,  // measure 10
0001
0000
0010
0100
0000
0010
0002
0000
0000
1003
0000
0000
,  // measure 11
0001
0000
0100
0010
0000
1000
0001
0000
0000
1001
0000
1000
,  // measure 12
0200
0000
0000
0001
0000
0000
0010
0000
0000
1300
0000
0002
,  // measure 13
0000
0000
0103
0000
0000
0020
0000
0000
1030
0000
0000
0001
,  // measure 14
2000
0000
0000
0100
0000
0000
0001
0000
0000
3010
0000
0200
,  // measure 15
0000
0000
0301
0000
0000
0020
0000
0000
0031
0000
0000
0001
,  // measure 16
0200
0000
0000
1000
0000
0000
0010
0000
0000
0301
0000
2000
,  // measure 17
0000
0000
3100
0000
0000
0020
0000
0000
0031
0000
0000
1000
,  // measure 18
0020
0130
0002
1003
,  // measure 19
2002
0000
0000
3003
0000
0000
0010
0000
0100
0000
0000
2001
,  // measure 20
0000
0000
0000
3100
0000
0010
0100
0000
0000
1000
0000
0001
,  // measure 21
0100
0000
0100
0010
0000
0010
1000
0000
0001
0000
0000
0021
,  // measure 22
0000
0000
0000
0130
0000
1000
0100
0000
0000
1000
0000
0010
,  // measure 23
0100
0000
0100
0001
0000
0001
0010
0000
0100
0000
0000
2001
,  // measure 24
0000
0000
3010
0100
0000
0100
0001
0000
0000
1000
0000
0200
,  // measure 25
0000
0000
0310
0001
0000
0001
1000
0000
0010
0100
0000
0100
,  // measure 26
0002
0010
1000
0103
,  // measure 27
0001
0000
1000
0001
0000
1000
0010
0000
0100
0000
0000
1002
,  // measure 28
0000
0000
0000
0103
0000
0010
0100
0000
0000
0001
0000
1000
,  // measure 29
0100
0000
0100
0010
0000
0010
0001
0000
1000
0000
0000
1020
,  // measure 30
0000
0000
0000
0130
0000
0001
0100
0000
0000
0001
0000
0010
,  // measure 31
0100
0000
0100
1000
0000
1000
0010
0000
0100
0000
0000
1002
,  // measure 32
0000
0000
0013
0100
0000
0100
1000
0000
0000
0001
0000
0200
,  // measure 33
0000
0000
0310
1000
0000
1000
0001
0000
0001
0010
0000
0010
,  // measure 34
0200
1000
1000
0010
,  // measure 35
0010
0001
0001
1000
,  // measure 36
2300
3002
0203
0320
,  // measure 37
1030
0001
1000
0001
0010
0100
1000
0000
0001
0000
0000
2002
,  // measure 38
0000
0000
0000
0000
,  // measure 39
3003
0000
0000
0000
,  // measure 40
0002
0000
2003
0000
,  // measure 41
3020
0000
0230
0000
,  // measure 42
0302
0010
2000
3000
,  // measure 43
2003
0010
0002
0003
,  // measure 44
3200
0001
0020
0030
,  // measure 45
2300
0010
3002
0010
,  // measure 46
0203
1000
0020
0000
,  // measure 47
0000
0000
0000
0030
,  // measure 48
0302
0010
2003
3010
,  // measure 49
2002
0000
0000
3003
0000
0000
0001
0000
1000
0000
0000
0020
,  // measure 50
0000
0100
0000
0100
,  // measure 51
0000
0000
0000
0130
0000
0000
1001
0000
0110
0000
0000
2001
,  // measure 52
0000
0000
0000
3010
0000
0100
0001
0000
0000
1000
0000
0001
,  // measure 53
1000
0000
0100
0010
0000
0001
0100
0000
0010
0000
0000
2010
,  // measure 54
0000
0000
3001
0010
0000
0010
0100
0000
0000
1000
0000
0002
,  // measure 55
0000
0000
1003
0100
0000
0100
0010
0000
0001
1000
0000
1000
,  // measure 56
0020
0000
0000
0130
0000
0001
1000
0000
0001
1000
0000
0100
,  // measure 57
0010
0000
0100
0010
0000
0001
0100
0000
0010
0000
0000
2001
,  // measure 58
0000
0000
0000
3100
0000
0010
0001
0000
0000
0100
0000
0010
,  // measure 59
0100
0000
0001
1000
0000
1000
0100
0000
0010
0000
0000
1002
,  // measure 60
0000
0000
0000
0013
0000
0100
1000
0000
0000
0001
0000
1000
,  // measure 61
0001
0000
0100
0010
0000
1000
0100
0000
0010
0000
0000
0012
,  // measure 62
0000
0000
1003
0010
0000
0010
0100
0000
0000
0001
0000
2000
,  // measure 63
0000
0000
3001
0100
0000
0100
0010
0000
1000
0001
0000
0001
,  // measure 64
0020
1000
0230
0001
,  // measure 65
2300
0010
3002
0100
,  // measure 66
2003
0100
3002
0010
,  // measure 67
2003
0000
0000
3001
0000
0000
0110
0000
0110
0000
0000
2002
,  // measure 68
0000
0000
3003
0000
;
