#VERSION:0.83;
#TITLE:Je Ne Sais Quoi;
#SUBTITLE:;
#ARTIST:Hera Björk;
#TITLETRANSLIT:;
#SUBTITLETRANSLIT:;
#ARTISTTRANSLIT:Hera Bjork;
#GENRE:EUROTRANCE;
#ORIGIN:;
#CREDIT:;
#BANNER:Je Ne Sais Quoi.png;
#BACKGROUND:Je Ne Sais Quoi-bg.png;
#PREVIEWVID:;
#JACKET:Je Ne Sais Quoi-jacket.png;
#CDIMAGE:;
#DISCIMAGE:;
#LYRICSPATH:;
#CDTITLE:cdtitle.png;
#MUSIC:Je Ne Sais Quoi.ogg;
#OFFSET:-1.006000;
#SAMPLESTART:43.705002;
#SAMPLELENGTH:15.000000;
#SELECTABLE:YES;
#BPMS:0.000=132.000,
160.000=66.000,
176.000=132.000;
#STOPS:;
#DELAYS:;
#WARPS:;
#TIMESIGNATURES:0.000=4=4;
#TICKCOUNTS:0.000=4;
#COMBOS:0.000=1;
#SPEEDS:0.000=1.000=0.000=0;
#SCROLLS:0.000=1.000;
#FAKES:;
#LABELS:0.000=Song Start;
#BGCHANGES:-1.500=Je Ne Sais Quoi.avi=1.000=0=0=0=StretchNoLoop==CrossFade_Fastest==,
99999=-nosongbg-=1.000=0=0=0 // don't automatically add -songbackground-
;
#KEYSOUNDS:;
#ATTACKS:
;

//---------------dance-single - Daff_4K----------------
#NOTEDATA:;
#CHARTNAME:Daff_4K;
#STEPSTYPE:dance-single;
#DESCRIPTION:Daff_4K;
#CHARTSTYLE:;
#DIFFICULTY:Beginner;
#METER:1;
#RADARVALUES:0.064448,0.098430,0.032810,0.000000,0.000000,55.000000,51.000000,4.000000,0.000000,0.000000,0.000000,0.000000,0.000000,0.000000,0.064448,0.098430,0.032810,0.000000,0.000000,55.000000,51.000000,4.000000,0.000000,0.000000,0.000000,0.000000,0.000000,0.000000;
#CREDIT:Daff_4K;
#NOTES:
0000
0000
0000
0000
,
0000
0000
0000
0000
,
0000
0000
0000
0000
,
0000
0000
0000
0000
,
0000
0000
0000
0000
,
0000
0000
0000
0000
,
0000
0000
0000
0000
,
0000
0000
0000
0000
,
1000
0000
0000
0000
,
0000
0000
0000
0000
,
1000
0000
0000
0000
,
0000
0000
0000
0000
,
0001
0000
0000
0000
,
0000
0000
0000
0000
,
0001
0000
0000
0000
,
0000
0000
0000
0000
,
0010
0000
0000
0000
,
0010
0000
0000
0000
,
0100
0000
0000
0000
,
0100
0000
0000
0000
,
1000
0000
0000
0000
,
1000
0000
0000
0000
,
0001
0000
0000
0000
,
1001
0000
0000
0000
,
1000
0000
0000
0000
,
0010
0000
0000
0000
,
1000
0000
1000
0000
,
1000
0000
0000
0000
,
0001
0000
0000
0000
,
0010
0000
0000
0000
,
0001
0000
0001
0000
,
0001
0000
0000
0000
,
0100
0000
0000
0000
,
0000
0000
0000
0000
,
0010
0000
0010
0000
,
0010
0000
0000
0000
,
1000
0000
0000
0000
,
0001
0000
0000
0000
,
1000
0000
0000
0000
,
0001
0000
0000
0000
,
1001
0000
0000
0000
,
0000
0000
0000
0000
,
1000
0000
0000
0000
,
0001
0000
0000
0000
,
1001
0000
0000
0000
,
0000
0000
0000
0000
,
1000
0000
0000
0000
,
0100
0000
0000
0000
,
0010
0000
0010
0000
,
0010
0000
0000
0000
,
0001
0000
0000
0000
,
0100
0000
0000
0000
,
0010
0000
0010
0000
,
0010
0000
0000
0000
,
1000
0000
0000
0000
,
0000
0000
0000
0000
,
0100
0000
0100
0000
,
0100
0000
0000
0000
,
0010
0000
0000
0000
,
0001
0000
0000
0000
,
1001
0000
0000
0000
;

//---------------dance-single - Daff_4K----------------
#NOTEDATA:;
#CHARTNAME:Daff_4K;
#STEPSTYPE:dance-single;
#DESCRIPTION:Daff_4K;
#CHARTSTYLE:;
#DIFFICULTY:Easy;
#METER:3;
#RADARVALUES:0.138271,0.200141,0.049215,0.082025,0.000000,118.000000,112.000000,6.000000,10.000000,0.000000,0.000000,0.000000,0.000000,0.000000,0.138271,0.200141,0.049215,0.082025,0.000000,118.000000,112.000000,6.000000,10.000000,0.000000,0.000000,0.000000,0.000000,0.000000;
#CREDIT:Daff_4K;
#NOTES:
0000
0000
0000
0000
,
0000
0000
0000
0000
,
0000
0000
0000
0000
,
0000
0000
0000
0000
,
0000
0000
0000
0000
,
0000
0000
0000
0000
,
0000
0000
0000
0000
,
0000
0000
0000
0000
,
1001
0000
0000
0000
,
1000
0000
0010
0000
,
0100
0000
0000
0000
,
0001
0000
0010
0000
,
0100
0000
0000
0000
,
1000
0000
0000
0000
,
0001
0000
0000
0000
,
0000
0000
0000
0000
,
1001
0000
1000
0000
,
0010
0100
0001
0000
,
1000
0000
0001
0000
,
0010
0100
1000
0000
,
0010
0000
0100
0000
,
0001
0000
1000
0000
,
0100
0000
0010
0000
,
2002
0000
3003
0000
,
0001
0100
0001
0000
,
1000
0100
1000
0000
,
0010
0000
0100
0000
,
0001
1000
0001
0000
,
1000
0100
1000
0000
,
0001
0100
0001
0000
,
0010
0000
0100
0000
,
1000
0001
1000
0000
,
0020
0000
0000
0030
,
0200
0000
0000
0300
,
0001
0000
1000
0000
,
0100
0100
0010
0000
,
0001
0100
0001
0000
,
1000
0100
1000
0000
,
0001
0010
0001
0000
,
1000
0010
1000
0000
,
1001
0000
0000
0000
,
0001
0000
0000
0000
,
1000
0000
0010
0000
,
0100
0000
0001
0000
,
2002
0000
0000
0000
,
3003
0000
0000
0000
,
1000
0100
0010
0000
,
0001
0100
0010
0000
,
1000
0000
0001
0000
,
0010
0100
0010
0000
,
0001
0100
0010
0000
,
1000
0100
0010
0000
,
0001
0000
1000
0000
,
0010
0100
0010
0100
,
0002
0000
0000
0003
,
2000
0000
0000
3000
,
0100
0000
0010
0000
,
0001
0001
1000
1000
,
0010
0100
0001
0000
,
0010
0100
1000
0000
,
2002
0000
0000
0000
,
3003
0000
0000
0000
;

//---------------dance-single - Daff_4K----------------
#NOTEDATA:;
#CHARTNAME:Daff_4K;
#STEPSTYPE:dance-single;
#DESCRIPTION:Daff_4K;
#CHARTSTYLE:;
#DIFFICULTY:Medium;
#METER:6;
#RADARVALUES:0.214437,0.249664,0.041013,0.295290,0.000000,183.000000,178.000000,5.000000,36.000000,0.000000,0.000000,0.000000,0.000000,0.000000,0.214437,0.249664,0.041013,0.295290,0.000000,183.000000,178.000000,5.000000,36.000000,0.000000,0.000000,0.000000,0.000000,0.000000;
#CREDIT:Daff_4K;
#NOTES:
0000
0000
0000
0000
,
0000
0000
0000
0000
,
0000
0000
0000
0000
,
0000
0000
0000
0000
,
0000
0000
0000
0000
,
0000
0000
0000
0000
,
0000
0000
0000
0000
,
0000
0000
0000
0000
,
2002
0000
0000
3003
,
2000
3000
0002
0003
,
0200
0000
0000
0300
,
0020
0030
2000
3000
,
0002
0000
0000
0003
,
2000
0000
0000
3000
,
0200
0000
0000
0000
,
0300
0000
0000
0000
,
2000
0000
3010
0000
,
0010
1000
0100
0010
,
0002
0000
0013
0000
,
0010
0001
0100
0010
,
2000
0000
3001
0000
,
0001
1000
0100
0010
,
0001
0100
0010
1000
,
2002
0000
0000
3003
,
0002
0010
0010
1003
,
0001
0100
0010
1000
,
0001
0000
0100
0010
0000
0100
0000
0001
,
0000
1000
0000
0100
0010
0000
0100
0000
,
2000
0010
0010
3001
,
1000
0100
0010
0001
,
1000
0000
0100
0010
0000
0100
0000
1000
,
0001
0100
0010
1000
,
0002
0010
0100
0010
,
2003
0010
0100
0010
,
3001
0000
0010
0100
0000
0010
0000
0001
,
0000
1000
0000
0010
0100
0000
0010
0000
,
2000
0100
0100
3001
,
0002
0010
0010
1003
,
2000
0010
0010
3001
,
0001
1000
0100
0010
,
2001
0000
3020
0000
,
0230
0000
0302
0000
,
1003
1000
0100
0100
,
0010
0010
0001
1000
,
0220
0000
0000
0330
,
2002
0000
0000
3003
,
2000
0010
0010
3100
,
0010
0001
1000
0010
,
1000
0000
0100
0010
0000
0001
0000
1000
,
0000
0001
0000
0100
0010
0000
1000
0000
,
0002
0010
0010
0103
,
0010
1000
0001
0010
,
0001
0000
0100
0010
0000
0100
0000
0001
,
1000
0100
0010
0001
,
2000
0100
0010
0100
,
3002
0100
0010
0100
,
1003
0000
0001
1000
0000
0010
0000
0100
,
0000
0001
0000
1000
0001
0000
0010
0000
,
0200
0010
0010
1300
,
0020
0000
0100
0000
0100
0000
0031
1000
,
0000
0010
0100
0000
0010
0000
1000
0001
;

//---------------dance-single - Daff_4K----------------
#NOTEDATA:;
#CHARTNAME:Daff_4K;
#STEPSTYPE:dance-single;
#DESCRIPTION:Daff_4K;
#CHARTSTYLE:;
#DIFFICULTY:Hard;
#METER:10;
#RADARVALUES:0.308180,0.399462,0.114835,0.369113,0.131240,263.000000,249.000000,14.000000,45.000000,0.000000,0.000000,0.000000,0.000000,0.000000,0.308180,0.399462,0.114835,0.369113,0.131240,263.000000,249.000000,14.000000,45.000000,0.000000,0.000000,0.000000,0.000000,0.000000;
#CREDIT:Daff_4K;
#NOTES:
// measure 0
0000
0000
0000
0000
,  // measure 1
0000
0000
0000
0000
,  // measure 2
0000
0000
0000
0000
,  // measure 3
0000
0000
0000
0000
,  // measure 4
0000
0000
0000
0000
,  // measure 5
0000
0000
0000
0000
,  // measure 6
0000
0000
0000
0000
,  // measure 7
0000
0000
0000
0000
,  // measure 8
2002
0000
0000
0000
0003
0000
0000
3010
,  // measure 9
0200
0000
0000
0000
0302
0000
0000
1003
,  // measure 10
0200
0000
0000
0000
0000
0000
0000
0310
,  // measure 11
0002
0000
1003
0020
0000
0000
0130
0002
,  // measure 12
0000
2000
0000
0000
0000
0000
3000
0000
,  // measure 13
0013
0000
0000
0010
0000
0000
0100
0000
0000
0100
0000
0000
1000
0000
0002
0000
,  // measure 14
0000
2000
0000
0000
0000
0000
0000
0000
,  // measure 15
3003
0000
0000
0000
,  // measure 16
0002
0100
1000
1000
,  // measure 17
0023
0000
0130
2000
0000
3002
0000
0103
,  // measure 18
0020
0000
1000
0000
1000
0000
0130
0010
,  // measure 19
0200
0000
0301
2000
0000
3100
0010
0001
,  // measure 20
2000
0100
0001
0001
,  // measure 21
3020
0000
0100
0000
0100
0000
0130
0001
,  // measure 22
2000
0000
3100
0010
0002
0000
1003
0000
,  // measure 23
2002
0000
0000
3003
,  // measure 24
1000
0000
0000
0010
0000
0000
0100
0000
0000
0001
0000
0000
1000
0000
0100
0000
,  // measure 25
1000
0000
0000
0001
0000
0000
0100
0000
0000
0010
0000
0000
1000
0000
0001
0000
,  // measure 26
0020
0000
0130
2000
0000
3010
0000
0200
,  // measure 27
0000
0301
0000
0010
0100
1000
0010
0100
,  // measure 28
0001
0000
0000
0010
0000
0000
0100
0000
0000
1000
0000
0000
0001
0000
0100
0000
,  // measure 29
0001
0000
0000
1000
0000
0000
0100
0000
0000
0010
0000
0000
0001
0000
1000
0000
,  // measure 30
0020
0000
0130
0001
0000
1001
0000
1000
,  // measure 31
0100
0010
0001
1000
0010
0100
0001
1000
,  // measure 32
0200
0001
0010
1000
,  // measure 33
0320
1000
0100
0001
,  // measure 34
0130
0000
1000
0001
0000
1001
0000
0110
,  // measure 35
0000
1001
0000
1000
0010
0100
0001
1000
,  // measure 36
0001
0000
0000
0010
0000
0000
0001
0000
0000
1000
0000
0000
0001
0000
0100
0000
,  // measure 37
0010
0000
0000
1000
0000
0000
0010
0000
0000
0100
0000
0000
0001
0000
0000
0000
,  // measure 38
1000
0000
0000
0010
0000
0000
1000
0000
0000
0001
0000
0000
1000
0000
0100
0000
,  // measure 39
0010
0000
0000
0001
0000
0000
1000
0000
0010
0000
0000
0100
0000
0000
0001
0000
,  // measure 40
0020
1000
0100
0001
,  // measure 41
0100
1000
0100
0031
,  // measure 42
2000
0010
0100
3001
,  // measure 43
0002
0010
0100
1003
,  // measure 44
0220
0000
0000
0330
,  // measure 45
2002
0000
0000
3003
,  // measure 46
1000
0000
0000
0010
0000
0000
0100
0000
0000
0001
0000
0000
1000
0000
0100
0000
,  // measure 47
0010
0000
0000
0001
0000
0000
1000
0000
0000
0010
0100
0000
0010
0000
1000
0000
,  // measure 48
0200
0000
0310
0002
0000
0103
0000
0020
,  // measure 49
0000
0000
1030
0000
0000
0000
0001
0000
1000
0000
0000
0100
0000
0000
0010
0000
,  // measure 50
0001
0000
0000
0010
0000
0000
0100
0000
0000
1000
0000
0000
0001
0000
0100
0000
,  // measure 51
0010
0000
0000
1000
0000
0000
0001
0000
0000
0010
0100
0000
0010
0000
0001
0000
,  // measure 52
0200
0000
0310
1000
0000
1001
0000
0001
,  // measure 53
0010
0100
1000
0001
0100
0010
1000
0001
,  // measure 54
0020
1000
0100
0001
,  // measure 55
0230
0001
0010
1000
,  // measure 56
0310
0000
0001
1000
0000
1001
0000
0110
,  // measure 57
0000
0000
1001
0000
0000
0000
0001
0000
1000
0000
0000
0010
0000
0000
0100
0000
,  // measure 58
0001
0000
0000
0010
0000
0000
0100
0000
0000
1000
0000
0000
0010
0000
0100
0000
,  // measure 59
0001
0000
0000
1000
0000
0000
0100
0000
0000
0010
0100
0000
1000
0000
2002
0000
,  // measure 60
0000
3003
0010
0100
0010
0100
0010
0110
;
