#TITLE:It's a pit world;
#SUBTITLE:;
#ARTIST:Shohei Tsuchiya feat. SATOMI;
#TITLETRANSLIT:;
#SUBTITLETRANSLIT:;
#ARTISTTRANSLIT:;
#GENRE:ELECTRO;
#CREDIT:;
#BANNER:It's a pit world.png;
#BACKGROUND:It's a pit world-bg.png;
#LYRICSPATH:;
#CDTITLE:cdtitle.png;
#MUSIC:It's a pit world.ogg;
#OFFSET:-0.044000;
#SAMPLESTART:54.901001;
#SAMPLELENGTH:15.000000;
#SELECTABLE:YES;
#BPMS:0.000000=140.000000
;
#STOPS:
;
#BGCHANGES:;
#KEYSOUNDS:;
#ATTACKS:;

//---------------dance-single - Daff_4K----------------
#NOTES:
     dance-single:
     Daff_4K:
     Beginner:
     2:
     0.098861,0.141920,0.000000,0.000000,0.000000,96.000000,96.000000,0.000000,0.000000,0.000000,0.000000,0.098861,0.141920,0.000000,0.000000,0.000000,96.000000,96.000000,0.000000,0.000000,0.000000,0.000000:
0000
0000
0000
0000
,
0000
0000
0000
0000
,
0000
0000
0000
0000
,
0000
0000
0000
0000
,
0001
0000
0000
0000
,
0001
0000
0000
0000
,
1000
0000
0000
0000
,
1000
0000
0000
0000
,
0010
0000
0010
0000
,
0000
0000
0000
0000
,
0100
0000
0100
0000
,
0000
0000
0000
0000
,
0001
0000
0001
0000
,
0000
0000
0000
0000
,
1000
0000
1000
0000
,
0000
0000
0000
0000
,
0000
0000
0100
0000
,
0010
0000
0000
0000
,
0000
0001
0000
1000
,
0000
0001
0000
0000
,
0000
0000
0000
0000
,
0000
0000
0100
0000
,
0100
0000
0000
0010
,
0000
0000
0000
0000
,
1000
1000
0000
0000
,
1000
1000
0000
0000
,
0001
0001
0000
0000
,
0001
0001
0000
0000
,
0010
0010
0000
0000
,
0010
0010
0000
0000
,
0100
0100
0000
0000
,
1000
0000
0001
0000
,
0000
1000
1000
0000
,
0001
0001
0000
0000
,
0000
0010
0000
0100
,
0000
0010
0000
0000
,
0000
0000
0001
0000
,
1000
0000
0010
0000
,
0000
0000
0100
0100
,
0000
0000
0000
0000
,
0000
0001
0001
0000
,
1000
1000
0000
0000
,
0000
0010
0000
0100
,
0000
0010
0000
0000
,
0000
0000
1000
0000
,
0001
0000
0010
0000
,
0000
0000
0100
0100
,
0000
0000
0000
0000
,
1000
0000
0000
0000
,
0000
0000
0000
0000
,
1000
0000
0000
0000
,
0000
0000
0000
0000
,
0001
0000
0000
0000
,
0000
0000
0000
0000
,
0001
0000
0000
0000
,
0000
0000
0000
0000
,
0100
0000
0000
0000
,
0100
0000
0000
0000
,
0010
0000
0000
0000
,
0010
0000
0000
0000
,
1000
0000
0000
0000
,
0001
0000
0000
0000
,
0010
0000
0000
0000
,
0100
0000
0000
0000
,
0000
1000
1000
0000
,
0001
0001
0000
0000
,
0000
0100
0000
0010
,
0000
0100
0000
0000
,
0000
0000
0001
0000
,
1000
0000
0100
0000
,
0000
0000
0010
0010
,
0000
0000
0000
0000
,
0000
0001
0001
0000
,
1000
1000
0000
0000
,
0000
0100
0000
0010
,
0000
0100
0000
0000
,
0000
0000
1000
0000
,
0001
0000
0100
0000
,
0000
0000
0010
0010
;

//---------------dance-single - Daff_4K----------------
#NOTES:
     dance-single:
     Daff_4K:
     Easy:
     4:
     0.167858,0.259510,0.057669,0.165798,0.000000,163.000000,155.000000,8.000000,23.000000,0.000000,0.000000,0.167858,0.259510,0.057669,0.165798,0.000000,163.000000,155.000000,8.000000,23.000000,0.000000,0.000000:
0000
0000
0000
0000
,
0000
0000
0000
0000
,
0000
0000
0000
0000
,
0000
0000
0000
0000
,
0001
0000
0010
0000
,
0001
0000
1000
0001
,
1000
0000
0010
0000
,
1000
0000
0001
0000
,
1000
0100
0010
0100
,
1000
0000
0000
0000
,
0001
0100
0010
0100
,
0001
0000
0000
0000
,
1000
0100
0010
0001
,
1000
0000
0000
0000
,
0001
0100
0010
1000
,
0001
0000
0000
0000
,
0000
0000
0010
0010
,
0100
0100
0000
0000
,
0000
1000
0001
1000
,
0010
0100
0001
1000
,
0000
0000
0000
0000
,
0000
0000
0100
0010
,
0100
0010
0000
0001
,
1000
0000
0000
0000
,
0002
0203
0300
0000
,
0020
2030
3000
0000
,
0200
0320
0030
0000
,
0002
2003
3000
0000
,
2000
3200
0300
0000
,
0020
0032
0003
0000
,
0200
0320
0030
0000
,
2000
3000
0002
0003
,
0000
1000
0100
0000
,
0001
0100
0000
0000
,
0000
1000
0001
1000
,
0010
0100
0001
1000
,
0000
0000
0100
0100
,
0010
0010
0000
0000
,
0000
0000
1001
1001
,
0000
0000
0000
0000
,
0000
0001
0100
0000
,
1000
0100
0000
0000
,
0000
0001
1000
0001
,
0010
0100
1000
0001
,
0000
0000
0100
0100
,
0010
0010
0000
0000
,
0000
0000
1001
1001
,
0000
0000
0000
0000
,
2000
0000
0000
0000
,
0100
0000
0000
0000
,
3100
0000
0000
0000
,
0000
0000
0000
0000
,
0002
0000
0000
0000
,
0100
0000
0000
0000
,
0103
0000
0000
0000
,
0000
0000
0000
0000
,
2000
0000
0000
0000
,
3010
0000
0000
0000
,
0002
0000
0000
0000
,
0013
0000
0000
0000
,
2000
0000
3000
0000
,
0002
0000
0003
0000
,
0010
0000
0010
0000
,
0100
0000
1001
1001
,
0000
0001
0100
0000
,
1000
0100
0000
0000
,
0000
0010
1000
0001
,
1000
0100
0010
0001
,
0000
0000
1000
0001
,
0100
0010
0000
0000
,
0000
0000
0110
0110
,
0000
0000
0000
0000
,
1000
0100
0001
0000
,
0001
0100
1000
0000
,
0001
0100
0010
0010
,
1000
0100
0010
0010
,
0001
0100
1000
0000
,
1000
0100
0001
0000
,
0010
0100
1000
0001
,
0200
0000
0000
0000
,
0300
0000
0000
0000
;

//---------------dance-single - Daff_4K----------------
#NOTES:
     dance-single:
     Daff_4K:
     Medium:
     7:
     0.279076,0.403682,0.021626,0.230676,0.000000,271.000000,268.000000,3.000000,32.000000,0.000000,0.000000,0.279076,0.403682,0.021626,0.230676,0.000000,271.000000,268.000000,3.000000,32.000000,0.000000,0.000000:
0000
0000
0000
0000
,
0000
0000
0000
0000
,
0000
0000
0000
0000
,
0000
0000
0000
0000
,
1000
0000
0000
0010
0000
0000
0000
0001
,
0000
0010
1000
0000
,
0001
0000
0000
0010
0000
0000
0000
1000
,
0000
0010
0001
0000
,
0100
0010
0100
1000
,
0100
0000
0001
0000
0000
1000
0001
0000
,
0010
0100
1000
0010
,
0100
0000
0001
0000
0000
0001
1000
0000
,
0100
0010
0100
0001
,
0100
0000
1000
0000
0000
0001
1000
0000
,
0010
0100
0001
0010
,
0100
0000
1000
0000
0000
1000
0001
0000
,
0000
0000
0000
0200
0000
0320
0000
2030
,
0000
3002
0000
0003
0000
0000
0000
0000
,
0000
0000
0020
0000
0230
0000
1300
0001
,
0000
0100
0000
0010
0000
1000
0001
0000
,
0010
0010
0100
0100
,
0000
0000
0000
2000
0000
3020
0000
0032
,
0000
0203
0000
0300
0000
1000
0001
1000
,
0000
0000
0000
0000
,
0001
0100
0001
0100
0000
0000
0000
0010
,
1000
0010
1000
0000
0000
0000
0000
0000
,
0100
0010
0100
0010
0000
0000
0000
0001
,
1000
0001
1000
0000
0000
0000
0000
0000
,
1000
0100
1000
0100
0000
0000
0000
0010
,
0001
0010
0001
0000
0000
0000
0000
0000
,
0100
0010
0100
0010
0000
0000
0000
0000
,
2000
0000
3002
0000
,
0103
0000
0010
0000
1000
0000
0000
0100
,
0010
0100
0020
0000
0030
0000
0000
0000
,
0001
0000
1000
0000
0010
0000
0100
0001
,
0000
1000
0001
1000
0200
0000
0310
0000
,
0000
0000
0001
1000
,
0010
0000
0100
0100
0000
0000
0000
0000
,
0000
0000
0000
1001
0000
1000
0001
1000
,
0000
0000
0000
0000
,
0100
0000
0010
0000
0001
0000
0000
0100
,
0010
0100
0020
0000
0030
0000
0000
0000
,
1000
0000
0001
0000
0010
0000
0100
1000
,
0000
0001
1000
0001
0200
0000
0310
0000
,
0000
0000
1000
0001
,
0010
0000
0100
0100
0000
0000
0000
0000
,
0000
0000
0000
1001
0000
0001
1000
0001
,
0000
0000
0000
0000
,
2000
0010
0000
3010
,
0020
0100
0000
0130
,
0001
1000
0000
0100
,
0010
0100
0000
1000
,
0002
0010
0000
0013
,
0020
0100
0000
0130
,
1000
0001
0000
0100
,
0010
0100
0000
0001
,
2000
0100
0000
3100
,
0020
0001
0000
0031
,
2000
0010
0000
3010
,
0200
0001
0000
0301
,
0002
0100
0000
0103
,
0020
1000
0000
1030
,
0100
0010
0001
0100
,
0020
0000
0030
0000
1000
0001
1000
0001
,
1000
0000
0100
0000
0001
0000
0000
0100
,
0010
0100
0010
0000
0000
0000
0000
0000
,
0001
0000
1000
0000
0100
0000
0010
0001
,
0000
1000
0001
1000
0020
0000
0130
0000
,
0000
0000
0002
2003
,
3200
0000
0310
0001
0000
0000
0000
0000
,
0000
0000
0000
0110
0000
0100
0010
0100
,
0000
0000
0000
0000
,
1000
0010
1000
0010
1000
0000
0001
0100
,
0001
0100
0001
0000
0010
0000
0100
0000
,
1000
0001
1000
0001
1000
0000
0010
0100
,
0010
0100
0010
0000
1000
0001
1000
0000
,
0001
0010
0001
0010
0001
0000
1000
0100
,
1000
0100
1000
0000
0010
0000
0100
0000
,
0001
0000
1000
0001
0000
0010
0100
0010
,
0200
0000
0000
0000
,
0300
0000
0000
0000
;

//---------------dance-single - Daff_4K----------------
#NOTES:
     dance-single:
     Daff_4K:
     Hard:
     11:
     0.386176,0.460630,0.367639,0.353222,0.018022,375.000000,324.000000,51.000000,49.000000,0.000000,0.000000,0.386176,0.460630,0.367639,0.353222,0.018022,375.000000,324.000000,51.000000,49.000000,0.000000,0.000000:
// measure 0
0000
0000
0000
0000
,  // measure 1
0000
0000
0000
0000
,  // measure 2
0000
0000
0000
0000
,  // measure 3
0000
0000
0000
0000
,  // measure 4
0001
0000
0010
0001
0000
0000
1000
0100
,  // measure 5
0000
1000
0001
1001
,  // measure 6
1000
0000
0010
1000
0000
0000
0001
0100
,  // measure 7
0000
0001
1000
1001
,  // measure 8
0001
0010
0100
0010
0001
1000
0001
0100
,  // measure 9
0020
0000
0100
0000
0000
0100
0130
0000
,  // measure 10
0100
0001
0010
0001
1000
0010
0100
0001
,  // measure 11
2000
0000
0001
0000
0000
0001
3001
0000
,  // measure 12
1000
0010
0100
0010
1000
0001
1000
0100
,  // measure 13
0020
0000
0100
0000
0000
0100
0130
0000
,  // measure 14
0100
1000
0010
1000
0001
0010
0100
1000
,  // measure 15
0002
0000
1000
0000
0000
1000
1003
0000
,  // measure 16
0000
0000
0000
0101
0000
1010
0000
1100
,  // measure 17
0000
0022
0000
0033
0000
0000
0000
0000
,  // measure 18
0000
0000
0110
0000
1001
0000
1000
0001
,  // measure 19
0000
0101
0000
1010
0000
1001
0000
0000
,  // measure 20
0001
0010
0100
1000
0010
0100
0001
1000
,  // measure 21
0000
0000
0000
1100
0000
0011
0000
0101
,  // measure 22
0000
1010
0000
0000
0000
0100
0010
0200
,  // measure 23
0000
0300
0000
0000
0000
0000
0000
0000
,  // measure 24
0001
0010
0100
0010
0001
0000
1000
0100
,  // measure 25
0010
0100
1000
0000
0000
0000
0000
0000
,  // measure 26
0010
0100
0001
0100
0010
0000
1000
0001
,  // measure 27
0010
0100
1000
0000
0000
0000
0000
0000
,  // measure 28
1000
0010
0100
0010
1000
0000
0001
0100
,  // measure 29
0010
0100
0001
0000
0000
0000
0000
0000
,  // measure 30
0010
0100
1000
0100
0010
0000
0000
0000
,  // measure 31
0220
0330
2002
3003
,  // measure 32
0000
0000
1100
0000
0011
0000
0001
1000
,  // measure 33
0001
0100
0020
0000
0030
0000
0000
0000
,  // measure 34
0110
0000
1001
0000
1000
0100
0010
0002
,  // measure 35
0000
1003
0010
0100
0002
0000
2003
0000
,  // measure 36
3000
0000
1100
0011
,  // measure 37
1001
0000
2000
0002
0000
3003
0000
0000
,  // measure 38
0000
0000
0000
0011
0000
0011
0011
0011
,  // measure 39
0000
0000
0000
0000
,  // measure 40
0000
0000
0101
0000
1010
0000
1000
0001
,  // measure 41
1000
0100
0020
0000
0030
0000
0000
0000
,  // measure 42
0110
0000
1001
0000
0001
0100
0010
2000
,  // measure 43
0000
3001
0010
0100
2000
0000
3002
0000
,  // measure 44
0003
0000
0101
1010
,  // measure 45
1001
0000
0002
2000
0000
3003
0000
0000
,  // measure 46
0000
0000
0000
1010
0000
1010
1010
1010
,  // measure 47
0000
0000
0000
0000
,  // measure 48
2000
0010
0000
0010
,  // measure 49
3200
0010
0000
0010
,  // measure 50
1300
0001
0000
1000
,  // measure 51
0010
0100
0000
0100
,  // measure 52
0002
0010
0000
0010
,  // measure 53
0203
0010
0000
0010
,  // measure 54
0301
1000
0000
0001
,  // measure 55
0010
0100
0000
0100
,  // measure 56
2000
0000
0000
0000
0010
0000
0000
0000
0010
0000
0000
0000
3010
0000
0000
0010
,  // measure 57
0200
0000
0000
0000
0001
0000
0000
0000
0001
0000
0000
0000
0301
0000
0000
0001
,  // measure 58
0020
0000
0000
0000
0100
0000
0000
0000
0100
0000
0000
0000
0130
0000
0000
0100
,  // measure 59
2000
0000
0000
0000
0001
0000
0000
0000
0001
0000
0000
0000
3001
0000
0000
0001
,  // measure 60
0200
0000
0000
0000
0010
0000
0000
0000
0010
0000
0000
0000
0310
0000
0000
0010
,  // measure 61
2000
0000
3001
1000
0100
0010
0001
1000
,  // measure 62
0100
0010
0001
1000
0010
0100
0002
2000
,  // measure 63
0000
0000
3003
0000
0010
0010
0100
0100
,  // measure 64
0000
0000
0110
0000
1001
0000
0001
1000
,  // measure 65
0010
0100
0020
0000
0030
0000
0000
0000
,  // measure 66
0101
0000
1010
0000
1000
0001
0010
0200
,  // measure 67
0000
0310
0100
1000
0020
0000
0230
0000
,  // measure 68
0300
0000
1001
0110
,  // measure 69
1001
0000
0020
0200
0000
0330
0000
0000
,  // measure 70
0000
0000
0000
1001
0000
1001
1001
1001
,  // measure 71
0000
0000
0000
0000
,  // measure 72
0001
0100
0010
1000
0002
0000
0013
0100
,  // measure 73
1000
0001
0200
0000
0310
0000
1000
0000
,  // measure 74
0100
0010
0001
1000
0020
0000
0130
0001
,  // measure 75
1000
0100
0020
0000
0130
0000
1001
0000
,  // measure 76
1000
0100
0010
0001
2000
0000
3010
0100
,  // measure 77
0001
1000
0200
0000
0310
0000
0001
0000
,  // measure 78
0100
0010
1000
0001
0020
0000
0130
1000
,  // measure 79
0020
0000
0100
0000
0100
0000
0100
0130
;
