#TITLE:イマジネーション;
#SUBTITLE:;
#ARTIST:SPYAIR;
#TITLETRANSLIT:IMAGINATION;
#SUBTITLETRANSLIT:;
#ARTISTTRANSLIT:;
#GENRE:J-ROCK;
#CREDIT:;
#BANNER:IMAGINATION.png;
#BACKGROUND:IMAGINATION-bg.png;
#LYRICSPATH:;
#CDTITLE:cdtitle.png;
#MUSIC:IMAGINATION.ogg;
#OFFSET:-0.132000;
#SAMPLESTART:34.838001;
#SAMPLELENGTH:15.000000;
#SELECTABLE:YES;
#BPMS:0.000000=102.000000
,24.000000=204.000000
,56.000000=102.000000
,72.000000=204.000000
;
#STOPS:
;
#BGCHANGES:-0.250=IMAGINATION.avi=1.000=0=0=0=StretchNoLoop==CrossFade_Fastest==,
99999=-nosongbg-=1.000=0=0=0 // don't automatically add -songbackground-
;
#KEYSOUNDS:;
#ATTACKS:;

//---------------dance-single - Daff_4K----------------
#NOTES:
     dance-single:
     Daff_4K:
     Beginner:
     3:
     0.142065,0.217887,0.212300,0.000000,0.000000,89.000000,70.000000,19.000000,0.000000,0.000000,0.000000,0.142065,0.217887,0.212300,0.000000,0.000000,89.000000,70.000000,19.000000,0.000000,0.000000,0.000000:
// measure 0
0000
0000
0000
0000
,  // measure 1
0000
0000
0000
0000
,  // measure 2
0010
0000
0000
0000
,  // measure 3
0010
0000
0000
0000
,  // measure 4
0100
0000
0100
0000
,  // measure 5
0100
0000
0000
0000
,  // measure 6
1000
0000
0000
0000
,  // measure 7
1000
0000
0000
0000
,  // measure 8
0010
0000
0010
0000
,  // measure 9
0010
0000
0000
0000
,  // measure 10
0100
0000
0000
0000
,  // measure 11
0100
0000
0000
0000
,  // measure 12
0001
0000
0001
0000
,  // measure 13
0001
0000
0000
0000
,  // measure 14
1001
0000
0000
0000
,  // measure 15
1000
0000
0000
0000
,  // measure 16
1001
0000
0000
0000
,  // measure 17
0001
0000
0000
0000
,  // measure 18
1001
0000
0000
0000
,  // measure 19
0000
0000
0000
0000
,  // measure 20
1001
0000
0000
0000
,  // measure 21
0110
0000
0000
0000
,  // measure 22
0100
0000
0100
0000
,  // measure 23
0010
0000
0000
0000
,  // measure 24
0110
0000
0000
0000
,  // measure 25
1001
0000
0000
0000
,  // measure 26
0001
0000
1000
0000
,  // measure 27
0001
0000
0000
0000
,  // measure 28
1001
0000
0000
0000
,  // measure 29
0110
0000
0000
0000
,  // measure 30
0100
0000
0100
0000
,  // measure 31
0010
0000
0000
0000
,  // measure 32
0001
0000
0000
0000
,  // measure 33
0001
0000
0000
0000
,  // measure 34
1000
0000
0000
0000
,  // measure 35
1000
0000
0000
0000
,  // measure 36
0100
0000
0100
0000
,  // measure 37
0110
0000
0000
0000
,  // measure 38
0000
0000
0000
0000
,  // measure 39
0000
0000
0000
0000
,  // measure 40
0000
0000
0000
0000
,  // measure 41
0000
0000
0000
0000
,  // measure 42
0000
0000
0010
0000
,  // measure 43
0000
0000
0010
0000
,  // measure 44
0000
0000
0100
0000
,  // measure 45
0100
0000
0000
0000
,  // measure 46
1001
0000
0000
0000
,  // measure 47
0110
0000
0000
0000
,  // measure 48
0100
0000
0100
0000
,  // measure 49
0010
0000
0000
0000
,  // measure 50
1000
0000
0000
0000
,  // measure 51
1000
0000
0000
0000
,  // measure 52
0001
0000
0000
0000
,  // measure 53
0001
0000
0000
0000
,  // measure 54
0100
0000
0100
0000
,  // measure 55
0110
0000
0000
0000
,  // measure 56
1001
0000
0000
0000
,  // measure 57
0110
0000
0000
0000
,  // measure 58
0100
0000
0100
0000
,  // measure 59
0010
0000
0000
0000
,  // measure 60
1001
0000
0000
0000
,  // measure 61
0110
0000
0000
0000
,  // measure 62
0010
0000
0010
0000
,  // measure 63
0100
0000
0000
0000
,  // measure 64
0110
0000
0000
0000
,  // measure 65
1001
0000
0000
0000
;

//---------------dance-single - Daff_4K----------------
#NOTES:
     dance-single:
     Daff_4K:
     Easy:
     6:
     0.290516,0.326830,0.145258,0.189953,0.000000,182.000000,169.000000,13.000000,17.000000,0.000000,0.000000,0.290516,0.326830,0.145258,0.189953,0.000000,182.000000,169.000000,13.000000,17.000000,0.000000,0.000000:
// measure 0
0000
0000
0000
0000
,  // measure 1
0000
0000
0000
0000
,  // measure 2
2002
0000
0000
3003
,  // measure 3
0220
0000
0000
0330
,  // measure 4
2002
3003
0220
0330
,  // measure 5
2002
3003
1000
0001
,  // measure 6
1000
0000
0001
0100
,  // measure 7
0001
0000
1000
1000
,  // measure 8
0001
0000
1000
0100
,  // measure 9
1000
0000
0001
0001
,  // measure 10
1000
0000
0001
0100
,  // measure 11
0010
0000
1000
1000
,  // measure 12
0001
0000
1000
0100
,  // measure 13
0010
0000
0001
0000
,  // measure 14
1001
0000
1000
0100
,  // measure 15
0001
0000
0100
1000
,  // measure 16
1001
0000
0001
0100
,  // measure 17
1000
0000
0100
0001
,  // measure 18
2002
0000
0000
0000
,  // measure 19
3003
0000
0000
0000
,  // measure 20
1000
0100
0001
0000
,  // measure 21
0001
0100
1000
0000
,  // measure 22
1000
0010
0100
0001
,  // measure 23
0100
0010
1000
0000
,  // measure 24
0001
0100
1000
0000
,  // measure 25
1000
0100
0001
0000
,  // measure 26
0001
0010
0100
1000
,  // measure 27
0100
0010
0001
0000
,  // measure 28
1000
0001
0010
0000
,  // measure 29
0010
0100
1000
0000
,  // measure 30
1000
0010
0100
0001
,  // measure 31
0010
0100
1000
0000
,  // measure 32
0001
0100
0010
0000
,  // measure 33
1000
0100
0010
0000
,  // measure 34
0001
0100
0001
0000
,  // measure 35
1000
0010
1000
0000
,  // measure 36
0001
1000
0001
0000
,  // measure 37
2002
0000
3003
0000
,  // measure 38
0000
0000
0000
0000
,  // measure 39
0000
0000
0000
0000
,  // measure 40
0000
0000
0000
0000
,  // measure 41
0000
0000
0000
0000
,  // measure 42
1000
0010
0100
0000
,  // measure 43
0001
0010
0100
0000
,  // measure 44
1000
0010
0100
0001
,  // measure 45
1000
0001
0020
0000
,  // measure 46
0031
1000
0010
0000
,  // measure 47
0010
0100
0001
0000
,  // measure 48
0001
0010
0100
1000
,  // measure 49
0010
0100
0001
0000
,  // measure 50
1000
0100
0010
0000
,  // measure 51
0001
0100
0010
0000
,  // measure 52
1000
0100
1000
0000
,  // measure 53
0001
0010
0001
0000
,  // measure 54
1000
0001
1000
0000
,  // measure 55
2002
0000
3003
0000
,  // measure 56
0001
0100
1000
0000
,  // measure 57
1000
0100
0001
0000
,  // measure 58
0001
0010
0100
1000
,  // measure 59
0010
0100
0001
0000
,  // measure 60
1000
0100
0001
0000
,  // measure 61
0001
0100
1000
0000
,  // measure 62
1000
0010
0100
0001
,  // measure 63
0010
0100
1000
0000
,  // measure 64
1001
0000
0110
0000
,  // measure 65
1001
0000
0000
0000
;

//---------------dance-single - Daff_4K----------------
#NOTES:
     dance-single:
     Daff_4K:
     Medium:
     11:
     0.504412,0.508403,0.670421,0.558684,0.011174,316.000000,256.000000,60.000000,50.000000,0.000000,0.000000,0.504412,0.508403,0.670421,0.558684,0.011174,316.000000,256.000000,60.000000,50.000000,0.000000,0.000000:
// measure 0
0000
0000
0000
0000
,  // measure 1
0000
0000
0000
0000
,  // measure 2
2020
0000
0000
3030
,  // measure 3
0202
0000
0000
0303
,  // measure 4
0022
0033
2200
3300
,  // measure 5
2002
0000
3003
0000
0001
1000
0010
0100
,  // measure 6
0001
0000
0011
0000
0100
1000
0100
0000
,  // measure 7
1000
0001
0100
1001
,  // measure 8
1000
0000
1010
0000
0100
0001
0100
0000
,  // measure 9
0001
1000
0100
1001
,  // measure 10
0001
0000
0101
0000
0010
1000
0010
0000
,  // measure 11
1000
0000
1100
0000
0010
0001
0010
0000
,  // measure 12
0002
0203
0320
2030
,  // measure 13
3200
0320
0032
1003
,  // measure 14
2002
0000
0000
0000
0000
0000
0003
0000
0100
0000
0000
0100
0000
0000
0100
0000
,  // measure 15
3100
0010
0001
0100
1000
0100
0001
0000
,  // measure 16
2002
0000
0000
0000
0000
0000
3000
0000
0100
0000
0000
0100
0000
0000
0100
0000
,  // measure 17
0203
0000
0320
0000
1030
0001
1000
0000
,  // measure 18
0220
0000
0000
0000
,  // measure 19
0330
0000
0000
0000
0000
0000
0000
1001
,  // measure 20
0000
0001
0100
0000
0010
1000
0000
1001
,  // measure 21
0000
0001
0010
0000
0100
1000
0000
0002
,  // measure 22
0000
0103
0000
2000
0000
3100
0000
0002
,  // measure 23
0000
1003
0000
0010
0100
0010
0000
1001
,  // measure 24
0000
1000
0100
0000
0010
0001
0000
1001
,  // measure 25
0000
1000
0010
0000
0100
0001
0000
2000
,  // measure 26
0000
3100
0000
0002
0000
0103
0000
1001
,  // measure 27
0000
1000
0100
0000
0010
0001
0000
1001
,  // measure 28
0000
0001
0100
0000
0001
1000
0000
1001
,  // measure 29
0000
1000
0010
0000
1000
0001
0000
2000
,  // measure 30
0000
3100
0000
0002
0000
0103
0000
2000
,  // measure 31
0000
3001
0000
0010
0001
0010
0000
0100
,  // measure 32
0000
1000
0000
1100
0000
0010
0001
0010
,  // measure 33
0000
0001
0000
0101
0000
0010
0000
1000
,  // measure 34
0001
1000
1100
0011
,  // measure 35
0001
1000
1010
0101
,  // measure 36
0001
0000
1000
0100
0000
0010
0001
0000
,  // measure 37
0220
0000
0330
0000
1001
0000
0000
2200
,  // measure 38
0000
0000
0000
0000
0000
3300
0000
0022
,  // measure 39
0000
0000
0000
0000
0000
0033
0000
0202
,  // measure 40
0000
0000
0000
0000
0000
0303
0000
2020
,  // measure 41
0000
0000
0000
0000
0000
3030
0000
2100
,  // measure 42
0000
0000
0001
0000
3001
0000
0000
0012
,  // measure 43
0000
0000
1000
0000
1003
0000
0000
0001
,  // measure 44
0000
1001
0000
0100
0000
0110
0000
1001
,  // measure 45
0000
1000
0010
0000
0100
0001
0000
1001
,  // measure 46
0000
1000
0100
0000
1000
0001
0000
1001
,  // measure 47
0000
0001
0010
0000
0001
1000
0000
0002
,  // measure 48
0000
0103
0000
2000
0000
3100
0000
0002
,  // measure 49
0000
1003
0000
0010
1000
0010
0000
0100
,  // measure 50
0000
0001
0000
0101
0000
0010
1000
0010
,  // measure 51
0000
1000
0000
1100
0000
0010
0000
0001
,  // measure 52
1000
0001
0101
1010
,  // measure 53
1000
0001
0011
1100
,  // measure 54
1000
0000
0001
0100
0000
0010
1000
0000
,  // measure 55
0220
0000
0330
0000
1001
0000
0000
0101
,  // measure 56
0000
0001
0010
0000
0001
1000
0000
1100
,  // measure 57
0000
1000
0010
0000
1000
0001
0000
0011
,  // measure 58
0000
0001
0100
0000
0001
1000
0000
1010
,  // measure 59
0000
1000
0100
0000
1000
0001
0000
1001
,  // measure 60
0000
1000
0010
0000
0100
0001
0100
0000
,  // measure 61
0001
0000
0011
0000
0100
1000
0100
0000
,  // measure 62
0010
0000
1001
0000
1000
0010
1000
0000
,  // measure 63
0010
0000
1001
0000
0001
0010
0001
0000
,  // measure 64
1001
0000
0000
0110
0000
0000
1001
0000
,  // measure 65
1001
0000
0000
0000
;

//---------------dance-single - Daff_4K----------------
#NOTES:
     dance-single:
     Daff_4K:
     Hard:
     13:
     0.624130,0.726289,0.949763,0.681595,0.050282,391.000000,306.000000,85.000000,61.000000,0.000000,0.000000,0.624130,0.726289,0.949763,0.681595,0.050282,391.000000,306.000000,85.000000,61.000000,0.000000,0.000000:
// measure 0
0000
0000
0000
0000
,  // measure 1
0000
0000
0000
0000
,  // measure 2
2020
0000
0000
3030
,  // measure 3
0202
0000
0000
0303
,  // measure 4
0022
0033
2200
3300
,  // measure 5
2002
0000
0000
0000
3003
0000
0000
0000
0110
0000
1001
0000
0001
1000
0001
0000
,  // measure 6
1100
0000
0011
0000
0001
1000
0010
0000
,  // measure 7
1000
0001
0010
0000
0012
0000
1003
0000
,  // measure 8
0101
0000
1010
0000
1000
0001
0010
0000
,  // measure 9
0001
1000
0010
0000
2010
0000
3001
0000
,  // measure 10
0101
0000
1010
0000
0010
1000
0001
0000
,  // measure 11
1100
0000
0011
0000
0010
0001
1000
0000
,  // measure 12
0101
1010
1100
0011
,  // measure 13
1002
0203
0320
1030
,  // measure 14
1002
0000
0000
0010
0000
0000
0013
0000
0001
1000
0000
1000
0010
0000
0010
0100
,  // measure 15
0001
1000
0100
0001
0100
1000
0001
0000
,  // measure 16
2001
0000
0000
0010
0000
0000
3010
0000
1000
0001
0000
0001
0010
0000
0010
0100
,  // measure 17
1000
0001
0100
1000
0100
0001
0010
0100
,  // measure 18
2002
0000
0000
0003
,  // measure 19
0010
0000
0020
0000
3030
0000
0000
1002
,  // measure 20
0000
0013
0200
0000
1300
0001
0000
2001
,  // measure 21
0000
3010
0200
0000
0301
1000
0000
1001
,  // measure 22
0000
0011
0000
1100
0000
1001
0000
0110
,  // measure 23
0000
1001
0000
1000
0010
0100
0000
2001
,  // measure 24
0000
3010
0200
0000
0301
1000
0000
1002
,  // measure 25
0000
0013
0200
0000
1300
0001
0000
1001
,  // measure 26
0000
1010
0000
0101
0000
0110
0000
1001
,  // measure 27
0000
0001
0100
0010
1000
0100
0000
2100
,  // measure 28
0000
3001
0200
0000
0301
1000
0000
0012
,  // measure 29
0000
1003
0200
0000
1300
0001
0000
0101
,  // measure 30
0000
1001
0000
1010
0000
1001
0000
1100
,  // measure 31
0000
0011
0000
0001
1000
0010
0100
0001
,  // measure 32
0000
0011
0000
1100
0000
1000
0001
0100
,  // measure 33
0000
0101
0000
1010
0000
1000
0100
0010
,  // measure 34
0001
1000
0100
0001
0100
1000
0010
0000
,  // measure 35
1000
0001
0010
1000
0010
0001
0100
0000
,  // measure 36
0001
0010
1000
0010
0001
0100
0010
0000
,  // measure 37
0220
0000
0330
0000
1001
0000
0000
2020
,  // measure 38
0000
0000
0000
0000
0000
3030
0000
2200
,  // measure 39
0000
0000
0000
0000
0000
3300
0000
0022
,  // measure 40
0000
0000
0000
0000
0000
0033
0000
0202
,  // measure 41
0000
0000
0000
0000
0000
0303
0000
2010
,  // measure 42
0000
0000
0001
0000
3001
0000
0000
0102
,  // measure 43
0000
0000
1000
0000
1003
0000
0000
2100
,  // measure 44
0000
3001
0000
0012
0000
1003
0000
1001
,  // measure 45
0000
0001
0010
0100
1000
0001
0100
0002
,  // measure 46
0000
1003
0200
0000
1300
0001
0000
2010
,  // measure 47
0000
3001
0200
0000
0301
1000
0000
1100
,  // measure 48
0000
1001
0000
0011
0000
1001
0000
0101
,  // measure 49
0000
1010
0000
1000
0001
0010
0100
1000
,  // measure 50
0000
1010
0000
0101
0000
0001
1000
0100
,  // measure 51
0000
1100
0000
0011
0000
0001
0100
0010
,  // measure 52
1000
0001
0100
1000
0100
0001
0010
0000
,  // measure 53
0001
1000
0010
0001
0010
1000
0100
0000
,  // measure 54
1000
0010
0001
0010
1000
0100
0010
0000
,  // measure 55
0220
0000
0330
0000
2002
0000
3003
2010
,  // measure 56
0000
3001
0020
0000
0130
1000
0000
0012
,  // measure 57
0000
1003
0020
0000
0130
0001
0000
2001
,  // measure 58
0000
3100
0020
0000
0031
1000
0010
0200
,  // measure 59
0000
0301
1000
0100
0010
0001
0000
1001
,  // measure 60
0000
1000
0010
0100
0001
1000
0100
0010
,  // measure 61
0001
0100
0010
1000
0001
0010
0100
1000
,  // measure 62
0001
0000
1001
0000
1000
0100
0010
0001
,  // measure 63
0000
1000
0001
0100
0010
1000
0001
0000
,  // measure 64
0011
0000
0000
1100
0000
0000
0110
0000
,  // measure 65
1001
0000
0000
0000
;

//---------------dance-single - 最強の囮 -Daff_4K-----------------
#NOTES:
     dance-single:
     最強の囮 -Daff_4K-:
     Challenge:
     15:
     0.695961,0.835233,0.905068,0.715116,0.094976,436.000000,355.000000,81.000000,64.000000,0.000000,0.000000,0.695961,0.835233,0.905068,0.715116,0.094976,436.000000,355.000000,81.000000,64.000000,0.000000,0.000000:
// measure 0
0000
0000
0000
0000
,  // measure 1
0000
0000
0000
0000
,  // measure 2
2020
0000
0000
3030
,  // measure 3
0202
0000
0000
0303
,  // measure 4
0022
0033
2200
3300
,  // measure 5
2002
0000
0000
0000
3003
0000
0000
0000
0110
0000
1001
0000
0010
0100
1001
0000
,  // measure 6
1100
0000
0011
0000
0001
1000
0010
0000
,  // measure 7
1000
0100
0001
0100
1000
0001
0100
0000
,  // measure 8
0101
0000
1010
0000
1000
0001
0010
0000
,  // measure 9
0001
0100
1000
0100
0001
1000
0100
0000
,  // measure 10
0110
0000
1001
0000
0001
1000
0010
0100
,  // measure 11
0010
0000
1001
0000
1000
0001
0010
0100
,  // measure 12
0010
1001
1100
0011
,  // measure 13
0101
0000
1010
0000
1000
0100
0010
0001
,  // measure 14
2001
0000
0000
3020
0000
0000
0230
0000
0301
0010
0000
0010
0100
0000
0100
1000
,  // measure 15
0002
0000
0203
0000
2300
0000
3200
0000
0302
0000
0023
0000
0130
1000
0001
0000
,  // measure 16
1002
0000
0000
0023
0000
0000
0230
0000
1300
0010
0000
0010
0100
0000
0100
0001
,  // measure 17
2000
0000
3200
0000
0302
0000
0203
0000
1300
0010
1000
0010
0100
0001
0100
0002
,  // measure 18
2000
0000
0000
0003
,  // measure 19
0100
0100
0200
0000
3300
0000
0000
2010
,  // measure 20
0000
3100
0001
0100
1000
0001
0000
0102
,  // measure 21
0000
0013
1000
0010
0001
1000
0000
1010
,  // measure 22
0000
0011
0000
0101
0000
1100
0000
1010
,  // measure 23
0000
0101
0000
0001
1000
0100
0010
0012
,  // measure 24
0000
0103
1000
0100
0001
1000
0000
2100
,  // measure 25
0000
3010
0001
0010
1000
0001
0000
0011
,  // measure 26
0000
1010
0000
1100
0000
0101
0000
1001
,  // measure 27
0000
1000
0100
0010
0001
0100
0010
1020
,  // measure 28
0000
0130
0001
0010
0100
1000
0000
1200
,  // measure 29
0000
0310
0001
0100
0010
1000
0000
1100
,  // measure 30
0000
0011
0000
0101
0000
1001
0000
0110
,  // measure 31
0000
1001
0000
1000
0100
0010
0001
0101
,  // measure 32
0000
1010
0000
1001
0000
1000
0100
1100
,  // measure 33
0000
0011
0000
1001
0000
1000
0010
0100
,  // measure 34
0001
0010
1000
0010
0001
0001
0100
0100
,  // measure 35
0010
1000
0100
0001
0100
0100
0010
0010
,  // measure 36
0001
0100
1000
0001
0010
1000
0001
0010
,  // measure 37
0220
0000
0330
0000
2002
0000
3003
2020
,  // measure 38
0000
0000
0000
0000
0000
3030
0000
0202
,  // measure 39
0000
0000
0000
0000
0000
0303
0000
0022
,  // measure 40
0000
0000
0000
0000
0000
0033
0000
2200
,  // measure 41
0000
0000
0000
0000
0000
3300
0000
2010
,  // measure 42
0000
0000
0100
0000
0001
3001
0000
0012
,  // measure 43
0000
0000
0100
0000
1000
1003
0000
1010
,  // measure 44
0000
0101
0000
0001
0010
1000
0010
0001
,  // measure 45
1000
0000
0001
0000
0100
0000
0010
0000
1000
0001
1000
0001
1000
0001
0020
0000
,  // measure 46
0000
0130
1000
0010
0100
0001
0000
0201
,  // measure 47
0000
0310
1000
0100
0010
0001
0000
0101
,  // measure 48
0000
1010
0000
1100
0000
1001
0000
0110
,  // measure 49
0000
1001
0000
0001
0100
0010
1000
1100
,  // measure 50
0000
0011
0000
1001
0000
0001
0100
0101
,  // measure 51
0000
1010
0000
1001
0000
0001
0010
0100
,  // measure 52
1000
0010
0001
0010
1000
1000
0100
0100
,  // measure 53
0010
0001
0100
1000
0100
0100
0010
0010
,  // measure 54
1000
0100
0001
1000
0010
0001
1000
0000
,  // measure 55
2002
0000
3003
0000
0220
0000
0330
2001
,  // measure 56
0000
3010
0001
0010
1000
0100
0010
0002
,  // measure 57
0000
0103
1000
0100
0001
0010
0100
0020
,  // measure 58
0000
0031
0100
1000
0001
0010
1000
0200
,  // measure 59
0000
1300
0100
0001
1000
0010
0001
2001
,  // measure 60
0000
3010
0001
0010
0100
0100
0001
1000
,  // measure 61
0001
0010
1000
0010
0100
0100
1000
0001
,  // measure 62
0100
1000
0100
0100
0010
0010
1000
1000
,  // measure 63
0100
0001
0100
0100
0010
0010
0001
1000
,  // measure 64
2020
0000
3030
0202
0000
0303
0010
0100
,  // measure 65
1001
0000
0000
0000
;
