#VERSION:0.83;
#TITLE:Hollywood Galaxy;
#SUBTITLE:;
#ARTIST:dj TAKA;
#TITLETRANSLIT:;
#SUBTITLETRANSLIT:;
#ARTISTTRANSLIT:;
#GENRE:DRUM'N'BASS;
#ORIGIN:;
#CREDIT:;
#BANNER:Hollywood Galaxy.png;
#BACKGROUND:Hollywood Galaxy-bg.png;
#PREVIEWVID:;
#JACKET:Hollywood Galaxy-jacket.png;
#CDIMAGE:;
#DISCIMAGE:;
#LYRICSPATH:;
#CDTITLE:cdtitle.png;
#MUSIC:Hollywood Galaxy.ogg;
#OFFSET:-0.422000;
#SAMPLESTART:43.002998;
#SAMPLELENGTH:15.000000;
#SELECTABLE:YES;
#BPMS:0.000=186.000;
#STOPS:;
#DELAYS:;
#WARPS:;
#TIMESIGNATURES:0.000=4=4;
#TICKCOUNTS:0.000=4;
#COMBOS:0.000=1;
#SPEEDS:0.000=1.000=0.000=0;
#SCROLLS:0.000=1.000;
#FAKES:;
#LABELS:0.000=Song Start;
#BGCHANGES:;
#KEYSOUNDS:;
#ATTACKS:
;

//---------------dance-single - Daff_4K----------------
#NOTEDATA:;
#CHARTNAME:Daff_4K;
#STEPSTYPE:dance-single;
#DESCRIPTION:Daff_4K;
#CHARTSTYLE:;
#DIFFICULTY:Beginner;
#METER:3;
#RADARVALUES:0.153131,0.217063,0.026798,0.000000,0.000000,120.000000,117.000000,3.000000,0.000000,0.000000,0.000000,0.000000,0.000000,0.000000,0.153131,0.217063,0.026798,0.000000,0.000000,120.000000,117.000000,3.000000,0.000000,0.000000,0.000000,0.000000,0.000000,0.000000;
#CREDIT:Daff_4K;
#NOTES:
0000
0000
0000
0000
,
0000
0000
0000
0000
,
0000
0000
0000
0000
,
0000
0000
0000
0000
,
0000
0000
0000
0000
,
0000
0000
0000
0000
,
0000
0000
0000
0000
,
0000
0000
0000
0000
,
1000
0000
0000
0000
,
0001
0000
0000
0000
,
0010
0000
0000
0000
,
0100
0000
0000
0000
,
0010
0000
0010
0000
,
0100
0000
0100
0000
,
1000
0000
1000
0000
,
0001
0000
0001
0000
,
0000
0000
0000
0000
,
1000
0000
0001
0000
,
1000
0000
0000
0000
,
0010
0000
0100
0000
,
0010
0000
0000
0000
,
1000
0000
0100
0000
,
1000
0000
0000
0000
,
0001
0000
0100
0000
,
0010
0000
0100
0000
,
0001
0000
1000
0000
,
0001
0000
0000
0000
,
0010
0000
0100
0000
,
0010
0000
0000
0000
,
0001
0000
0100
0000
,
0001
0000
0000
0000
,
1000
0000
0001
0000
,
1001
0000
0000
0000
,
1000
1000
0000
0000
,
0001
0001
0000
0000
,
0100
0100
0000
0000
,
0010
0010
0000
0000
,
0100
0100
0000
0000
,
0001
0000
0001
0000
,
0010
0010
0000
0000
,
0100
0000
1000
0000
,
0001
0001
0000
0000
,
1000
1000
0000
0000
,
0100
0100
0000
0000
,
0010
0010
0000
0000
,
0100
0100
0000
0000
,
1000
0000
1000
0000
,
0010
0010
0000
0000
,
0100
0000
0001
0000
,
1000
0000
0000
0000
,
0001
0000
0000
0000
,
0100
0000
0010
0000
,
0100
0000
0000
0000
,
0010
0000
0000
0000
,
1000
0000
0000
0000
,
0001
0000
1000
0000
,
0001
0000
1000
0000
,
0001
0000
0000
0000
,
1000
0000
0000
0000
,
0100
0000
0010
0000
,
0100
0000
0000
0000
,
0010
0000
0000
0000
,
0001
0000
0000
0000
,
1000
0000
0001
0000
,
1001
0000
0000
0000
,
1000
0000
0010
0000
,
1000
0000
0000
0000
,
0010
0000
0100
0000
,
0010
0000
0000
0000
,
1000
0000
0001
0000
,
1000
0000
0000
0000
,
0001
0000
0010
0000
,
0001
0000
1000
0000
,
0001
0000
0010
0000
,
0001
0000
0000
0000
,
0010
0000
0100
0000
,
0010
0000
0000
0000
,
0001
0000
1000
0000
,
0001
0000
0000
0000
,
1000
0000
0010
0000
,
1000
0000
0001
0000
,
1001
0000
0000
0000
;

//---------------dance-single - Daff_4K----------------
#NOTEDATA:;
#CHARTNAME:Daff_4K;
#STEPSTYPE:dance-single;
#DESCRIPTION:Daff_4K;
#CHARTSTYLE:;
#DIFFICULTY:Easy;
#METER:6;
#RADARVALUES:0.278188,0.361772,0.035731,0.214383,0.000000,218.000000,214.000000,4.000000,24.000000,0.000000,0.000000,0.000000,0.000000,0.000000,0.278188,0.361772,0.035731,0.214383,0.000000,218.000000,214.000000,4.000000,24.000000,0.000000,0.000000,0.000000,0.000000,0.000000;
#CREDIT:Daff_4K;
#NOTES:
0000
0000
0000
0000
,
0000
0000
0000
0000
,
0000
0000
0000
0000
,
0000
0000
0000
0000
,
2000
0000
0000
3000
,
0002
0000
0000
0003
,
0020
0000
0000
0030
,
0200
0000
0000
0300
,
1000
0010
0000
0010
,
1000
0001
0000
0001
,
1000
0100
0000
0100
,
1000
0001
1000
0000
,
0001
0010
0000
0010
,
0001
1000
0000
1000
,
0001
0100
0000
0100
,
0001
1000
0001
0000
,
1001
0000
0000
0000
,
1000
0001
0000
0100
,
0010
0100
0000
0001
,
1000
0001
0000
0010
,
0100
1000
0010
0100
,
0001
1000
0000
0010
,
0100
0010
0000
1000
,
0001
1000
0000
0100
,
0001
0100
0010
0010
,
0001
1000
0000
0100
,
0010
0100
0000
1000
,
0001
1000
0000
0010
,
0100
0001
0010
0100
,
1000
0001
0000
0010
,
0100
0010
0000
0001
,
1000
0001
0000
0100
,
2002
0000
3003
0000
,
0001
0100
1000
0000
,
0001
0010
1000
0000
,
0001
0100
1000
0000
,
0001
0010
1000
0000
,
0001
0010
0100
0000
,
1000
0010
0100
0001
,
1000
0100
0010
0000
,
0001
0100
0010
1000
,
1000
0100
0001
0000
,
1000
0010
0001
0000
,
1000
0100
0001
0000
,
1000
0010
0001
0000
,
1000
0010
0100
0000
,
0001
0010
0100
1000
,
0001
0100
0010
0000
,
1000
0100
0010
0001
,
2000
0000
0000
3000
,
0002
0000
0000
0003
,
0200
0300
0020
0030
,
0200
0000
0000
0300
,
0002
0000
0000
0003
,
2000
0000
0000
3000
,
0200
0300
0020
0030
,
0002
0003
2000
3000
,
0002
0000
0000
0003
,
2000
0000
0000
3000
,
0200
0300
0020
0030
,
0200
0000
0000
0300
,
1000
0100
1000
1000
,
0001
0100
0001
0001
,
1000
0100
0010
0001
,
2002
0000
3003
0000
,
1000
0010
0100
0000
,
0001
0010
0100
0000
,
1000
0010
0100
0001
,
0100
1000
0100
0001
,
1000
0100
0010
0000
,
0001
0100
0010
0000
,
1000
0001
0010
1000
,
0010
0001
1000
0000
,
0001
0010
0100
0000
,
1000
0010
0100
0000
,
0001
0010
0100
1000
,
0100
0001
0100
1000
,
0001
0100
0010
0000
,
1000
0100
0010
0000
,
0001
1000
0010
0001
,
0010
1000
0001
0000
,
1001
0000
0000
0000
;

//---------------dance-single - Daff_4K----------------
#NOTEDATA:;
#CHARTNAME:Daff_4K;
#STEPSTYPE:dance-single;
#DESCRIPTION:Daff_4K;
#CHARTSTYLE:;
#DIFFICULTY:Medium;
#METER:11;
#RADARVALUES:0.504056,0.615012,0.267979,0.259047,0.000000,395.000000,365.000000,30.000000,29.000000,0.000000,0.000000,0.000000,0.000000,0.000000,0.504056,0.615012,0.267979,0.259047,0.000000,395.000000,365.000000,30.000000,29.000000,0.000000,0.000000,0.000000,0.000000,0.000000;
#CREDIT:Daff_4K;
#NOTES:
0000
0000
0000
0000
,
0000
0000
0000
0000
,
0000
0000
0000
0000
,
0000
0000
0000
0000
,
2000
0000
0000
0000
,
3002
0000
0000
0000
,
0203
0000
0000
0000
,
0320
0000
0000
0000
,
1030
0100
1000
0100
,
0010
0001
0010
0001
,
1000
0010
1000
0010
,
0100
0000
0001
0000
1000
0001
1000
0000
,
0001
0100
0001
0100
,
0010
1000
0010
1000
,
0001
0010
0001
0010
,
0100
0000
1000
0000
0001
1000
0001
0000
,
0200
0000
0000
0300
,
0001
0000
0101
0000
0010
1000
0001
0000
,
1000
0100
0010
0000
0100
1000
0001
0000
,
0100
0000
0110
0000
0010
1000
0001
0000
,
1000
0100
0010
0000
0100
1000
0001
0000
,
1000
0000
1010
0000
0100
0001
1000
0000
,
0001
0010
0100
0000
1000
0001
0100
0000
,
0001
0000
1001
0000
1000
0100
0010
0000
,
0100
1000
0001
0000
0100
0010
1000
0010
,
1000
0000
1100
0000
0010
0001
1000
0000
,
0001
0100
0010
0000
0100
0001
1000
0000
,
0100
0000
0110
0000
0010
0001
1000
0000
,
0001
0100
0010
0000
0100
0001
1000
0000
,
0001
0000
0011
0000
0100
1000
0001
0000
,
1000
0010
0100
0000
0001
1000
0100
0000
,
1000
0000
1001
0000
0001
0100
0010
0000
,
2002
0000
0000
3003
,
1000
0100
0010
0100
1000
0000
0011
0000
,
0001
0100
0010
1000
0001
0000
1001
0000
,
1000
0100
0010
0001
1000
0000
0101
0000
,
0001
0100
0010
0100
0001
0000
1010
0000
,
1000
0100
0010
0001
1000
0000
1001
0000
,
0001
0100
0010
0100
0001
1000
0100
0000
,
0010
0001
1000
0010
0100
0000
0101
0000
,
0001
1000
0100
0010
0001
0100
0010
1000
,
0001
0100
0010
0100
0001
0000
1010
0000
,
1000
0100
0010
0001
1000
0000
1001
0000
,
0001
0100
0010
1000
0001
0000
1100
0000
,
1000
0100
0010
0100
1000
0000
0011
0000
,
0001
0100
0010
1000
0001
0000
1001
0000
,
1000
0100
0010
0100
1000
0001
0100
0000
,
0010
1000
0001
0010
0100
0000
1100
0000
,
1000
0001
0100
0010
1000
0100
0010
0001
,
2000
0000
0000
0000
,
3002
0000
0000
0000
,
0023
0000
0230
0000
,
2300
0000
0000
0000
,
3020
0000
0000
0000
,
0230
0000
0000
0000
,
0302
0000
2003
0000
,
3020
0230
0302
2003
,
3200
0000
0010
0000
,
0320
0000
0001
0000
,
0032
0000
2003
0000
,
3020
0000
0100
0000
,
0130
0001
1000
0001
0010
0001
1000
0000
,
0100
1000
0001
1000
0010
1000
0001
0000
,
1000
0100
0010
0000
0001
0100
0010
0000
,
2002
0000
0000
3003
,
1000
0100
0010
0001
0010
0100
1000
0000
,
0001
0100
0010
0100
0001
1000
0001
0000
,
0010
0100
1000
0000
0010
0100
0001
0000
,
1000
0110
0001
0110
,
1000
0001
1000
0100
0010
0001
1000
0000
,
0010
0100
0010
1000
0001
0010
0100
0000
,
1000
0001
0100
0000
0010
1000
0001
0000
,
0010
1001
0100
1001
,
0001
0100
0010
1000
0010
0100
0001
0000
,
1000
0100
0010
0100
1000
0001
1000
0000
,
0010
0100
0001
0000
0010
0100
1000
0000
,
0001
0110
1000
0110
,
0001
1000
0001
0100
0010
1000
0001
0000
,
0010
0100
0010
0001
1000
0010
0100
0000
,
0001
1000
0100
0000
0010
0001
1000
0000
,
2002
0000
3003
0000
0001
0100
0010
1000
,
1001
0000
0000
0000
;

//---------------dance-single - Daff_4K----------------
#NOTEDATA:;
#CHARTNAME:Daff_4K;
#STEPSTYPE:dance-single;
#DESCRIPTION:Daff_4K;
#CHARTSTYLE:;
#DIFFICULTY:Hard;
#METER:14;
#RADARVALUES:0.671224,0.832075,0.339440,0.285844,0.200984,526.000000,488.000000,38.000000,32.000000,0.000000,0.000000,0.000000,0.000000,0.000000,0.671224,0.832075,0.339440,0.285844,0.200984,526.000000,488.000000,38.000000,32.000000,0.000000,0.000000,0.000000,0.000000,0.000000;
#CREDIT:Daff_4K;
#NOTES:
0000
0000
0000
0000
,
0000
0000
0000
0000
,
0000
0000
0000
0000
,
0000
0000
0000
0000
,
1000
0010
0100
0200
0000
0301
1000
0000
,
0100
0010
0001
2000
0000
3010
0100
0000
,
0001
0010
0100
0200
0000
1300
0001
0000
,
0100
0010
2000
0000
3100
0010
0002
0000
,
1003
0010
0100
0010
1000
0001
0010
0000
,
0100
1000
0010
0100
0010
1000
0001
0000
,
1000
0100
0010
0001
1000
0010
0100
0000
,
0001
0010
2000
0000
3010
0001
0200
0000
,
0301
0010
0100
0010
0001
1000
0010
0000
,
0100
0001
0010
0100
0010
0001
1000
0000
,
0001
0100
0010
1000
0001
0010
0100
0000
,
1000
0010
0002
0000
0013
1000
0200
0020
,
0000
0000
0000
0330
,
1001
0000
0011
0000
0100
1000
0010
0000
,
0100
0000
0001
0000
0010
0000
0100
0010
0100
0000
1000
0000
0001
0000
0000
0000
,
0101
0000
1010
0000
0001
0010
1000
0000
,
0010
0000
0001
0000
1000
0000
0010
0100
0010
0000
1000
0000
0001
0000
0000
0000
,
0011
0000
1100
0000
0001
0100
0010
0000
,
1000
0000
0001
0000
0010
0000
0100
0010
0100
0000
1000
0000
0010
0000
0000
0000
,
1010
0000
0101
0000
0001
1000
0100
0000
,
0001
0000
0100
0000
1000
0000
0001
1000
0001
0000
0010
0000
0100
0000
1000
0000
,
1001
0000
1010
0000
0100
0001
0010
0000
,
0100
0000
1000
0000
0010
0000
0100
0010
0100
0000
0001
0000
1000
0000
0000
0000
,
1100
0000
0011
0000
1000
0010
0001
0000
,
0010
0000
1000
0000
0001
0000
0010
0100
0010
0000
0001
0000
1000
0000
0000
0000
,
1010
0000
0101
0000
1000
0100
0010
0000
,
0001
0000
1000
0000
0010
0000
0100
0010
0100
0000
0001
0000
0010
0000
0000
0000
,
0011
0000
1100
0000
1000
0001
0100
0000
,
2002
0000
3003
0000
0001
1000
0010
0100
,
0001
0000
0010
0100
0010
0000
0001
0000
1000
0000
0000
0000
1010
0000
0000
0000
,
0100
0000
0001
0100
0001
0000
1000
0000
0100
0000
0010
0000
0011
0000
0000
0000
,
0001
0000
1000
0100
1000
0000
0010
0000
0100
0000
0000
0000
1001
0000
0000
0000
,
1000
0000
0100
0010
0100
0000
0010
0000
0001
0000
1000
0000
1100
0000
0000
0000
,
1000
0000
0001
0100
0001
0000
1000
0000
0100
0000
0000
0000
1001
0000
0000
0000
,
0010
0001
0100
1000
0100
0001
0010
0100
,
1000
0000
0001
0010
0001
0000
0100
0000
0010
0000
0000
0000
1001
0000
0000
0000
,
1000
0100
0001
0100
0010
0001
0100
0010
,
1000
0000
0010
0100
0010
0000
1000
0000
0001
0000
0000
0000
0011
0000
0000
0000
,
0100
0000
1000
0100
1000
0000
0001
0000
0100
0000
0010
0000
1010
0000
0000
0000
,
1000
0000
0001
0100
0001
0000
0010
0000
0100
0000
0000
0000
1001
0000
0000
0000
,
0001
0000
0100
0010
0100
0000
0010
0000
1000
0000
0001
0000
0101
0000
0000
0000
,
0001
0000
1000
0100
1000
0000
0001
0000
0100
0000
0000
0000
1001
0000
0000
0000
,
0010
1000
0100
0001
0100
1000
0010
0100
,
0001
0000
1000
0010
1000
0000
0100
0000
0010
0000
0000
0000
1001
0000
0000
0000
,
0001
0100
1000
0100
0010
1000
0100
0010
,
0002
0000
1000
0000
,
2003
0000
0010
0000
,
3020
0000
0230
0000
,
0302
0000
0000
0000
0013
0100
1000
0010
,
0200
0000
0001
0000
,
0302
0000
1000
0000
,
2003
0000
3200
0000
,
0320
0032
2003
3020
,
0230
0001
0000
0001
,
0302
0010
0000
0010
,
0023
0100
0230
1000
,
2300
0001
0001
0001
,
3001
0100
1000
0100
0010
1000
0001
0001
,
1000
0100
0001
0100
0010
0001
1000
1000
,
0001
1000
0010
0100
0001
0010
0100
1000
,
2002
0000
0000
3003
,
0001
0000
1000
0001
0000
1000
0100
0000
0010
0000
0001
0000
0100
0000
0000
0000
,
0010
0000
1000
0010
0000
1000
0001
0000
0010
0000
0100
0000
1000
0000
0000
0000
,
0001
0000
0100
0001
0000
0100
0010
0000
1000
0000
0001
0000
0010
0000
0000
0000
,
0100
1000
1010
0000
0100
0001
0011
0000
,
0100
0000
1000
0001
0000
1000
0001
0000
0100
0000
0010
0000
1000
0000
0000
0000
,
0001
0000
0010
0100
0000
0010
0100
0000
1000
0000
0001
0000
0100
0000
0000
0000
,
0010
0000
1000
0100
0000
1000
0100
0000
0010
0000
0001
0000
0100
0000
0000
0000
,
0001
0010
1000
0010
0001
0100
0010
0010
,
1000
0000
0001
1000
0000
0001
0100
0000
0010
0000
1000
0000
0100
0000
0000
0000
,
0010
0000
0001
0010
0000
0001
1000
0000
0010
0000
0100
0000
0001
0000
0000
0000
,
1000
0000
0100
1000
0000
0100
0010
0000
0001
0000
1000
0000
0010
0000
0000
0000
,
0100
0001
0011
0000
0100
1000
1010
0000
,
0100
0000
0001
1000
0000
0001
1000
0000
0100
0000
0010
0000
0001
0000
0000
0000
,
1000
0000
0010
0100
0000
0010
0100
0000
0001
0000
1000
0000
0100
0000
0000
0000
,
0110
0110
0000
1001
1001
0000
0001
0100
,
0010
0000
1000
0000
0100
0000
0010
0000
0001
1000
0001
1000
0001
1000
0001
1000
,
0001
0000
0000
0000
;

//---------------dance-single - Daff_4K----------------
#NOTEDATA:;
#CHARTNAME:Daff_4K;
#STEPSTYPE:dance-single;
#DESCRIPTION:Daff_4K;
#CHARTSTYLE:;
#DIFFICULTY:Challenge;
#METER:16;
#RADARVALUES:0.791177,0.868253,0.446632,0.303710,0.500228,620.000000,570.000000,50.000000,34.000000,0.000000,0.000000,0.000000,0.000000,0.000000,0.791177,0.868253,0.446632,0.303710,0.500228,620.000000,570.000000,50.000000,34.000000,0.000000,0.000000,0.000000,0.000000,0.000000;
#CREDIT:Daff_4K;
#NOTES:
// measure 0
0000
0000
0000
0000
,  // measure 1
0000
0000
0000
0000
,  // measure 2
0000
0000
0000
0000
,  // measure 3
0000
0000
0000
0000
,  // measure 4
1000
0010
0001
0020
0000
1030
0002
0000
,  // measure 5
1003
0100
0010
0002
0000
0103
0010
1000
,  // measure 6
0001
0010
1000
0020
0000
0031
2000
0000
,  // measure 7
3001
0100
0010
1000
0100
0010
0001
1000
,  // measure 8
0001
0100
0010
0100
1000
0100
0001
0010
,  // measure 9
0100
1000
0001
1000
0010
1000
0100
0010
,  // measure 10
0001
0010
0100
0010
1000
0010
0001
0100
,  // measure 11
0010
0000
1000
0000
0100
0000
0010
0000
0001
0000
0100
0000
0010
0000
1000
0010
,  // measure 12
1000
0100
0010
0100
0001
0100
1000
0010
,  // measure 13
0100
0001
1000
0001
0010
0001
0100
0010
,  // measure 14
1000
0010
0100
0010
0001
0010
1000
0100
,  // measure 15
0010
0001
0100
0010
1000
0100
0010
0001
,  // measure 16
2002
0000
0000
3003
,  // measure 17
1010
0000
0000
0000
0101
0000
0000
0001
1000
0000
0100
0000
0010
0000
0000
0010
,  // measure 18
0001
0000
1000
0000
0010
0000
0100
0010
0100
0000
0001
0000
1000
0000
0000
0000
,  // measure 19
1100
0000
0000
0000
0011
0000
0000
0001
1000
0000
0010
0000
0100
0000
0000
0100
,  // measure 20
0001
0000
1000
0000
0100
0000
0010
0100
0010
0000
0001
0000
1000
0000
0001
0000
,  // measure 21
0101
0000
0000
0000
1010
0000
0000
1000
0001
0000
0010
0000
0100
0000
0000
0100
,  // measure 22
1000
0000
0010
0000
0100
0000
0001
1000
0001
0000
1000
0000
0100
0000
0000
0000
,  // measure 23
0110
0000
0000
0000
1001
0000
0000
0001
0100
0000
1000
0000
0100
0000
0000
0100
,  // measure 24
0010
0000
1000
0000
0001
0000
0010
0100
0010
0000
0100
0000
1000
0000
0001
0000
,  // measure 25
0011
0000
0000
0000
1100
0000
0000
1000
0001
0000
0100
0000
0010
0000
0000
0010
,  // measure 26
1000
0000
0001
0000
0010
0000
0100
0010
0100
0000
1000
0000
0001
0000
0000
0000
,  // measure 27
0101
0000
0000
0000
1010
0000
0000
1000
0001
0000
0010
0000
0100
0000
0000
0100
,  // measure 28
1000
0000
0001
0000
0100
0000
0010
0100
0010
0000
1000
0000
0001
0000
1000
0000
,  // measure 29
1100
0000
0000
0000
0011
0000
0000
0001
1000
0000
0010
0000
0100
0000
0000
0100
,  // measure 30
0001
0000
0010
0000
0100
0000
1000
0001
1000
0000
0001
0000
0100
0000
0000
0000
,  // measure 31
0110
0000
0000
0000
1001
0000
0000
1000
0100
0000
0010
0000
0001
0000
0000
0000
,  // measure 32
2002
0000
0000
0000
3003
0000
0000
0000
1000
0100
1000
0100
0010
0001
0010
0001
,  // measure 33
1000
0010
1000
0010
0100
0000
0001
0000
0010
0000
0000
0000
1100
0000
0000
0000
,  // measure 34
1000
0001
1000
0001
0100
0000
0010
0000
1000
0000
0001
0000
0011
0000
0000
0000
,  // measure 35
0100
1000
0100
1000
0001
0000
0100
0000
0010
0000
0000
0000
1001
0000
0000
0000
,  // measure 36
1000
0100
1000
0100
0010
0000
0001
0000
1000
0000
0010
0000
0110
0000
0000
0000
,  // measure 37
0001
0010
0001
0010
0100
0000
1000
0000
0001
0000
0000
0000
0101
0000
0000
0000
,  // measure 38
0010
1000
0100
0001
1000
0010
0001
0100
,  // measure 39
0010
1000
0010
1000
0001
0000
0010
0000
0100
0000
0000
0000
1001
0000
0000
0000
,  // measure 40
0001
0000
0100
0000
1000
0000
0100
0000
0001
0000
0010
0000
0100
1000
0100
1000
,  // measure 41
0001
0010
0001
0010
0100
0000
1000
0000
0010
0000
0000
0000
0101
0000
0000
0000
,  // measure 42
0001
1000
0001
1000
0100
0000
0010
0000
0001
0000
1000
0000
1010
0000
0000
0000
,  // measure 43
0100
0001
0100
0001
1000
0000
0100
0000
0010
0000
0000
0000
1001
0000
0000
0000
,  // measure 44
0001
0100
0001
0100
0010
0000
1000
0000
0001
0000
0010
0000
0110
0000
0000
0000
,  // measure 45
1000
0010
1000
0010
0100
0000
0001
0000
1000
0000
0000
0000
1100
0000
0000
0000
,  // measure 46
0010
0001
0100
1000
0001
0010
1000
0100
,  // measure 47
1000
0000
0010
0000
0100
0000
0000
0100
0001
0000
0010
0000
0100
0000
0000
0100
,  // measure 48
1000
0000
0010
0000
0100
0000
0001
0000
0010
0100
0010
0100
1000
0001
1000
0002
,  // measure 49
0200
0000
0000
0303
,  // measure 50
2020
0000
0000
3030
,  // measure 51
2200
3300
0022
0033
,  // measure 52
2002
0000
3003
0000
0001
0100
0010
1000
,  // measure 53
2200
0000
0000
3300
,  // measure 54
0022
0000
0000
0033
,  // measure 55
0202
0303
2020
3030
,  // measure 56
1001
0011
0110
1100
,  // measure 57
1002
0100
1000
0010
,  // measure 58
2003
0100
0001
0010
,  // measure 59
3200
0001
0320
1000
,  // measure 60
0032
1000
0100
1000
,  // measure 61
0013
0000
0100
0000
1000
0000
0010
0000
0001
0000
0010
0000
1000
0000
0010
0100
,  // measure 62
0010
0000
0100
0000
0001
0000
0010
0000
1000
0000
0010
0000
0001
0000
1000
0001
,  // measure 63
1000
0000
0010
0100
0010
0000
0100
0001
0100
0000
0001
1000
0001
1000
0001
2000
,  // measure 64
0002
0000
0000
3003
,  // measure 65
1000
0000
0100
0010
0000
0100
1000
0000
0001
1000
0000
0010
0100
0000
0001
0000
,  // measure 66
0010
0000
0100
1000
0000
0100
0010
0000
0001
1000
0000
0001
0100
0000
0010
0000
,  // measure 67
1000
0000
0001
0010
0000
0100
0010
0000
0001
1000
0000
0001
0100
0000
0010
0000
,  // measure 68
1000
0001
0011
0010
0100
1000
1001
0000
,  // measure 69
0001
0000
0100
0010
0000
0100
0001
0000
1000
0100
0000
0010
0100
0000
1000
0000
,  // measure 70
0001
0000
0100
0010
0000
1000
0001
0000
0010
0100
0000
1000
0001
0000
0100
0000
,  // measure 71
0010
0000
1000
0100
0000
0010
0100
0000
1000
0001
0000
1000
0010
0000
0100
0000
,  // measure 72
0001
0010
1000
0010
0001
0100
0010
1000
,  // measure 73
0001
0000
0100
0010
0000
0100
0001
0000
1000
0001
0000
0010
0100
0000
1000
0000
,  // measure 74
0010
0000
0100
0001
0000
0100
0010
0000
1000
0001
0000
1000
0100
0000
0010
0000
,  // measure 75
0001
0000
1000
0010
0000
0100
0010
0000
1000
0001
0000
1000
0100
0000
0010
0000
,  // measure 76
0001
1000
1010
0010
0100
0001
1001
0000
,  // measure 77
1000
0000
0100
0010
0000
0100
1000
0000
0001
0100
0000
0010
0100
0000
0001
0000
,  // measure 78
1000
0000
0100
0010
0000
0001
1000
0000
0010
0100
0000
0001
1000
0000
0100
0000
,  // measure 79
0110
0110
0000
1001
1001
0000
0001
1000
,  // measure 80
0010
0000
0100
0000
0001
0000
1000
0000
0100
0010
0100
0010
0001
1000
0001
1000
,  // measure 81
0001
0000
0000
0000
;
