#VERSION:0.83;
#TITLE:炎歌 -ほむらうた-;
#SUBTITLE:;
#ARTIST:Hiro / 森山愛子;
#TITLETRANSLIT:HOMURA UTA;
#SUBTITLETRANSLIT:;
#ARTISTTRANSLIT:Hiro / Aiko Moriyama;
#GENRE:ENKA POP;
#ORIGIN:;
#CREDIT:;
#BANNER:HOMURA UTA.png;
#BACKGROUND:HOMURA UTA-bg.png;
#PREVIEWVID:;
#JACKET:HOMURA UTA-jacket.png;
#CDIMAGE:;
#DISCIMAGE:;
#LYRICSPATH:;
#CDTITLE:cdtitle.png;
#MUSIC:HOMURA UTA.ogg;
#OFFSET:-0.108000;
#SAMPLESTART:75.628998;
#SAMPLELENGTH:15.000000;
#SELECTABLE:YES;
#BPMS:0.000=108.000;
#STOPS:;
#DELAYS:;
#WARPS:;
#TIMESIGNATURES:0.000=4=4;
#TICKCOUNTS:0.000=4;
#COMBOS:0.000=1;
#SPEEDS:0.000=1.000=0.000=0;
#SCROLLS:0.000=1.000;
#FAKES:;
#LABELS:0.000=Song Start;
#BGCHANGES:0.000=HOMURA UTA.avi=1.000=0=0=0=StretchNoLoop==CrossFade_Fastest==,
99999=-nosongbg-=1.000=0=0=0 // don't automatically add -songbackground-
;
#KEYSOUNDS:;
#ATTACKS:
;

//---------------dance-single - Daff_4K----------------
#NOTEDATA:;
#CHARTNAME:Daff_4K;
#STEPSTYPE:dance-single;
#DESCRIPTION:Daff_4K;
#CHARTSTYLE:;
#DIFFICULTY:Beginner;
#METER:1;
#RADARVALUES:0.067871,0.106897,0.015837,0.000000,0.000000,60.000000,58.000000,2.000000,0.000000,0.000000,0.000000,0.000000,0.000000,0.000000,0.067871,0.106897,0.015837,0.000000,0.000000,60.000000,58.000000,2.000000,0.000000,0.000000,0.000000,0.000000,0.000000,0.000000;
#CREDIT:Daff_4K;
#NOTES:
// measure 0
0000
0000
0000
0000
,  // measure 1
0000
0000
0000
0000
,  // measure 2
0000
0000
0000
0000
,  // measure 3
0000
0000
0000
0000
,  // measure 4
0000
0000
0000
0000
,  // measure 5
1000
0000
0000
0000
,  // measure 6
0001
0000
0000
0000
,  // measure 7
0100
0000
0000
0000
,  // measure 8
0000
0000
0000
0000
,  // measure 9
0001
0000
0010
0000
,  // measure 10
0001
0000
0000
0000
,  // measure 11
0100
0000
0000
0000
,  // measure 12
0100
0000
0000
0000
,  // measure 13
0001
0000
1000
0000
,  // measure 14
0001
0000
0000
0000
,  // measure 15
0010
0000
0000
0000
,  // measure 16
0100
0000
0000
0000
,  // measure 17
1000
0000
0010
0000
,  // measure 18
1000
0000
0000
0000
,  // measure 19
0100
0000
0000
0000
,  // measure 20
0100
0000
0000
0000
,  // measure 21
1000
0000
0001
0000
,  // measure 22
1000
0000
0000
0000
,  // measure 23
0010
0000
0010
0000
,  // measure 24
0100
0000
0000
0000
,  // measure 25
0001
0000
0000
0000
,  // measure 26
0010
0000
0000
0000
,  // measure 27
1000
0000
0000
0000
,  // measure 28
0010
0000
0000
0000
,  // measure 29
0001
0000
0000
0000
,  // measure 30
1000
0000
0000
0000
,  // measure 31
0010
0000
0010
0000
,  // measure 32
0100
0000
0000
0000
,  // measure 33
0000
0000
0000
0000
,  // measure 34
0001
0000
0010
0000
,  // measure 35
0001
0000
0001
0000
,  // measure 36
0100
0000
0000
0000
,  // measure 37
0010
0000
0000
0000
,  // measure 38
1000
0000
0010
0000
,  // measure 39
1000
0000
1000
0000
,  // measure 40
0100
0000
0000
0000
,  // measure 41
0010
0000
0000
0000
,  // measure 42
0001
0000
0000
0000
,  // measure 43
1000
0000
0000
0000
,  // measure 44
0010
0000
0010
0000
,  // measure 45
0010
0000
0000
0000
,  // measure 46
1001
0000
0000
0000
,  // measure 47
0001
0000
0000
0000
,  // measure 48
1000
0000
0000
0000
,  // measure 49
0010
0000
0000
0000
,  // measure 50
0010
0000
0000
0000
,  // measure 51
1000
0000
0000
0000
,  // measure 52
0001
0000
0000
0000
,  // measure 53
0000
0000
0000
0000
,  // measure 54
1001
0000
0000
0000
;

//---------------dance-single - Daff_4K----------------
#NOTEDATA:;
#CHARTNAME:Daff_4K;
#STEPSTYPE:dance-single;
#DESCRIPTION:Daff_4K;
#CHARTSTYLE:;
#DIFFICULTY:Easy;
#METER:4;
#RADARVALUES:0.147054,0.177370,0.047510,0.221712,0.000000,130.000000,124.000000,6.000000,28.000000,0.000000,0.000000,0.000000,0.000000,0.000000,0.147054,0.177370,0.047510,0.221712,0.000000,130.000000,124.000000,6.000000,28.000000,0.000000,0.000000,0.000000,0.000000,0.000000;
#CREDIT:Daff_4K;
#NOTES:
0000
0000
0000
0000
,
0000
0000
0000
0000
,
0000
0000
0000
0000
,
0000
0000
0000
0000
,
0000
0000
0000
0000
,
1000
0010
1000
0000
,
0001
0010
0001
0000
,
0100
0100
0010
0000
,
2002
0000
3003
0000
,
1000
0000
0010
0100
,
0002
0003
2000
3000
,
0100
0000
0010
0001
,
2000
0000
3000
0000
,
0010
0000
0100
0001
,
0020
0030
0200
0300
,
1000
0000
0001
0000
,
0100
0010
1000
0000
,
0001
0000
0010
0100
,
2000
3000
0002
0003
,
0100
0000
0010
1000
,
0002
0000
0003
0000
,
0010
0000
0100
1000
,
0020
0030
0200
0300
,
0002
0003
2000
3000
,
0200
0000
0000
0300
,
1000
0010
0100
0001
,
0020
0000
0130
0000
,
0100
1000
0010
0100
,
0002
0000
1003
0000
,
0001
0010
0100
1000
,
0020
0000
0130
0000
,
0002
0003
2000
3000
,
0200
0300
0020
0030
,
1001
0000
0000
0000
,
0001
0100
1000
0100
,
0001
0100
0020
0030
,
1000
0100
0010
0001
,
2000
0000
3000
0000
,
1000
0100
0001
0100
,
1000
0100
0020
0030
,
0001
0100
0010
1000
,
0001
0000
1000
0000
,
1001
0000
0001
0000
,
1001
0000
1000
0000
,
0010
0000
0100
0000
,
0001
1000
0001
0000
,
1001
0000
0000
0000
,
1000
0010
1000
0000
,
0001
0010
0001
0000
,
1000
0100
1000
0000
,
0001
0100
0001
0000
,
0010
0010
0100
0000
,
1000
0001
1000
0000
,
0020
0000
0000
0030
,
2002
0000
0000
0000
,
0000
0000
0000
0000
,
3003
0000
0000
0000
;

//---------------dance-single - Daff_4K----------------
#NOTEDATA:;
#CHARTNAME:Daff_4K;
#STEPSTYPE:dance-single;
#DESCRIPTION:Daff_4K;
#CHARTSTYLE:;
#DIFFICULTY:Medium;
#METER:6;
#RADARVALUES:0.214925,0.266054,0.166284,0.395914,0.000000,190.000000,169.000000,21.000000,50.000000,0.000000,0.000000,0.000000,0.000000,0.000000,0.214925,0.266054,0.166284,0.395914,0.000000,190.000000,169.000000,21.000000,50.000000,0.000000,0.000000,0.000000,0.000000,0.000000;
#CREDIT:Daff_4K;
#NOTES:
0000
0000
0000
0000
,
0000
0000
0000
0000
,
0000
0000
0000
0000
,
0000
0000
0000
0000
,
0000
0000
0000
0000
,
1000
0000
0010
0000
0100
0010
1000
0000
,
0001
0000
0010
0000
0100
0010
0001
0000
,
0100
0000
0010
0000
1000
0001
0000
1001
,
0000
0000
0000
0000
,
1000
0000
0010
0000
0100
0000
0001
1000
,
0200
0000
0020
0330
,
0001
0000
0100
0000
0010
0000
1000
0001
,
0020
0000
0130
0000
,
1000
0000
0001
0000
0100
0000
0010
1000
,
0002
0000
2000
3003
,
0220
0330
0001
1000
,
0020
0130
0002
1003
,
0001
0000
0010
0000
0100
0000
1000
0001
,
0200
0000
0020
0330
,
1000
0000
0100
0000
0010
0000
0001
1000
,
0020
0000
0130
0000
,
0001
0000
1000
0000
0100
0000
0010
0001
,
2000
0000
0002
3003
,
2200
3300
0202
0303
,
2002
0000
0000
3003
,
1000
0100
0010
0001
,
0200
0010
0000
0310
,
1000
0001
0010
0100
,
2000
0001
0000
3001
,
0001
0100
0010
1000
,
0200
0010
0000
0310
,
0001
0100
1000
0100
,
0020
0100
0100
0130
,
1001
0000
0000
0000
,
1000
1100
0001
0011
,
1000
0001
2002
3003
,
1000
0010
0001
0100
,
2000
0001
0002
3003
,
0001
0101
1000
1010
,
0001
1000
2002
3003
,
0001
0010
1000
0100
,
0002
1000
2000
3003
,
2200
3300
0022
0033
,
0202
0303
2020
3030
,
0220
0330
2002
3003
,
0220
0000
0000
0330
,
1001
0000
0000
0000
,
0001
0000
1000
0000
0010
0010
0100
0000
,
0001
0000
0010
0000
0100
0010
0001
0000
,
1000
0000
0001
0000
0010
0010
0100
0000
,
1000
0000
0010
0000
0100
0010
1000
0000
,
0001
0000
1000
0000
0100
0010
0100
0000
,
1000
0000
0001
0000
0100
0010
0100
0000
,
0002
0000
2003
0000
3010
0100
0010
0000
,
2002
0000
0000
0000
,
0000
0000
0000
0000
,
3003
0000
0000
0000
;

//---------------dance-single - Daff_4K----------------
#NOTEDATA:;
#CHARTNAME:Daff_4K;
#STEPSTYPE:dance-single;
#DESCRIPTION:Daff_4K;
#CHARTSTYLE:;
#DIFFICULTY:Hard;
#METER:9;
#RADARVALUES:0.266959,0.332568,0.079183,0.411751,0.000000,236.000000,226.000000,10.000000,52.000000,0.000000,0.000000,0.000000,0.000000,0.000000,0.266959,0.332568,0.079183,0.411751,0.000000,236.000000,226.000000,10.000000,52.000000,0.000000,0.000000,0.000000,0.000000,0.000000;
#CREDIT:Daff_4K;
#NOTES:
0000
0000
0000
0000
,
0000
0000
0000
0000
,
0000
0000
0000
0000
,
0000
0000
0000
0000
,
0000
0000
0000
0000
,
0000
1000
1000
0010
0010
0100
0001
1000
,
0000
0001
0001
0010
0010
0100
1000
0001
,
0100
0000
0010
0000
1000
0001
0010
2002
,
0000
0000
0000
3003
,
1000
0000
0010
0000
0100
0001
0010
0100
,
2000
0000
0002
3003
,
1000
0000
0100
0000
0010
0001
1000
0010
,
0200
0000
0301
0000
,
1000
0000
0001
0000
0010
0100
1000
0001
,
0200
0000
0020
0330
,
2002
0000
3003
0000
1000
0100
0001
0100
,
0020
0100
0002
0033
,
0001
0000
0010
0000
0100
1000
0010
0100
,
0002
0000
2000
3003
,
0001
0000
0100
0000
0010
1000
0001
0010
,
0200
0000
1300
0000
,
0001
0000
1000
0000
0010
0100
0001
1000
,
0200
0000
0000
0000
0020
0000
0330
0002
,
0100
0003
0001
2000
0100
3000
1000
0020
,
0200
0000
0000
0330
,
2001
3100
0002
0013
,
2000
0000
0100
0000
0000
0000
3010
1000
,
0002
0013
0200
1300
,
0020
0001
0000
1030
,
1002
0103
2000
3010
,
0002
0000
0100
0000
0000
0000
1003
0001
,
0200
0000
0301
1000
0200
0000
0310
0001
,
0200
1000
0001
0310
,
2002
0000
0000
3003
,
1000
0010
0001
0010
1000
0100
0001
0100
,
1000
0010
0001
0100
2000
0000
3010
0000
,
0100
0001
0010
0000
0100
1000
0010
0000
,
0200
0001
0010
0301
,
0001
0010
1000
0010
0001
0100
1000
0100
,
0001
0010
1000
0100
0002
0000
0013
0000
,
0100
1000
0010
0000
0100
0001
0010
0000
,
0200
1000
0010
1300
,
2020
3030
0202
0303
,
0022
0000
0033
0000
2200
0000
3300
1000
,
0020
0000
0130
0001
0020
0000
0130
1000
,
0002
0000
0100
0000
0010
0000
1000
1003
,
0000
0000
0000
0000
,
0000
0001
0001
0100
0100
1000
0100
0001
,
0000
1000
1000
0100
0100
0010
0001
0001
,
0000
1000
1000
0100
0100
0001
0100
1000
,
0000
0001
0001
0100
0100
0010
1000
1000
,
0000
0100
0100
0100
0010
0010
0010
0001
,
0000
0100
0100
0100
0010
0010
0010
1000
,
0200
0000
0000
0300
,
2002
0000
0000
0000
,
0000
0000
0000
0000
,
3003
0000
0000
0000
;

//---------------dance-single - Daff_4K----------------
#NOTEDATA:;
#CHARTNAME:Daff_4K;
#STEPSTYPE:dance-single;
#DESCRIPTION:Daff_4K;
#CHARTSTYLE:;
#DIFFICULTY:Challenge;
#METER:12;
#RADARVALUES:0.420800,0.687307,0.387996,0.348404,0.209835,372.000000,323.000000,49.000000,44.000000,112.000000,0.000000,0.000000,0.000000,0.000000,0.420800,0.687307,0.387996,0.348404,0.209835,372.000000,323.000000,49.000000,44.000000,112.000000,0.000000,0.000000,0.000000,0.000000;
#CREDIT:Daff_4K;
#NOTES:
0000
0000
0000
0000
,
0000
0000
0000
0000
,
0000
0000
0000
0000
,
0000
0000
0000
0000
,
0000
0000
0000
0000
,
MMMM
2000
0100
3020
0001
0130
0001
1000
,
MMMM
0002
0100
0023
1000
0130
1000
0001
,
0100
0000
0100
0000
0010
0000
0010
0000
1000
0000
0001
1000
0001
0000
0110
0000
,
MMMM
MMMM
MMMM
MMMM
,
MMMM
0000
1000
0000
0010
0000
0001
0000
1000
0000
0100
0000
0001
1000
0100
0010
,
0200
0001
0010
1300
,
MMMM
0000
0001
0000
0100
0000
0010
0000
0001
0000
0010
0000
1000
0100
0001
1000
,
0020
1000
0100
0031
,
MMMM
0000
1000
0000
0010
0000
0001
0000
0010
0000
0100
0000
0001
0010
0100
1000
,
0002
0000
0000
0000
0010
0000
0000
0000
1000
0000
0000
0000
0103
0000
0010
2000
,
0010
0000
0001
0000
3100
0010
0001
2000
,
0010
0000
0000
0000
3001
0000
0010
0002
0010
0000
0000
0000
1003
0000
0000
0000
,
MMMM
0000
0001
0000
0010
0000
1000
0000
0001
0000
0100
0000
1000
0001
0100
0010
,
0200
1000
0010
0301
,
MMMM
0000
1000
0000
0100
0000
0010
0000
1000
0000
0010
0000
0001
0100
1000
0001
,
0020
0001
0100
1030
,
MMMM
0000
0001
0000
0010
0000
1000
0000
0010
0000
0100
0000
1000
0010
0100
0001
,
2000
0000
0000
0000
0010
0000
0000
0000
0001
0000
0000
0000
3100
0000
0010
0002
,
0010
0000
0000
0000
0103
0000
0010
2000
0010
0000
0000
0000
3100
0000
0010
0200
,
0010
1000
0001
1300
,
0002
0100
0000
0000
2003
0100
0000
0000
3002
0010
0000
0000
2003
0010
0000
0000
,
3001
0100
0010
2000
0000
0000
0000
0000
0010
0000
0000
0000
3001
0000
0100
0010
,
2000
0100
0000
0000
3020
0001
0000
0000
0230
1000
0000
0000
0302
0010
0000
0000
,
1003
0100
0010
0002
0000
0000
0000
0000
0013
0000
0000
0100
0010
0000
0001
0000
,
2000
0100
0000
0000
3002
0100
0000
0000
2003
0010
0000
0000
3002
0010
0000
0000
,
1003
0100
0010
0002
0000
0000
0000
0000
0010
0000
0000
0000
1003
0000
0001
0200
,
1000
0000
0000
0000
0310
0000
1000
0200
0001
0000
0000
0000
0310
0000
0001
0200
,
1000
0010
0302
2000
,
0000
0000
0000
3003
,
1000
0101
0010
1100
0010
0101
1000
0011
,
1000
0110
0001
1000
0110
0000
MMMM
0000
,
0001
0000
0100
0000
1000
0000
0010
0000
0001
0000
1000
0020
0001
0000
0100
0000
,
2030
0000
0100
0000
3001
1000
0010
0100
,
0001
1100
0010
0101
0010
1100
0001
1010
,
0001
0110
1000
0001
0110
0000
MMMM
0000
,
1000
0000
0100
0000
0001
0000
0010
0000
1000
0000
0001
0020
1000
0000
0100
0000
,
0032
0000
0100
0000
1003
0001
0010
0100
,
1100
MMMM
0101
MMMM
,
1010
0000
0000
0000
MMMM
0000
0000
0000
0011
0000
0000
0000
MMMM
0000
0001
0020
,
1000
0000
0000
0000
0031
0000
1000
0020
0001
0000
0000
0000
1030
0000
0200
0000
,
0001
0000
0010
0000
1300
0001
0110
1001
,
MMMM
MMMM
MMMM
MMMM
,
MMMM
0001
1100
0010
0101
0010
1001
0110
,
MMMM
1000
0011
0100
1010
0100
0110
1001
,
MMMM
1000
0101
0010
1100
0010
1001
0110
,
MMMM
0001
1010
0100
0011
0100
0110
1001
,
MMMM
1001
1100
1010
0101
0011
1001
0110
,
MMMM
1001
0101
0011
1100
1010
1001
0110
,
1000
0100
0010
0001
0010
0100
1000
0100
0010
0001
0010
0001
0010
0001
0100
1000
,
0200
0000
0000
0000
,
0000
0000
0000
0000
,
0300
0000
0000
0000
;
