#TITLE:FLY HIGH!!;
#SUBTITLE:;
#ARTIST:BURNOUT SYNDROMES;
#TITLETRANSLIT:;
#SUBTITLETRANSLIT:;
#ARTISTTRANSLIT:;
#GENRE:J-ROCK;
#CREDIT:;
#BANNER:FLY HIGH!!.png;
#BACKGROUND:FLY HIGH!!-bg.png;
#LYRICSPATH:;
#CDTITLE:cdtitle.png;
#MUSIC:FLY HIGH!!.ogg;
#OFFSET:0.036000;
#SAMPLESTART:55.217999;
#SAMPLELENGTH:15.000000;
#SELECTABLE:YES;
#BPMS:0.000000=189.000000
;
#STOPS:
;
#BGCHANGES:0.000=FLY HIGH!!.avi=1.000=0=0=0=StretchNoLoop==CrossFade_Fastest==,
99999=-nosongbg-=1.000=0=0=0 // don't automatically add -songbackground-
;
#KEYSOUNDS:;
#ATTACKS:;

//---------------dance-single - Daff_4K----------------
#NOTES:
     dance-single:
     Daff_4K:
     Beginner:
     4:
     0.173016,0.311111,0.088889,0.000000,0.000000,109.000000,101.000000,8.000000,0.000000,0.000000,0.000000,0.173016,0.311111,0.088889,0.000000,0.000000,109.000000,101.000000,8.000000,0.000000,0.000000,0.000000:
// measure 0
0000
0000
0000
0000
,  // measure 1
0000
0000
0000
0000
,  // measure 2
0000
0000
0000
0000
,  // measure 3
0000
0000
0000
0000
,  // measure 4
0000
0000
0000
0000
,  // measure 5
0000
0000
0000
0000
,  // measure 6
0000
0000
0000
0000
,  // measure 7
0000
0000
0000
0000
,  // measure 8
0000
0000
0000
0000
,  // measure 9
0000
1000
1000
0000
,  // measure 10
0000
0001
0001
0000
,  // measure 11
0000
0100
0100
0000
,  // measure 12
0000
0010
0010
0000
,  // measure 13
0000
1000
1000
0000
,  // measure 14
0000
0001
0001
0000
,  // measure 15
1001
0000
0000
0000
,  // measure 16
0000
0000
0000
0000
,  // measure 17
0001
0000
0000
0000
,  // measure 18
0001
0000
0000
0000
,  // measure 19
0100
0000
0100
0000
,  // measure 20
0100
0000
0000
0000
,  // measure 21
0010
0000
0010
0000
,  // measure 22
0010
0000
0000
0000
,  // measure 23
1000
0000
0000
0000
,  // measure 24
0001
0000
0000
0000
,  // measure 25
1000
0000
0000
0000
,  // measure 26
1000
0000
0000
0000
,  // measure 27
0100
0000
0100
0000
,  // measure 28
0100
0000
0000
0000
,  // measure 29
0010
0000
0010
0000
,  // measure 30
0010
0000
0000
0000
,  // measure 31
0001
0000
0000
0000
,  // measure 32
1001
0000
0000
0000
,  // measure 33
1000
0000
0000
0000
,  // measure 34
0010
0000
0010
0000
,  // measure 35
0001
0000
0000
0000
,  // measure 36
0010
0000
0010
0000
,  // measure 37
1000
0000
0000
0000
,  // measure 38
0001
0000
0000
0000
,  // measure 39
0010
0000
0010
0000
,  // measure 40
0100
0000
0100
0000
,  // measure 41
1001
0000
0000
0000
,  // measure 42
0000
0000
0000
0000
,  // measure 43
0000
0000
0000
0000
,  // measure 44
0000
1000
1000
0000
,  // measure 45
0000
0001
0001
0000
,  // measure 46
0010
0000
0010
0000
,  // measure 47
0100
0100
0100
0000
,  // measure 48
1000
0000
0001
0000
,  // measure 49
0100
0000
0010
0000
,  // measure 50
0110
0000
1001
0000
,  // measure 51
0100
0100
0100
0000
,  // measure 52
0000
0001
0001
0000
,  // measure 53
0000
1000
1000
0000
,  // measure 54
0010
0000
0010
0000
,  // measure 55
0100
0100
0100
0000
,  // measure 56
0001
0000
1000
0000
,  // measure 57
0100
0000
0010
0000
,  // measure 58
0110
0000
1001
0000
,  // measure 59
0100
0100
0100
0000
,  // measure 60
0000
0001
0001
0000
,  // measure 61
0000
1000
1000
0000
,  // measure 62
0000
0100
0000
0100
,  // measure 63
0000
0010
0010
0000
,  // measure 64
0000
0001
0001
0000
,  // measure 65
0000
1000
1000
0000
,  // measure 66
1001
0000
0000
0000
,  // measure 67
0000
0000
0000
0000
,  // measure 68
0001
0000
1000
0000
,  // measure 69
0001
0000
0010
0010
,  // measure 70
0010
0000
0000
0000
;

//---------------dance-single - Daff_4K----------------
#NOTES:
     dance-single:
     Daff_4K:
     Easy:
     5:
     0.274603,0.388889,0.100000,0.266667,0.000000,173.000000,164.000000,9.000000,24.000000,0.000000,0.000000,0.274603,0.388889,0.100000,0.266667,0.000000,173.000000,164.000000,9.000000,24.000000,0.000000,0.000000:
0000
0000
0000
0000
,
0000
0000
0000
0000
,
0000
0000
0000
0000
,
0000
0000
0000
0000
,
0000
0000
0000
0000
,
0000
0000
0000
0000
,
0000
0000
0000
0000
,
0000
0000
0000
0000
,
0000
0000
0000
0000
,
1000
0010
1000
0000
,
0001
0010
0001
0000
,
0100
0010
1000
0000
,
0100
0010
0001
0000
,
0100
0100
0010
0010
,
1000
0001
1000
0000
,
2002
0000
0000
0000
,
0000
0000
3003
0000
,
0002
0000
0010
0000
,
0010
0000
1000
0000
,
1000
0000
0103
0010
,
2000
0000
0001
0000
,
3002
0000
0010
0000
,
0023
0000
0100
0000
,
0130
1000
0001
1000
,
0010
0100
0001
0000
,
2000
0000
0010
0000
,
0010
0000
0001
0000
,
0001
0000
3100
0010
,
0002
0000
1000
0000
,
2003
0000
0010
0000
,
3020
0000
0100
0000
,
0130
0001
1000
0000
,
2002
0000
3003
0000
,
0002
0000
0023
0000
,
0130
1000
0001
0000
,
2000
0000
3020
0000
,
0130
0001
1000
0000
,
0100
0010
0100
0000
,
1000
0001
1000
0000
,
1010
0000
0101
0000
,
0011
0000
1100
0000
,
1000
0000
0000
1000
0000
0000
0001
0000
,
0000
0001
0000
0000
2002
0000
0000
0000
,
0000
0000
3003
0000
,
0001
0100
1000
0000
,
1000
0010
0001
0000
,
0001
0100
1000
0100
,
0010
0100
0001
0001
,
1000
1000
0100
0000
,
0001
0001
0100
0000
,
0020
0030
0200
0300
,
1000
1000
0001
0001
,
1000
0100
0001
0000
,
0001
0010
1000
0000
,
1000
0100
0001
0100
,
0010
0100
1000
1000
,
0001
0001
0100
0000
,
1000
1000
0100
0000
,
0020
0030
0200
0300
,
0001
0001
1000
1000
,
0001
0010
0001
0000
,
1000
0010
1000
0000
,
0100
0100
0010
0010
,
0001
1000
0001
1000
,
0010
0100
0001
0000
,
0010
0100
1000
0000
,
2002
0000
0000
0000
,
0000
0000
3003
0000
,
0001
0100
0010
1000
,
0100
0010
0001
1000
,
1001
0000
0000
0000
;

//---------------dance-single - Daff_4K----------------
#NOTES:
     dance-single:
     Daff_4K:
     Medium:
     9:
     0.398413,0.504653,0.266667,0.644444,0.000000,251.000000,227.000000,24.000000,58.000000,0.000000,0.000000,0.398413,0.504653,0.266667,0.644444,0.000000,251.000000,227.000000,24.000000,58.000000,0.000000,0.000000:
0000
0000
0000
0000
,
0000
0000
0000
0000
,
0000
0000
0000
0000
,
0000
0000
0000
0000
,
0000
0000
0000
0000
,
0000
0000
0000
0000
,
0000
0000
0000
0000
,
0000
0000
0000
0000
,
0000
0000
0000
0000
1000
0001
0000
2001
,
0000
0000
3010
0000
0100
0000
0001
2000
,
0000
0000
3100
0000
0010
0001
1000
0002
,
0000
0000
0013
0000
0100
0000
1000
0002
,
0000
0000
0103
0000
0010
1000
0000
0200
,
0000
0000
0310
0000
0001
1000
0001
0200
,
0000
0010
0000
0010
0000
0310
0000
2002
,
0000
0000
0000
0000
,
0000
0000
3003
0000
,
2000
0010
0000
3010
,
0200
0001
0000
0301
,
2000
0100
0000
3100
,
0020
0001
0000
0031
,
1000
0010
0100
0010
,
0001
0010
1000
0100
,
0001
0100
1000
0001
,
0100
0000
0010
0000
1000
0001
1000
0000
,
0002
0010
0000
0013
,
0200
1000
0000
1300
,
0002
0100
0000
0103
,
0020
1000
0000
1030
,
0001
0010
0100
0010
,
1000
0010
0001
0100
,
1000
0000
0100
0000
0001
1000
0000
2002
,
0000
0000
0000
3003
,
2002
0003
0200
0300
,
3010
0100
0001
1000
,
2002
3000
0200
0300
,
0013
0100
1000
0001
,
0200
0010
0310
1000
,
0200
0010
0310
0001
,
0202
0303
2020
3030
,
2200
3300
0022
0033
,
1001
0000
0000
1001
0000
0000
0110
0000
,
0000
0110
0000
0000
2002
0000
0000
0000
,
0000
0000
0000
0000
3003
0000
0000
2001
,
0000
3010
0200
0000
0301
0000
0001
2000
,
0000
3100
0020
0000
0031
1000
0000
1001
,
0000
0001
1000
0000
0010
0000
0100
0001
,
0000
0010
0000
1000
0000
0110
0000
1001
,
0000
0001
1000
0000
0010
0000
0001
0000
,
0100
1000
0010
0100
,
0001
0020
0000
0100
0000
0100
0000
0100
,
0000
0130
0000
1000
0001
1000
0000
1002
,
0000
0013
0200
0000
1300
0000
1000
0002
,
0000
0103
0020
0000
1030
0001
0000
1001
,
0000
1000
0001
0000
0010
0000
0100
1000
,
0000
0010
0000
0001
0000
0110
0000
1001
,
0000
1000
0001
0000
0010
0000
1000
0000
,
0100
0001
0010
0100
,
1000
0020
0000
0100
0000
0100
0000
0100
,
0000
0130
0001
1000
0001
1000
0000
1002
,
0000
0000
0013
0000
0100
0000
1000
0002
,
0000
0000
0103
0000
0010
1000
0001
2000
,
0000
3002
0000
0023
0000
0230
0000
2300
,
0000
3002
0000
0103
0010
0100
0000
0020
,
0000
0000
1030
0000
0001
1000
0001
0020
,
0000
0100
0000
0100
0000
0130
0000
2002
,
0000
0000
0000
0000
,
0000
0000
0000
3003
,
1000
0000
0010
0100
0010
0000
0001
0000
,
0010
0100
0010
0000
1000
1000
0001
0001
;

//---------------dance-single - Daff_4K----------------
#NOTES:
     dance-single:
     Daff_4K:
     Hard:
     12:
     0.620635,0.698750,0.822222,0.533333,0.000000,391.000000,317.000000,74.000000,48.000000,0.000000,0.000000,0.620635,0.698750,0.822222,0.533333,0.000000,391.000000,317.000000,74.000000,48.000000,0.000000,0.000000:
0000
0000
0000
0000
,
0000
0000
0000
0000
,
0000
0000
0000
0000
,
0000
0000
0000
0000
,
0000
0000
0000
0000
,
0000
0000
0000
0000
,
0000
0000
0000
0000
,
0000
0000
0000
0000
,
0000
0000
0000
0000
1000
0001
0000
0201
,
0000
0310
2000
0000
3100
0001
0100
0020
,
0000
0031
0200
0000
1300
0100
0001
0020
,
0000
0130
2000
0000
3001
0100
0010
2000
,
0000
3100
0010
0001
1000
0100
0000
2100
,
0000
3001
0100
0010
1000
0100
0010
0001
,
0000
0101
0000
1010
0000
0110
0000
2002
,
0000
0000
0000
3003
,
1100
0000
0011
0000
0001
0100
0010
1000
,
0200
0001
0010
1300
,
2000
0100
0001
3010
,
0020
1000
0100
0031
,
0010
0000
1000
0100
0010
0000
1001
0000
,
0201
1000
0010
0301
,
0002
0100
1000
0013
,
0020
0001
0100
1030
,
0110
0000
1001
0000
1000
0010
0100
0001
,
1000
0000
1100
0000
0010
0001
1000
0000
,
0010
0100
0001
0000
0110
0000
1001
0000
,
0001
0000
0101
0000
0010
1000
0001
0000
,
0010
0100
1000
0000
0110
0000
1001
0000
,
1100
0000
0011
0000
0100
1000
0001
0000
,
0101
0000
1010
0000
0100
0001
1000
0000
,
1001
0000
0011
0000
1100
0000
1000
0002
,
0000
0103
0010
1000
0001
0010
0100
1000
,
0002
0000
0103
0010
0200
0000
1300
0100
,
0002
2003
0100
3001
,
2000
0000
3100
0010
0200
0000
0301
0100
,
2000
3002
0100
1003
,
1000
0010
0200
0000
1000
0000
0301
0000
,
0001
0010
0200
0000
0001
0000
1300
0000
,
1010
0101
0011
1100
,
1000
0001
0100
0010
1000
0100
0010
0001
,
0202
0000
0303
2020
0000
3030
2002
0000
,
3003
0010
0100
0000
2002
0000
0000
0000
,
0000
0000
3003
0000
1000
0001
0000
2001
,
0000
3100
0001
0100
0010
0001
0000
2001
,
0000
3010
0001
0010
0100
0001
0000
2001
,
0000
3100
0010
0000
1001
0000
0010
0100
,
0000
1001
0000
0110
0000
1001
0000
1000
,
0001
0011
1100
1001
,
0001
0100
1000
0100
0010
1000
0100
0010
,
0001
1001
0000
0011
0000
0110
0000
1100
,
0000
1001
1000
0100
0010
0001
0000
1002
,
0000
0103
1000
0100
0010
1000
0000
1002
,
0000
0013
1000
0010
0100
1000
0000
1002
,
0000
0103
0010
0000
1001
0000
0010
0100
,
0000
1001
0000
0110
0000
1001
0000
0001
,
1000
1010
0101
1001
,
1000
0100
0001
0100
0010
0001
0100
0010
,
1000
1001
0000
1010
0000
0110
0000
0101
,
0000
1001
0001
0100
0010
1000
0000
1200
,
0000
0310
0002
0000
0103
1000
0100
0020
,
0000
1030
0200
0000
0301
0100
1000
0010
,
0000
1010
0000
0101
0000
0011
0000
1100
,
0000
1000
0100
0010
0001
0100
0000
0102
,
0000
1003
0100
0010
0001
0100
0010
1000
,
0000
1100
0000
0011
0000
0110
0000
2002
,
0000
0000
0000
3003
,
0001
0100
0010
1000
0100
0010
0001
1000
,
0001
0100
0010
0100
1000
0100
0001
1000
,
0100
0010
0100
0001
0100
1000
0001
1001
;

//---------------dance-single - 最果ての未来へ -Daff_4K-----------------
#NOTES:
     dance-single:
     最果ての未来へ -Daff_4K-:
     Challenge:
     15:
     0.795238,0.931667,0.822222,0.600000,0.294444,501.000000,427.000000,74.000000,54.000000,0.000000,0.000000,0.795238,0.931667,0.822222,0.600000,0.294444,501.000000,427.000000,74.000000,54.000000,0.000000,0.000000:
0000
0000
0000
0000
,
0000
0000
0000
0000
,
0000
0000
0000
0000
,
0000
0000
0000
0000
,
0000
0000
0000
0000
,
0000
0000
0000
0000
,
0000
0000
0000
0000
,
0000
0000
0000
0000
,
0000
0000
0000
0000
0110
0110
0000
2001
,
0000
3100
0010
1000
0001
0100
1000
1002
,
0000
0103
1000
0001
0010
1000
0001
0021
,
0000
1030
0010
0001
0100
1000
0100
0102
,
0000
0000
0013
0000
0100
0000
1000
0000
0010
0100
0010
0100
0001
0000
2001
0000
,
0000
3100
0001
1000
0010
0001
1000
1010
,
0000
0010
0100
0000
0000
0100
0001
0000
0010
0000
0100
1000
0001
2000
0002
0000
,
0000
0000
0000
3003
,
0110
0000
0000
0000
1001
0000
0000
0000
1000
0100
1000
0000
0001
0100
0001
0000
,
2001
0000
0100
0000
0010
0000
3001
0200
,
1000
0000
0010
0000
0301
0010
1000
0010
,
0012
0000
0100
0000
0010
0000
1003
0200
,
0001
0000
0010
0000
1300
0010
0001
0010
,
1020
0000
0001
0000
0130
0010
1000
0001
,
0021
0000
1000
0000
0130
0010
0001
1000
,
1010
0011
1100
0101
,
0001
0000
1000
0000
0010
0000
0100
0010
0100
0000
0001
0000
1000
0000
0100
0000
,
1100
0000
0011
0000
0001
1000
1010
0000
,
0100
0001
0010
1000
0010
0001
1001
0000
,
0101
0000
1010
0000
1000
0001
0011
0000
,
0100
1000
0010
0001
0010
1000
1001
0000
,
0101
0000
1100
0000
1000
0001
0011
0000
,
1100
0000
0101
0000
0001
1000
1010
0000
,
0110
0000
1001
0000
1000
0001
0010
0110
,
0000
0000
0100
0000
1000
0001
1000
0001
1000
0001
0100
0010
0100
0010
0100
0010
,
2000
0000
3100
0001
0200
0000
1300
0010
,
0001
0010
1000
0001
0010
0100
1000
0000
,
1002
0000
0103
1000
0200
0000
0301
0010
,
1000
0010
0001
1000
0010
0100
0001
0000
,
2001
0000
3100
0010
0001
0000
1100
0000
,
1002
0000
0103
0010
1000
0000
0001
0000
,
0110
0000
1001
0000
0001
0010
0100
1000
,
0010
0000
0100
0000
0001
0000
1000
0000
0100
0010
0100
0010
0100
0010
0001
0000
,
2002
0000
3003
2020
0000
3030
0022
0000
,
0033
0000
0110
0000
1001
0000
0000
0000
1000
0100
1000
0100
1000
0001
0100
0001
,
0100
0001
0010
0100
0010
0000
0100
0000
1000
0000
1001
0000
0000
0000
0201
0000
,
0000
0000
0310
1000
0010
0000
1000
0000
0001
0000
0010
0000
0000
0000
1200
0000
,
0000
0000
0310
0001
0010
0000
0001
0000
1000
0000
0010
0000
0000
0000
0102
0000
,
0000
0000
1003
0001
1000
0000
0010
0000
0100
0000
0001
0000
1000
0000
1100
0000
,
0000
0100
0001
0000
0000
0001
0010
0000
0000
0010
1000
0000
0001
0000
2001
0000
,
0000
3100
0010
0001
0100
1000
0100
0010
,
1000
0100
0001
0100
1000
0001
0100
0010
,
1000
2200
3300
0202
0303
0022
0033
0220
,
0330
0000
1001
0000
0001
0000
0010
0100
0010
0100
0010
0100
1000
0000
1200
0000
,
0000
0000
0310
0001
0010
0000
0001
0000
1000
0000
0010
0000
0000
0000
0201
0000
,
0000
0000
0310
1000
0010
0000
1000
0000
0001
0000
0010
0000
0000
0000
2100
0000
,
0000
0000
3001
1000
0001
0000
0010
0000
0100
0000
1000
0000
0001
0000
0101
0000
,
0000
0100
1000
0000
0000
1000
0010
0000
0000
0010
0001
0000
1000
0000
1002
0000
,
0000
0103
0010
1000
0100
0001
0100
0010
,
0001
0100
1000
0100
0001
1000
0100
0010
,
0001
0202
0303
2200
3300
2020
3030
0220
,
0330
0000
1001
0000
1000
0000
0010
0100
0010
0100
0001
0000
1000
0000
1002
0000
,
0000
0103
0010
0001
1000
0100
0001
2001
,
0000
3100
0001
1000
0010
0001
1000
1001
,
0000
0001
0100
0000
0000
0100
1000
0000
0000
1000
0010
0000
0000
0010
0001
0000
,
0100
0000
0010
0000
1000
0000
0001
0000
0010
0100
0010
0100
1000
0000
1002
0000
,
0000
0103
1000
0001
0010
1000
0001
0011
,
0000
0010
0100
0000
0000
0100
1000
0000
0010
0000
0100
0001
1000
0002
2000
0000
,
0000
0000
0000
3003
,
1000
0100
0001
1000
0010
0001
0100
0010
,
1000
0000
0001
0010
0001
0000
0100
0000
0010
0000
1000
0000
0001
0000
1000
0010
,
1000
0100
0010
0001
1000
0001
0110
1001
;
